#VERSION:0.83;
#TITLE:RUNWAY;
#SUBTITLE:;
#ARTIST:Lady Gaga & Doechii;
#TITLETRANSLIT:;
#SUBTITLETRANSLIT:;
#ARTISTTRANSLIT:;
#GENRE:Diva House;
#ORIGIN:;
#TAGS:;
#CREDIT:chewi;
#BANNER:RUNWAY.png;
#BACKGROUND:RUNWAY-bg.png;
#PREVIEWVID:;
#JACKET:RUNWAY-jacket.png;
#CDIMAGE:;
#DISCIMAGE:;
#LYRICSPATH:;
#CDTITLE:cdtitle.png;
#MUSIC:RUNWAY.ogg;
#OFFSET:2.000000;
#SAMPLESTART:36.000000;
#SAMPLELENGTH:12.000000;
#SELECTABLE:YES;
#BPMS:0.000000=120.000000
;
#STOPS:;
#DELAYS:;
#WARPS:;
#TIMESIGNATURES:0.000000=4=4
;
#TICKCOUNTS:0.000000=4
;
#COMBOS:0.000000=1
;
#SPEEDS:0.000000=1.000000=0.000000=0
;
#SCROLLS:0.000000=1.000000
;
#FAKES:;
#LABELS:0.000000=Song Start
;
#BGCHANGES:4.000=RUNWAY.mp4=1.000=1=0=1===CrossFade==,
204.000=RUNWAY-bg.png=1.000=1=0=1===CrossFade==,
99999=-nosongbg-=1.000=0=0=0 // don't automatically add -songbackground-
;
#KEYSOUNDS:;
#ATTACKS:
;

//---------------dance-single - chewi----------------
#NOTEDATA:;
#CHARTNAME:;
#CHARTHASH:2618946615;
#STEPSTYPE:dance-single;
#BANNER:;
#DESCRIPTION:chewi;
#CHARTSTYLE:;
#DIFFICULTY:Beginner;
#METER:1;
#METERF:0.000000;
#LASTSECONDHINT:99.500000;
#RADARVALUES:0.000000,0.000000,0.000000,0.000000,0.000000,0.000000,0.000000,0.000000,0.000000,0.000000,0.000000,0.000000,0.000000,0.000000,0.000000,0.000000,0.000000,0.000000,0.000000,0.000000,0.000000,0.000000,0.000000,0.000000,0.000000,0.000000,0.000000,0.000000;
#CREDIT:chewi;
#NOTES:
// measure 0
0000
0000
0000
0000
,  // measure 1
0000
0000
0000
0000
,  // measure 2
0000
0000
0000
0000
,  // measure 3
0100
0000
0100
0000
,  // measure 4
1000
0000
0010
0000
,  // measure 5
0100
0000
0100
0000
,  // measure 6
0001
0000
0010
0000
,  // measure 7
0010
0000
0100
0000
,  // measure 8
1000
0000
0001
0000
,  // measure 9
0100
0000
0010
0000
,  // measure 10
1000
0000
0001
0000
,  // measure 11
1001
0000
0000
0000
,  // measure 12
1001
0000
0000
0000
,  // measure 13
0110
0000
0000
0000
,  // measure 14
0100
0000
0100
0000
,  // measure 15
0110
0000
0000
0000
,  // measure 16
0110
0000
0000
0000
,  // measure 17
1001
0000
1001
0000
,  // measure 18
0000
0000
0000
0000
,  // measure 19
2000
0000
0000
3000
,  // measure 20
1000
0000
1000
0000
,  // measure 21
0001
0000
0010
0000
,  // measure 22
1000
0000
0100
0000
,  // measure 23
0002
0000
0000
0003
,  // measure 24
0001
0000
0001
0000
,  // measure 25
1000
0000
0010
0000
,  // measure 26
0001
0000
0100
0000
,  // measure 27
1000
0000
0000
0001
,  // measure 28
0001
0000
0001
0000
,  // measure 29
0010
0000
0010
0000
,  // measure 30
1000
0000
1000
0000
,  // measure 31
0010
0000
0010
0000
,  // measure 32
0001
0000
0001
0000
,  // measure 33
0100
0000
0100
0000
,  // measure 34
1000
0000
1000
0000
,  // measure 35
0110
0000
0000
0000
,  // measure 36
0110
0000
0000
0000
,  // measure 37
1001
0000
0000
0000
,  // measure 38
1000
0000
1000
0000
,  // measure 39
1001
0000
0000
0000
,  // measure 40
1001
0000
0000
0000
,  // measure 41
0110
0000
0110
0000
,  // measure 42
0000
0000
0000
0000
,  // measure 43
0002
0000
0000
0003
,  // measure 44
0001
0000
0001
0000
,  // measure 45
1000
0000
0100
0000
,  // measure 46
0001
0000
0010
0000
,  // measure 47
2000
0000
0000
3000
,  // measure 48
1000
0000
1000
0000
,  // measure 49
0001
0000
0100
0000
,  // measure 50
1000
0000
0100
0100
;

//---------------dance-single - ----------------
#NOTEDATA:;
#CHARTNAME:;
#CHARTHASH:2875648521;
#STEPSTYPE:dance-single;
#BANNER:;
#DESCRIPTION:;
#CHARTSTYLE:;
#DIFFICULTY:Easy;
#METER:3;
#METERF:0.000000;
#LASTSECONDHINT:99.500000;
#RADARVALUES:0.000000,0.000000,0.000000,0.000000,0.000000,0.000000,0.000000,0.000000,0.000000,0.000000,0.000000,0.000000,0.000000,0.000000,0.000000,0.000000,0.000000,0.000000,0.000000,0.000000,0.000000,0.000000,0.000000,0.000000,0.000000,0.000000,0.000000,0.000000;
#CREDIT:chewi;
#NOTES:
// measure 0
0000
0000
0000
0000
,  // measure 1
0000
0000
0000
0000
,  // measure 2
0000
0000
0000
0000
,  // measure 3
1001
0000
1000
0000
,  // measure 4
0100
0000
0001
0000
,  // measure 5
1001
0000
0001
0000
,  // measure 6
0100
0000
1000
0000
,  // measure 7
1001
0000
1000
0000
,  // measure 8
0010
0000
0001
0000
,  // measure 9
1001
0000
0001
0000
,  // measure 10
0010
0000
1000
0000
,  // measure 11
2000
0100
0000
3100
,  // measure 12
0002
0100
0000
0103
,  // measure 13
2000
0100
0000
3100
,  // measure 14
0110
0000
1001
0000
,  // measure 15
0110
0000
0100
0001
,  // measure 16
0010
0000
1000
0100
,  // measure 17
0001
0010
1000
0100
,  // measure 18
0000
0000
0000
0001
,  // measure 19
0001
0010
0001
0000
,  // measure 20
0010
0001
0010
0000
,  // measure 21
0001
0010
0010
0100
,  // measure 22
0010
0010
0001
0001
,  // measure 23
1000
0100
1000
0000
,  // measure 24
0100
1000
0100
0000
,  // measure 25
1000
0100
0100
0010
,  // measure 26
0100
0100
1000
1000
,  // measure 27
0000
0000
0000
0001
,  // measure 28
0100
0001
0100
0000
,  // measure 29
0010
1000
0010
0000
,  // measure 30
1000
0001
1000
0000
,  // measure 31
0001
1000
0001
0000
,  // measure 32
0010
0001
0010
0000
,  // measure 33
0001
0100
0001
0000
,  // measure 34
0100
0010
0100
0000
,  // measure 35
2000
0010
0000
3010
,  // measure 36
0002
0010
0000
0013
,  // measure 37
2000
0010
0000
3010
,  // measure 38
0110
0000
1001
0000
,  // measure 39
0110
0000
0010
0001
,  // measure 40
0100
0000
1000
0010
,  // measure 41
0001
0100
1000
0010
,  // measure 42
0000
0000
0000
0001
,  // measure 43
0001
0100
0001
0000
,  // measure 44
0100
0001
0100
0000
,  // measure 45
0001
0100
0100
0010
,  // measure 46
0100
0100
0001
0001
,  // measure 47
1000
0010
1000
0000
,  // measure 48
0010
1000
0010
0000
,  // measure 49
1000
0010
0010
0100
,  // measure 50
0010
0010
1000
1000
;

//---------------dance-single - ----------------
#NOTEDATA:;
#CHARTNAME:;
#CHARTHASH:1604328803;
#STEPSTYPE:dance-single;
#BANNER:;
#DESCRIPTION:;
#CHARTSTYLE:;
#DIFFICULTY:Medium;
#METER:5;
#METERF:5.000000;
#LASTSECONDHINT:99.750000;
#RADARVALUES:0.000000,0.000000,0.000000,0.000000,0.000000,0.000000,0.000000,0.000000,0.000000,0.000000,0.000000,0.000000,0.000000,0.000000,0.000000,0.000000,0.000000,0.000000,0.000000,0.000000,0.000000,0.000000,0.000000,0.000000,0.000000,0.000000,0.000000,0.000000;
#CREDIT:chewi;
#NOTES:
// measure 0
0000
0000
0000
0000
,  // measure 1
0000
0000
0000
0000
,  // measure 2
0000
0000
0000
0000
,  // measure 3
1001
0000
0000
0000
0000
0000
0000
0000
1000
0000
0000
0010
0000
0000
0000
0000
,  // measure 4
1000
0000
0000
0100
0000
0000
0000
0000
0010
0000
0000
0001
0000
0000
0010
0000
,  // measure 5
0110
0000
0000
0000
0000
0000
0000
0000
0100
0000
0000
1000
0000
0000
0000
0000
,  // measure 6
0100
0000
0000
0010
0000
0000
0000
0000
0001
0000
0000
0100
0000
0000
0001
0000
,  // measure 7
0101
0000
0000
0000
0000
0000
0000
0000
0001
0000
0000
0010
0000
0000
0000
0000
,  // measure 8
0001
0000
0000
0100
0000
0000
0000
0000
0010
0000
0000
1000
0000
0000
0010
0000
,  // measure 9
0110
0000
0000
0000
0000
0000
0000
0000
0100
0000
0000
0001
0000
0000
0100
0000
,  // measure 10
0100
0000
0000
0000
0010
0000
0000
1000
0000
0000
0100
0000
1000
0000
0000
0000
,  // measure 11
1100
0000
0000
0000
1000
0100
0001
0000
,  // measure 12
0100
0000
0000
0000
0010
0001
0100
0000
,  // measure 13
0010
0000
0000
0000
0100
0001
0100
0001
,  // measure 14
0100
0000
0000
0100
0001
0000
0000
0000
,  // measure 15
0101
0100
0001
0010
,  // measure 16
1000
0100
0001
0100
,  // measure 17
1000
0010
0001
0100
,  // measure 18
0000
0000
0000
0000
0000
0000
0000
0000
0000
0000
0000
0001
1000
0000
0001
0000
,  // measure 19
1001
0100
0001
0010
,  // measure 20
1000
0100
1000
0010
,  // measure 21
1000
0000
0010
0000
0100
0001
0100
0000
,  // measure 22
0001
0100
0001
0000
1000
1000
1000
0000
,  // measure 23
1001
0100
1000
0010
,  // measure 24
0001
0100
0001
0010
,  // measure 25
0001
0000
0010
0000
0100
1000
0100
0000
,  // measure 26
1000
0100
1000
0000
0001
0001
0001
0000
,  // measure 27
0000
0000
0000
0000
0000
0000
0000
0000
0000
0000
0000
1000
0001
0000
1000
0000
,  // measure 28
0001
0000
0100
0000
0010
0000
0100
0100
,  // measure 29
0001
0010
0100
1000
,  // measure 30
0010
1000
0100
0010
,  // measure 31
0100
0100
0100
0100
0000
0000
0110
0000
,  // measure 32
0100
0000
0010
0000
0100
0010
0001
0000
,  // measure 33
0001
0000
0010
0000
0100
0010
0100
0000
,  // measure 34
1000
0000
0010
0000
0100
0001
0010
0000
,  // measure 35
0011
0000
0000
0000
0001
0010
1000
0000
,  // measure 36
0010
0000
0000
0000
0100
1000
0010
0000
,  // measure 37
0100
0000
0000
0000
0010
1000
0010
1000
,  // measure 38
0010
0000
0000
0010
1000
0000
0000
0000
,  // measure 39
1010
0010
1000
0100
,  // measure 40
0001
0010
1000
0010
,  // measure 41
0001
0100
1000
0010
,  // measure 42
0000
0000
0000
0000
0000
0000
0000
0000
0000
0000
0000
1000
0001
0000
1000
0000
,  // measure 43
1001
0010
1000
0100
,  // measure 44
0001
0010
0001
0100
,  // measure 45
0001
0000
0100
0000
0010
1000
0010
0000
,  // measure 46
1000
0010
1000
0000
0001
0001
0001
0000
,  // measure 47
1001
0010
0001
0100
,  // measure 48
1000
0010
1000
0100
,  // measure 49
1000
0000
0100
0000
0010
0001
0010
0000
,  // measure 50
0001
0000
0010
0000
0001
0000
0000
0100
0000
0100
0000
0000
0001
0000
0001
0000
;

//---------------dance-single - chewi----------------
#NOTEDATA:;
#CHARTNAME:;
#CHARTHASH:1148190489;
#STEPSTYPE:dance-single;
#BANNER:;
#DESCRIPTION:chewi;
#CHARTSTYLE:;
#DIFFICULTY:Hard;
#METER:7;
#METERF:0.000000;
#LASTSECONDHINT:99.750000;
#RADARVALUES:0.420432,0.456792,0.149645,0.209503,0.124704,295.000000,280.000000,15.000000,21.000000,0.000000,0.000000,0.000000,0.000000,0.000000,0.420432,0.456792,0.149645,0.209503,0.124704,295.000000,280.000000,15.000000,21.000000,0.000000,0.000000,0.000000,0.000000,0.000000;
#CREDIT:chewi;
#NOTES:
// measure 0
0000
0000
0000
0000
,  // measure 1
0000
0000
0000
0000
,  // measure 2
0000
0000
0000
0000
,  // measure 3
0010
0000
0000
0000
0000
0000
0000
0000
0010
0000
0000
0001
0000
0000
0100
0000
,  // measure 4
0010
0000
0000
1000
0000
0000
0100
0000
0010
0000
0000
0001
0000
0000
0100
0000
,  // measure 5
0100
0000
0000
0000
0000
0000
0000
0000
0100
0000
0000
0001
0000
0000
0010
0000
,  // measure 6
0100
0000
0000
1000
0000
0000
0010
0000
0100
0000
0000
0001
0000
0000
0010
0000
,  // measure 7
0010
0000
0000
0000
0000
0000
0000
0000
0001
0000
0000
0010
0000
0000
0100
0000
,  // measure 8
0010
0000
0000
0001
0000
0000
1000
0000
0010
0000
0000
0100
0000
0000
0001
0000
,  // measure 9
0001
0000
0000
0000
0000
0000
0000
0000
0100
0000
0000
0010
0000
0000
1000
0000
,  // measure 10
0100
0000
0010
0100
1000
0010
1000
0000
,  // measure 11
2020
0000
3030
0000
1000
0100
0001
0000
,  // measure 12
0202
0000
0303
0000
0001
0100
0010
0000
,  // measure 13
0100
0000
1000
0000
1000
0000
0001
0010
,  // measure 14
0010
0000
0000
0001
0001
0000
0000
0000
,  // measure 15
2002
0000
3003
0000
0001
0100
1000
0000
,  // measure 16
0220
0000
0330
0000
1000
0100
0010
0000
,  // measure 17
0100
0100
0010
0010
0001
0001
1000
1000
,  // measure 18
2002
0000
0000
0000
0000
0000
0000
0000
3003
0000
0000
1000
0001
0000
1000
0000
,  // measure 19
1001
1000
0001
0100
0001
0010
1000
0100
,  // measure 20
0001
0100
1000
0010
0001
0010
0002
0000
,  // measure 21
0100
0000
0000
0000
1003
0000
0000
1000
0000
1000
0000
0000
0001
0000
0001
0000
,  // measure 22
0100
0001
0100
0001
1000
0010
1000
0010
,  // measure 23
1001
1000
0001
0010
1000
0010
0001
0100
,  // measure 24
1000
0100
0001
0010
1000
0010
0001
0000
,  // measure 25
0010
0000
0000
0000
0100
0000
0000
1000
0000
1000
0000
0000
0001
0000
0001
0000
,  // measure 26
0010
0010
0001
0001
1000
1000
0100
0100
,  // measure 27
1000
0000
0001
0000
0010
0000
0000
0010
0000
0001
0000
0000
0100
0000
0100
0000
,  // measure 28
1000
0100
1000
0000
0100
0000
0001
0000
,  // measure 29
0010
0100
0010
0000
0001
0000
1000
0000
,  // measure 30
0010
0100
0001
1000
0001
0010
0100
0000
,  // measure 31
0100
0000
0100
0000
0100
0000
0100
0000
0010
0000
0000
0001
0010
0000
0001
0000
,  // measure 32
0010
0100
1000
0010
0100
0001
0100
0000
,  // measure 33
0010
0100
0001
0000
1000
0100
0010
0000
,  // measure 34
0010
0001
0010
0000
0001
0100
0001
0000
,  // measure 35
0202
0000
0303
0000
0001
0010
1000
0000
,  // measure 36
2020
0000
3030
0000
1000
0010
0100
0000
,  // measure 37
0220
0000
0330
0000
0001
1000
0100
0100
,  // measure 38
0100
0000
0000
1000
1000
0000
0000
0000
,  // measure 39
1001
0000
1000
0000
1000
0010
0001
0000
,  // measure 40
0110
0000
0010
0000
0001
0010
0100
0000
,  // measure 41
0010
0010
0100
0100
1000
1000
0001
0001
,  // measure 42
2002
0000
0000
0000
0000
0000
0000
0000
3003
0000
0000
0001
1000
0000
0001
0000
,  // measure 43
1001
0001
1000
0010
1000
0100
0001
0010
,  // measure 44
1000
0010
0001
0100
1000
0100
2000
0000
,  // measure 45
0010
0000
0000
0000
3001
0000
0000
0001
0000
0001
0000
0000
1000
0000
1000
0000
,  // measure 46
0010
1000
0010
1000
0001
0100
0001
0100
,  // measure 47
1001
0001
1000
0100
0001
0100
1000
0010
,  // measure 48
0001
0010
1000
0100
0001
0100
2000
0000
,  // measure 49
0100
0000
0000
0000
3001
0000
0000
0001
0000
0001
0000
0000
1000
0000
1000
0000
,  // measure 50
0100
0000
1000
0000
0100
0000
0000
0010
0000
0010
0000
0000
0100
0000
0100
0000
;
