#VERSION:0.83;
#TITLE:Please Please Please;
#SUBTITLE:;
#ARTIST:Sabrina Carpenter;
#TITLETRANSLIT:;
#SUBTITLETRANSLIT:;
#ARTISTTRANSLIT:;
#GENRE:Pop;
#ORIGIN:;
#TAGS:;
#CREDIT:;
#BANNER:Please Please Please.png;
#BACKGROUND:Please Please Please-bg.png;
#PREVIEWVID:;
#JACKET:Please Please Please-jacket.png;
#CDIMAGE:;
#DISCIMAGE:;
#LYRICSPATH:;
#CDTITLE:cdtitle.png;
#MUSIC:Please Please Please.ogg;
#OFFSET:0.056000;
#SAMPLESTART:53.776001;
#SAMPLELENGTH:12.000000;
#SELECTABLE:YES;
#BPMS:0.000000=107.000000
;
#STOPS:;
#DELAYS:;
#WARPS:;
#TIMESIGNATURES:0.000000=4=4
;
#TICKCOUNTS:0.000000=4
;
#COMBOS:0.000000=1
;
#SPEEDS:0.000000=1.000000=0.000000=0
;
#SCROLLS:0.000000=1.000000
;
#FAKES:;
#LABELS:0.000000=Song Start
;
#BGCHANGES:0.056=Please Please Please.mp4=1.000=1=0=1===CrossFade==,
160=Please Please Please-bg.png=1.000=1=0=1===CrossFade==,
99999=-nosongbg-=1.000=0=0=0=====
;
#KEYSOUNDS:;
#ATTACKS:
;

//---------------dance-single - ----------------
#NOTEDATA:;
#CHARTNAME:;
#CHARTHASH:1257696502;
#STEPSTYPE:dance-single;
#BANNER:;
#DESCRIPTION:;
#CHARTSTYLE:;
#DIFFICULTY:Beginner;
#METER:1;
#METERF:0.000000;
#LASTSECONDHINT:89.663628;
#RADARVALUES:0.065327,0.127616,0.042539,0.074443,0.000000,43.000000,39.000000,4.000000,7.000000,0.000000,0.000000,0.000000,0.000000,0.000000,0.065327,0.127616,0.042539,0.074443,0.000000,43.000000,39.000000,4.000000,7.000000,0.000000,0.000000,0.000000,0.000000,0.000000;
#CREDIT:;
#NOTES:
0000
0000
0000
0000
,
0000
0000
0000
0000
,
2000
0000
0000
3000
,
1000
0000
0000
0000
,
0002
0000
0000
0003
,
0001
0000
0000
0000
,
0200
0000
0000
0300
,
0100
0000
0000
0000
,
0010
0000
0000
0000
,
0010
0000
0000
0000
,
0100
0000
0000
0000
,
0100
0000
0000
0000
,
0001
0000
0000
0000
,
0001
0000
0000
0000
,
1000
0000
0000
0000
,
1000
0000
0000
0000
,
0100
0000
0000
0000
,
0010
0000
0000
0000
,
0001
0000
0000
0000
,
1000
0000
0000
0000
,
0010
0000
0000
0000
,
0100
0000
0000
0000
,
0001
0000
0000
0000
,
1000
0000
0000
0000
,
2000
0000
0000
3000
,
1000
0000
0000
0000
,
0002
0000
0000
0003
,
0001
0000
0000
0000
,
0200
0000
0000
0300
,
0100
0000
0000
0000
,
0020
0000
0000
0030
,
0010
0000
0000
0000
,
0110
0000
0000
0000
,
1001
0000
0000
0000
,
0110
0000
0000
0000
,
1001
0000
0000
0000
,
1000
0000
0000
0000
,
0010
0000
0000
0000
,
0001
0000
0000
0000
,
0100
0000
0000
0000
,
1000
0000
0000
0000
;

//---------------dance-single - ----------------
#NOTEDATA:;
#CHARTNAME:;
#CHARTHASH:2147483647;
#STEPSTYPE:dance-single;
#BANNER:;
#DESCRIPTION:;
#CHARTSTYLE:;
#DIFFICULTY:Easy;
#METER:2;
#METERF:0.000000;
#LASTSECONDHINT:89.663628;
#RADARVALUES:0.151924,0.191424,0.031904,0.212694,0.000000,100.000000,97.000000,3.000000,20.000000,0.000000,0.000000,0.000000,0.000000,0.000000,0.151924,0.191424,0.031904,0.212694,0.000000,100.000000,97.000000,3.000000,20.000000,0.000000,0.000000,0.000000,0.000000,0.000000;
#CREDIT:;
#NOTES:
0000
0000
0000
0000
,
0000
0000
0000
0000
,
1000
0000
1000
0000
,
0001
0000
0001
0000
,
0100
0100
0100
0000
,
0010
0010
0010
0000
,
2000
0000
0000
3000
,
0002
0000
0000
0003
,
1000
1000
0100
0000
,
0001
0001
0100
0000
,
1000
1000
0010
0000
,
0001
0001
0010
0000
,
0010
0010
0100
0000
,
0100
0100
1000
0000
,
1000
1000
0010
0000
,
0100
0100
0001
0000
,
0001
1000
1000
0000
,
1000
0001
0001
0000
,
0010
0100
0100
0000
,
0100
0010
0010
0000
,
0001
0000
0001
0000
,
1000
0000
1000
0000
,
0010
0000
0010
0000
,
0100
0000
0100
0000
,
0020
0000
2030
0000
,
3020
0000
1030
0010
,
2020
0000
3030
0000
,
0202
0000
0303
0000
,
0002
0000
0203
0000
,
0302
0000
0103
0001
,
0100
0001
1000
0100
,
1000
0100
0200
0300
,
0100
0100
0100
0000
,
0010
0001
0100
0000
,
0010
0010
0010
0000
,
1000
0100
0010
0000
,
0002
0000
2003
0000
,
3001
0000
0001
1000
,
2002
3000
0020
0003
,
0200
0030
2000
0300
,
3100
0000
0000
0000
;

//---------------dance-single - ----------------
#NOTEDATA:;
#CHARTNAME:;
#CHARTHASH:2147483647;
#STEPSTYPE:dance-single;
#BANNER:;
#DESCRIPTION:;
#CHARTSTYLE:;
#DIFFICULTY:Medium;
#METER:5;
#METERF:5.000000;
#LASTSECONDHINT:89.663628;
#RADARVALUES:0.262828,0.297771,0.159520,0.276502,0.005317,173.000000,158.000000,15.000000,26.000000,0.000000,0.000000,0.000000,0.000000,0.000000,0.262828,0.297771,0.159520,0.276502,0.005317,173.000000,158.000000,15.000000,26.000000,0.000000,0.000000,0.000000,0.000000,0.000000;
#CREDIT:;
#NOTES:
0000
0000
0000
0000
,
0000
0000
0000
0000
,
1000
0100
0000
1000
0100
0000
1100
0000
,
0001
0100
0000
0001
0100
0000
0101
0000
,
0100
0100
0100
0000
0010
0000
1000
0000
,
0100
0100
0100
0000
0010
0000
0011
0000
,
1000
1000
1000
0000
0001
0001
0001
0000
,
1000
0001
1000
0000
0001
1000
0001
0000
,
0010
0000
0100
0000
0010
0010
0100
0000
,
1000
0000
0001
0000
1000
1000
0001
0000
,
0100
0000
0010
0000
0100
0100
0010
0000
,
0100
0000
0001
0000
0100
0100
0001
0000
,
0002
0103
2000
3100
,
0002
0013
2000
3010
,
0010
0000
0000
0010
0000
0000
0010
0000
,
0100
0000
0000
0100
0000
0000
0100
0000
,
0002
1003
2000
3001
,
2000
3100
0200
1300
,
0200
0310
0020
0130
,
0020
0031
0002
0013
,
0001
0000
1000
0000
0010
0010
0010
0000
,
0100
0000
0001
0000
1000
1000
1000
0000
,
0001
0000
1000
0000
0001
1000
0001
0000
,
1000
0001
0100
0001
,
0202
0303
0220
0330
,
2020
0000
0000
0000
3030
0000
0000
0000
0010
0000
0000
0010
0000
0000
0010
0000
,
0100
0001
0010
0110
,
0100
0000
1000
0000
1000
1000
1000
0000
,
2200
3300
0220
0330
,
0022
0033
1000
0001
,
0010
0000
0000
0010
0100
0000
0000
0100
,
1000
0000
0000
1000
0001
0000
1000
0000
,
0002
0010
1000
0103
,
2000
0100
0001
3010
,
0001
0010
0100
1000
,
1000
0100
0010
0001
,
1001
0000
0110
0000
,
0000
0000
0101
1100
,
0101
0000
0000
0001
0001
0000
0000
1000
,
1000
0000
0000
0100
0100
0000
0000
0010
,
0010
0000
0000
0000
;

//---------------dance-single - ----------------
#NOTEDATA:;
#CHARTNAME:;
#CHARTHASH:1558112390;
#STEPSTYPE:dance-single;
#BANNER:;
#DESCRIPTION:;
#CHARTSTYLE:;
#DIFFICULTY:Hard;
#METER:7;
#METERF:0.000000;
#LASTSECONDHINT:89.663628;
#RADARVALUES:0.353983,0.382848,0.191424,0.297771,0.116981,233.000000,215.000000,18.000000,28.000000,0.000000,0.000000,0.000000,0.000000,0.000000,0.353983,0.382848,0.191424,0.297771,0.116981,233.000000,215.000000,18.000000,28.000000,0.000000,0.000000,0.000000,0.000000,0.000000;
#CREDIT:;
#NOTES:
// measure 0
0000
0000
0000
0000
,  // measure 1
0000
0000
0000
0000
,  // measure 2
1000
0000
0000
0100
0000
0000
0100
0000
1000
0000
0000
0000
1010
0000
0000
0000
,  // measure 3
0100
0000
0000
0001
0000
0000
0001
0000
0100
0000
0000
0001
1000
0000
0001
0000
,  // measure 4
0010
0001
0010
0001
0100
0001
0100
0001
,  // measure 5
1000
0000
0010
0000
1000
0000
0010
0000
0100
0000
0000
0100
0001
0000
0100
0000
,  // measure 6
0001
1000
0001
1000
0100
0010
0100
0010
,  // measure 7
0001
0100
0001
0100
0010
1000
0010
1000
,  // measure 8
2001
0000
3010
0000
0100
0010
0001
0000
,  // measure 9
2000
0000
3010
0000
0100
0001
0100
0000
,  // measure 10
0002
0000
0013
0000
0100
1000
0100
0000
,  // measure 11
2000
0000
3100
0000
0010
0001
1000
0001
,  // measure 12
0200
0000
0320
0000
2030
0000
3010
0010
,  // measure 13
2000
0000
3200
0000
0320
0000
0130
0100
,  // measure 14
0010
0000
0000
0001
0000
0000
1000
0000
0010
0000
0000
0010
0000
0000
0000
0000
,  // measure 15
0100
0000
0000
0001
0000
0000
1000
0000
0100
0000
0000
0100
0010
0000
0001
0000
,  // measure 16
0001
0100
1000
0000
0100
0001
0010
0000
,  // measure 17
0100
1000
0001
0010
0011
0000
1001
0000
,  // measure 18
1000
0001
0100
0000
0001
0100
0010
0000
,  // measure 19
1000
0001
0010
0000
0001
0010
0100
0000
,  // measure 20
1000
1000
0010
0000
0100
0000
0101
0000
,  // measure 21
0001
0001
0100
0000
0010
0000
1010
0000
,  // measure 22
0001
0000
1000
0000
0100
0100
0100
0000
,  // measure 23
0010
0000
0001
0000
1000
1000
1000
0000
,  // measure 24
2010
3001
0012
1003
,  // measure 25
2001
0000
0000
0000
3001
0000
0100
0000
0100
0000
0000
0100
0000
0000
0100
0000
,  // measure 26
0001
0010
0100
1000
0001
0010
0100
0000
,  // measure 27
1000
0000
0000
0010
0000
0000
0100
0000
0101
0000
0001
0000
0101
0000
0100
0000
,  // measure 28
0102
1003
2100
3001
,  // measure 29
1002
0000
0000
0000
1003
0000
0010
0000
0010
0000
0000
0010
0000
0000
0010
0000
,  // measure 30
1000
0000
0000
0100
0000
0000
0010
0000
0001
0000
0000
0100
0000
0000
0010
0000
,  // measure 31
1000
0000
0000
0100
0000
0000
0020
0000
0002
0000
0000
0000
0033
0000
0000
0000
,  // measure 32
0010
0000
0000
0010
0000
0000
0001
0000
0010
0000
0000
0010
0000
0000
0100
0000
,  // measure 33
1000
0000
0000
1000
0000
0000
0010
0000
1000
0000
0000
1000
0000
0000
0010
0000
,  // measure 34
0100
0000
0000
0100
0000
0000
0001
0000
0100
0000
0000
0100
0000
0000
0010
0000
,  // measure 35
1000
0000
0000
1000
0000
0000
1000
0000
0001
0000
0000
1001
0000
0000
1000
0000
,  // measure 36
0200
0000
0310
0000
0001
1000
0100
0000
,  // measure 37
0020
0000
0031
0000
0022
0033
0220
0330
,  // measure 38
2100
0000
0000
0010
0020
0000
3000
0100
,  // measure 39
0200
0000
0030
0001
0002
0000
0000
0000
,  // measure 40
0303
0000
0000
0000
;
