#VERSION:0.83;
#TITLE:Phat Punani;
#SUBTITLE:;
#ARTIST:Leftside;
#TITLETRANSLIT:;
#SUBTITLETRANSLIT:;
#ARTISTTRANSLIT:;
#GENRE:Dancehall;
#ORIGIN:;
#TAGS:;
#CREDIT:chewi;
#BANNER:Phat Punani.png;
#BACKGROUND:Phat Punani-bg.png;
#PREVIEWVID:;
#JACKET:Phat Punani-jacket.png;
#CDIMAGE:;
#DISCIMAGE:;
#LYRICSPATH:;
#CDTITLE:cdtitle.png;
#MUSIC:Phat Punani.ogg;
#OFFSET:0.000000;
#SAMPLESTART:28.802000;
#SAMPLELENGTH:12.000000;
#SELECTABLE:YES;
#BPMS:0.000000=99.991997
;
#STOPS:;
#DELAYS:;
#WARPS:;
#TIMESIGNATURES:0.000000=4=4
;
#TICKCOUNTS:0.000000=4
;
#COMBOS:0.000000=1
;
#SPEEDS:0.000000=1.000000=0.000000=0
;
#SCROLLS:0.000000=1.000000
;
#FAKES:;
#LABELS:0.000000=Song Start
;
#BGCHANGES:;
#KEYSOUNDS:;
#ATTACKS:
;

//---------------dance-single - chewi----------------
#NOTEDATA:;
#CHARTNAME:chewi;
#CHARTHASH:1343702663;
#STEPSTYPE:dance-single;
#BANNER:;
#DESCRIPTION:chewi;
#CHARTSTYLE:;
#DIFFICULTY:Beginner;
#METER:1;
#METERF:0.000000;
#LASTSECONDHINT:93.607491;
#RADARVALUES:0.077260,0.121685,0.166407,0.000000,0.000000,52.000000,36.000000,16.000000,0.000000,0.000000,0.000000,0.000000,0.000000,0.000000,0.077260,0.121685,0.166407,0.000000,0.000000,52.000000,36.000000,16.000000,0.000000,0.000000,0.000000,0.000000,0.000000,0.000000;
#CREDIT:chewi;
#NOTES:
0000
0000
0000
0000
,
0000
0000
0000
0000
,
0000
0000
0000
0000
,
0000
0000
0000
0000
,
1000
0000
0000
0000
,
0100
0000
0000
0000
,
0010
0000
0000
0000
,
0001
0000
0000
0000
,
1000
0000
0000
0000
,
0010
0000
0000
0000
,
0100
0000
0000
0000
,
0001
0000
0000
0000
,
1001
0000
0000
0000
,
0110
0000
0000
0000
,
1001
0000
0000
0000
,
0110
0000
0000
0000
,
0110
0000
0000
0000
,
1001
0000
0000
0000
,
0110
0000
0000
0000
,
1001
0000
0000
0000
,
1000
0000
0000
0000
,
0100
0000
0000
0000
,
0001
0000
0000
0000
,
0010
0000
0000
0000
,
1000
0000
0000
0000
,
0010
0000
0000
0000
,
0001
0000
0000
0000
,
0100
0000
0000
0000
,
1001
0000
0000
0000
,
0110
0000
0000
0000
,
1001
0000
0000
0000
,
0110
0000
0000
0000
,
0110
0000
0000
0000
,
1001
0000
0000
0000
,
0110
0000
0000
0000
,
1001
0000
0000
0000
,
1000
0000
0000
0000
,
0001
0000
0000
0000
,
0010
0000
0000
0000
,
0100
0000
0000
0000
;

//---------------dance-single - chewi----------------
#NOTEDATA:;
#CHARTNAME:chewi;
#CHARTHASH:2147483647;
#STEPSTYPE:dance-single;
#BANNER:;
#DESCRIPTION:chewi;
#CHARTSTYLE:;
#DIFFICULTY:Easy;
#METER:2;
#METERF:0.000000;
#LASTSECONDHINT:94.807587;
#RADARVALUES:0.161949,0.184867,0.010400,0.000000,0.000000,109.000000,108.000000,1.000000,0.000000,0.000000,0.000000,0.000000,0.000000,0.000000,0.161949,0.184867,0.010400,0.000000,0.000000,109.000000,108.000000,1.000000,0.000000,0.000000,0.000000,0.000000,0.000000,0.000000;
#CREDIT:chewi;
#NOTES:
0000
0000
0000
0000
,
0000
0000
0000
0000
,
0000
0000
0000
0000
,
0000
0000
0000
0000
,
0010
0000
0100
0000
,
0001
0000
1000
0000
,
0001
0000
0010
0000
,
0100
0000
1000
0000
,
1000
1000
1000
0000
,
0001
0001
0001
0000
,
0100
0100
0100
0000
,
0110
0000
0000
0000
,
0001
0001
1000
0001
,
1000
1000
0001
1000
,
0001
0001
1000
0001
,
0010
0000
0010
0000
,
0010
0100
1000
0100
,
0010
0100
1000
0100
,
0010
0100
1000
0001
,
1000
1000
1000
0000
,
0001
0100
0100
0000
,
0010
1000
1000
0000
,
0001
0010
0010
0000
,
0100
1000
1000
0000
,
1000
0001
1000
0000
,
0001
1000
0001
0000
,
0100
0010
0100
0000
,
0010
0100
0010
0000
,
1000
1000
0001
1000
,
0001
0001
1000
0001
,
1000
1000
0001
1000
,
0100
0000
0100
0000
,
0100
0010
0001
0010
,
0100
0010
0001
0010
,
0100
0010
0001
1000
,
0001
0001
0001
0000
,
1000
0000
0010
0000
,
1000
0000
0100
0000
,
0010
0000
0000
0000
,
0001
0001
0001
0000
;

//---------------dance-single - chewi----------------
#NOTEDATA:;
#CHARTNAME:chewi;
#CHARTHASH:2147483647;
#STEPSTYPE:dance-single;
#BANNER:;
#DESCRIPTION:chewi;
#CHARTSTYLE:;
#DIFFICULTY:Medium;
#METER:5;
#METERF:0.000000;
#LASTSECONDHINT:95.857674;
#RADARVALUES:0.285269,0.311525,0.187207,0.000000,0.104004,192.000000,174.000000,18.000000,0.000000,0.000000,0.000000,0.000000,0.000000,0.000000,0.285269,0.311525,0.187207,0.000000,0.104004,192.000000,174.000000,18.000000,0.000000,0.000000,0.000000,0.000000,0.000000,0.000000;
#CREDIT:chewi;
#NOTES:
0000
0000
0000
0000
,
0000
0000
0000
0000
,
0000
0000
0000
0000
,
0000
0000
0000
0000
,
1000
0000
0000
1000
0000
0000
1000
0000
0100
0000
0000
0100
0000
0000
0100
0000
,
1000
0000
0000
1000
0000
0000
1000
0000
0010
0000
0000
0010
0000
0000
0010
0000
,
0100
0000
0000
0100
0000
0000
0100
0000
0001
0000
0000
0001
0000
0000
0001
0000
,
1000
0000
0000
0000
1000
0000
0000
0000
0001
0000
0000
0001
0000
0000
0100
0000
,
0010
0000
0000
1000
0000
0000
0010
0000
0100
0000
0000
0000
0001
0000
0100
0000
,
0100
0000
0000
0010
0000
0000
1000
0000
0001
0000
0000
1000
0000
0000
0001
0000
,
0010
0100
1000
0001
,
1001
0000
0000
0000
,
1000
0000
0100
0000
0010
0010
0001
0000
,
0001
0000
0100
0000
0010
0010
1000
0000
,
0001
0000
0010
0000
0100
0100
1000
0000
,
1000
1100
0001
0101
,
0001
0000
0010
0000
0100
0100
1000
0000
,
1000
0000
0010
0000
0100
0100
0001
0000
,
1000
0000
0100
0000
0010
0010
0001
0000
,
0001
0011
1000
1010
,
0010
0100
0001
1000
,
0001
0010
0100
1000
,
1000
0010
0100
0001
,
0101
0101
1001
1001
,
0100
0010
1000
0001
,
1000
0100
0010
0001
,
0001
0100
0010
1000
,
1010
1010
1001
1001
,
1000
0000
0100
0000
0010
0010
0001
0000
,
0001
0000
0100
0000
0010
0010
1000
0000
,
0001
0000
0010
0000
0100
0100
1000
0000
,
1000
1100
0001
0101
,
0001
0000
0010
0000
0100
0100
1000
0000
,
1000
0000
0010
0000
0100
0100
0001
0000
,
1000
0000
0100
0000
0010
0010
0001
0000
,
0001
0011
1000
1010
,
0010
0000
0000
0010
0000
0000
0010
0000
0100
0000
0000
0100
0000
0000
0100
0000
,
0001
0000
0000
0001
0000
0000
0001
0000
1000
0000
0000
1000
0000
0000
1000
0000
,
0001
0000
0000
0001
0000
0000
0001
0000
1000
0000
0000
1000
0000
0000
1000
0000
,
1001
0000
0000
1000
0001
0000
0000
1000
0001
0000
0000
1000
0000
0000
1000
0001
;

//---------------dance-single - chewi----------------
#NOTEDATA:;
#CHARTNAME:chewi;
#CHARTHASH:848607657;
#STEPSTYPE:dance-single;
#BANNER:;
#DESCRIPTION:chewi;
#CHARTSTYLE:;
#DIFFICULTY:Hard;
#METER:8;
#METERF:0.000000;
#LASTSECONDHINT:95.857674;
#RADARVALUES:0.490305,0.581513,0.291212,0.000000,0.535621,330.000000,302.000000,28.000000,0.000000,0.000000,0.000000,0.000000,0.000000,0.000000,0.490305,0.581513,0.291212,0.000000,0.535621,330.000000,302.000000,28.000000,0.000000,0.000000,0.000000,0.000000,0.000000,0.000000;
#CREDIT:chewi;
#NOTES:
// measure 0
0000
0000
0000
0000
,  // measure 1
0000
0000
0000
0000
,  // measure 2
1000
0000
0000
0100
0000
0000
1000
0000
0010
0000
0000
0100
0000
0000
0101
0000
,  // measure 3
0101
0000
0000
0100
0001
0000
0000
0100
0010
0000
0000
1000
0000
0000
0100
0010
,  // measure 4
0001
0000
0000
0010
0000
0000
0001
0000
0100
0000
0000
0010
0000
0000
1010
0000
,  // measure 5
1000
0000
0000
0010
0000
0000
1000
0000
0001
0000
0000
0010
0000
0000
0100
0000
,  // measure 6
0110
0000
0000
0100
0000
0000
1000
0000
0001
0000
0000
1000
0000
0000
0001
0000
,  // measure 7
1001
0000
0000
0001
1000
0000
0000
0001
0010
0000
0000
0010
0000
0000
0100
1000
,  // measure 8
0100
0010
0100
1000
0100
0010
0001
1001
,  // measure 9
1000
0010
0100
0001
0100
0010
0100
0110
,  // measure 10
0100
0001
1000
0010
1000
0001
0100
0101
,  // measure 11
0001
0100
0001
0100
0001
0000
0100
0010
1000
0000
0000
0100
0010
0001
1000
0000
,  // measure 12
1001
0000
0000
1000
0001
1000
0010
0100
0001
0000
0100
0000
0010
1000
0010
1000
,  // measure 13
1001
0000
0000
0001
1000
0001
0100
0010
1000
0000
0100
0000
0010
0001
0010
0001
,  // measure 14
0011
0000
0000
0010
0100
0010
0100
1000
0001
0000
0100
0000
0010
1000
0010
1000
,  // measure 15
1001
0000
0000
1000
0001
0000
0000
0001
1000
0000
0000
0100
0000
0000
0010
0001
,  // measure 16
1000
0000
0000
0100
0000
0000
0100
0000
1000
0000
0000
0010
0000
0000
0100
0000
,  // measure 17
0001
0000
0000
0010
0000
0000
0010
0000
0100
0000
0000
0010
0000
0000
0001
0000
,  // measure 18
1000
0000
0000
0010
0000
0000
0010
0000
0100
0000
0000
0001
0000
0000
0100
0000
,  // measure 19
0010
0000
0000
0010
1000
0000
0000
1000
0100
0000
0000
0100
0000
0000
0010
0001
,  // measure 20
0100
0001
0010
0100
0001
0100
0010
0110
,  // measure 21
0010
0001
1000
0010
0100
0001
0100
0101
,  // measure 22
0100
0001
1000
0100
0010
0001
1000
1001
,  // measure 23
0101
0000
0000
0100
0001
0000
0000
0100
0010
0000
0000
1000
0000
0000
0001
0000
,  // measure 24
0100
0000
0000
0100
0000
0000
0100
0000
0010
1000
0010
1000
0000
0000
1010
0000
,  // measure 25
1000
0000
0000
0001
0000
0000
0010
0000
0100
0000
0000
0010
0000
0000
0110
0000
,  // measure 26
0010
0000
0000
0010
0000
0000
0010
0000
0001
0100
0001
0100
0000
0000
0101
0000
,  // measure 27
1001
0000
0000
1000
0001
0000
0000
1000
0001
0000
0000
0100
0000
0000
0110
0000
,  // measure 28
1001
0000
0000
0001
1000
0001
0100
0010
1000
0000
0010
0000
0100
0001
0100
0001
,  // measure 29
1001
0000
0000
1000
0001
1000
0010
0100
0001
0000
0010
0000
0100
1000
0100
1000
,  // measure 30
1100
0000
0000
0100
0010
0100
0010
0001
1000
0000
0010
0000
0100
0001
0100
0001
,  // measure 31
1001
0000
0000
0001
1000
0000
0000
0001
1000
0000
0000
0100
0000
0000
0010
0001
,  // measure 32
0010
0000
0000
0010
0000
0000
0010
0000
0001
0000
0000
0100
0000
0000
1010
0000
,  // measure 33
1000
0000
0000
1000
0000
0000
1000
0000
0100
0000
0000
0010
0000
0000
0011
0000
,  // measure 34
1000
0000
0000
1000
0000
0000
1000
0000
0100
0000
0000
1000
0000
0000
1010
0000
,  // measure 35
0100
0000
0000
0100
0010
0000
0000
0100
0010
0000
0000
0010
0000
0000
0010
0100
,  // measure 36
0001
0000
0000
0001
0000
0000
0001
0000
1000
0000
0000
1000
0000
0000
1000
0000
,  // measure 37
0001
0000
0000
0100
0000
0000
1000
0000
0100
0000
0000
0001
0000
0000
0010
0000
,  // measure 38
0100
0000
0000
1000
0000
0000
0010
0000
0100
0000
0000
0001
0000
0000
0010
0000
,  // measure 39
0001
0000
0000
0010
0001
0000
0000
0010
0100
0000
0000
0100
0000
0000
1000
1000
;
