#VERSION:0.83;
#TITLE:No Daddy;
#SUBTITLE:;
#ARTIST:Teairra MarĂ­;
#TITLETRANSLIT:;
#SUBTITLETRANSLIT:;
#ARTISTTRANSLIT:;
#GENRE:;
#ORIGIN:;
#TAGS:;
#CREDIT:;
#BANNER:No Daddy.png;
#BACKGROUND:No Daddy-bg.png;
#PREVIEWVID:;
#JACKET:No Daddy-jacket.png;
#CDIMAGE:;
#DISCIMAGE:;
#LYRICSPATH:;
#CDTITLE:cdtitle.png;
#MUSIC:No Daddy.ogg;
#OFFSET:0.000000;
#SAMPLESTART:18.173000;
#SAMPLELENGTH:12.000000;
#SELECTABLE:YES;
#BPMS:0.000000=104.000000
;
#STOPS:124.000000=1.719000
;
#DELAYS:;
#WARPS:;
#TIMESIGNATURES:0.000000=4=4
;
#TICKCOUNTS:0.000000=4
;
#COMBOS:0.000000=1
;
#SPEEDS:0.000000=1.000000=0.000000=0
;
#SCROLLS:0.000000=1.000000
;
#FAKES:;
#LABELS:0.000000=Song Start
;
#BGCHANGES:0.000=No Daddy.mp4=1.000=1=0=1===CrossFade==,
164.000=No Daddy-bg.png=1.000=1=0=1===CrossFade==,
99999=-nosongbg-=1.000=0=0=0 // don't automatically add -songbackground-
;
#KEYSOUNDS:;
#ATTACKS:
;

//---------------dance-single - ----------------
#NOTEDATA:;
#CHARTNAME:;
#CHARTHASH:2147483647;
#STEPSTYPE:dance-single;
#BANNER:;
#DESCRIPTION:;
#CHARTSTYLE:;
#DIFFICULTY:Beginner;
#METER:1;
#METERF:1.000000;
#LASTSECONDHINT:94.603615;
#RADARVALUES:0.000000,0.000000,0.000000,0.000000,0.000000,0.000000,0.000000,0.000000,0.000000,0.000000,0.000000,0.000000,0.000000,0.000000,0.000000,0.000000,0.000000,0.000000,0.000000,0.000000,0.000000,0.000000,0.000000,0.000000,0.000000,0.000000,0.000000,0.000000;
#CREDIT:;
#NOTES:
0000
0000
0000
0000
,
0000
0000
0000
0000
,
0000
0000
0000
0000
,
0000
0000
0000
0000
,
1000
0000
0000
0000
,
0100
0000
0000
0000
,
1000
0000
0000
0000
,
0010
0000
0000
0000
,
0010
0000
0000
0000
,
0100
0000
0000
0000
,
0001
0000
0000
0000
,
1000
0000
0000
0000
,
0001
0000
0000
0000
,
0010
0000
0000
0000
,
0001
0000
0000
0000
,
0100
0000
0000
0000
,
0010
0000
0000
0000
,
1000
0000
0000
0000
,
0001
0000
0000
0000
,
0010
0000
0000
0000
,
0100
0000
0000
0000
,
0100
0000
0000
0000
,
0010
0000
0000
0000
,
0010
0000
0000
0000
,
0001
0000
0000
0000
,
0100
0000
0000
0000
,
1000
0000
0000
0000
,
0010
0000
0000
0000
,
0001
0000
0000
0000
,
0010
0000
0000
0000
,
1000
0000
0000
0000
,
0100
0100
0000
0000
,
0000
0010
0000
0000
,
0000
1000
0000
0000
,
0000
0001
0000
0000
,
0000
0100
0000
0000
,
0000
0010
0000
0000
,
0000
1000
0000
0000
,
0000
0001
0000
0000
,
0000
1001
0000
0000
,
0000
0100
0000
0000
;

//---------------dance-single - ----------------
#NOTEDATA:;
#CHARTNAME:;
#CHARTHASH:2147483647;
#STEPSTYPE:dance-single;
#BANNER:;
#DESCRIPTION:;
#CHARTSTYLE:;
#DIFFICULTY:Easy;
#METER:2;
#METERF:2.000000;
#LASTSECONDHINT:95.757462;
#RADARVALUES:0.000000,0.000000,0.000000,0.000000,0.000000,0.000000,0.000000,0.000000,0.000000,0.000000,0.000000,0.000000,0.000000,0.000000,0.000000,0.000000,0.000000,0.000000,0.000000,0.000000,0.000000,0.000000,0.000000,0.000000,0.000000,0.000000,0.000000,0.000000;
#CREDIT:;
#NOTES:
0000
0000
0000
0000
,
0000
0000
0000
0000
,
0000
0000
0000
0000
,
0000
0000
0000
0000
,
2002
0000
0000
3003
,
1000
0001
1000
0000
,
0020
0000
0000
0030
,
0010
0100
0010
0000
,
0010
1000
0100
0000
,
0001
0010
1000
0000
,
0100
0001
0010
0000
,
1000
0010
1000
0010
,
1000
0010
0001
0000
,
0100
1000
0010
0000
,
0001
0100
1000
0000
,
0001
1000
0001
1000
,
0002
0103
0002
0013
,
0002
1003
1000
0001
,
2000
3010
2000
3001
,
2000
3100
1000
0001
,
0100
0020
0030
0010
,
0010
0200
0300
0100
,
0001
2000
3000
0001
,
0010
0200
0300
0100
,
0010
0001
1000
0001
,
0000
1000
0001
1000
,
0000
0001
1000
0001
,
0010
1000
0100
0001
,
0010
1000
0010
0000
,
0001
0100
0001
0000
,
1000
0100
1000
0000
,
1001
0100
0001
0010
,
0000
1000
0100
0001
,
0000
0010
1000
0100
,
0000
0001
0100
0001
,
0100
0001
0100
1000
,
0000
0010
0001
0100
,
0000
1000
0010
0001
,
0000
1000
0001
1000
,
0001
2002
0000
3003
,
1000
0001
0000
0100
;

//---------------dance-single - ----------------
#NOTEDATA:;
#CHARTNAME:;
#CHARTHASH:2147483647;
#STEPSTYPE:dance-single;
#BANNER:;
#DESCRIPTION:;
#CHARTSTYLE:;
#DIFFICULTY:Medium;
#METER:5;
#METERF:5.000000;
#LASTSECONDHINT:96.334381;
#RADARVALUES:0.000000,0.000000,0.000000,0.000000,0.000000,0.000000,0.000000,0.000000,0.000000,0.000000,0.000000,0.000000,0.000000,0.000000,0.000000,0.000000,0.000000,0.000000,0.000000,0.000000,0.000000,0.000000,0.000000,0.000000,0.000000,0.000000,0.000000,0.000000;
#CREDIT:;
#NOTES:
0000
0000
0000
0000
,
0000
0000
0000
0000
,
0000
0000
0000
0000
,
0000
0000
0000
0000
,
2000
0010
0100
3001
,
0002
0010
0100
1003
,
0020
1000
0100
0031
,
0220
0000
0000
0330
,
0002
0000
0013
0000
0002
0000
0103
0100
,
0020
0000
1030
0000
0020
0000
0031
0001
,
0020
0230
0302
2003
,
3001
1000
0001
1000
0001
1000
0000
0000
,
2000
0000
3100
0000
2000
0000
3010
0010
,
0200
0000
0301
0000
0200
0000
1300
1000
,
0200
0320
2030
3002
,
1003
0001
1000
0001
1000
0001
0000
0000
,
1000
1100
0001
0101
,
0100
0000
0100
0100
0000
0000
0010
0000
,
1000
1010
0001
0011
,
0010
0000
0010
0010
0000
0000
0100
0000
,
1000
0002
0003
0100
,
0010
0200
0300
0010
,
0200
0302
0023
0230
,
1300
0000
0001
0001
0000
0000
0000
0000
,
2000
0000
3020
0000
1030
0010
0001
0000
,
0020
0000
0230
0000
0301
1000
0001
0000
,
2000
3200
0310
0011
,
0002
0203
0310
1010
,
0002
0000
0203
0000
0301
0100
1000
0000
,
0200
0000
0320
0000
1030
0001
1000
0000
,
0002
0023
0130
1000
,
1001
0002
0013
0002
,
0103
0100
0020
0000
1030
0000
0020
0000
,
0031
0001
0020
0000
0230
0000
0302
0000
,
2003
0000
3001
1000
0001
1000
0001
1000
,
0000
2000
3100
2000
,
3010
0010
0200
0000
0301
0000
0200
0000
,
1300
1000
0200
0000
0320
0000
2030
0000
,
3002
0000
1003
0001
1000
0001
1000
0001
,
0000
0000
0000
0000
1000
0000
0000
0010
0000
0000
1000
0000
0000
0000
0000
0000
,
0100
0000
0000
0000
0010
0000
0000
0001
0000
0000
0010
0000
0000
0000
0000
0000
,
0100
0000
0000
0000
;

//---------------dance-single - ----------------
#NOTEDATA:;
#CHARTNAME:;
#CHARTHASH:377622142;
#STEPSTYPE:dance-single;
#BANNER:;
#DESCRIPTION:;
#CHARTSTYLE:;
#DIFFICULTY:Hard;
#METER:7;
#METERF:7.000000;
#LASTSECONDHINT:96.334381;
#RADARVALUES:0.403847,0.423007,0.206345,0.000000,0.072221,274.000000,254.000000,20.000000,0.000000,0.000000,0.000000,0.000000,0.000000,0.000000,0.403847,0.423007,0.206345,0.000000,0.072221,274.000000,254.000000,20.000000,0.000000,0.000000,0.000000,0.000000,0.000000,0.000000;
#CREDIT:;
#NOTES:
// measure 0
0000
0000
0000
0000
,  // measure 1
0000
0000
0000
0000
,  // measure 2
0000
0000
0000
0000
,  // measure 3
0000
0000
0000
0000
,  // measure 4
1000
0000
0000
0100
0000
0000
0010
0000
0000
0000
0001
0000
0001
0000
0000
0000
,  // measure 5
0001
0000
0000
0100
0000
0000
0010
0000
0000
0000
1000
0000
1000
0000
0000
0000
,  // measure 6
0010
0000
0000
0100
0000
0000
0001
0000
0000
0000
1000
0000
1000
0000
0000
0000
,  // measure 7
0100
0000
0000
0010
0000
0000
0001
0000
0000
0000
1000
0000
1000
0000
0000
0000
,  // measure 8
1000
0000
0010
0000
0100
0000
0000
0001
0000
0000
0100
0000
0010
0000
0010
0000
,  // measure 9
0000
0100
0001
0010
0100
1000
0001
1001
,  // measure 10
0001
1000
0001
1000
0001
0100
0001
1000
,  // measure 11
0100
0100
0010
0010
0110
0110
0000
0001
,  // measure 12
0001
0000
0100
0000
0010
0000
0000
1000
0000
0000
0010
0000
0100
0000
0100
0000
,  // measure 13
0000
0010
1000
0100
0010
0001
1000
1001
,  // measure 14
1000
0001
1000
0001
1000
0010
1000
0001
,  // measure 15
0010
0010
0100
0100
0110
0110
0010
0010
,  // measure 16
0001
0100
0100
0010
1000
0100
0100
1000
,  // measure 17
0010
0100
0001
1000
0000
0010
1000
0001
,  // measure 18
1001
1000
1000
0001
0100
0010
0010
0100
,  // measure 19
0010
1000
0001
0100
0000
0001
0101
0100
,  // measure 20
0001
0100
0010
1000
0000
0001
1000
0100
,  // measure 21
0010
0001
0100
0001
0000
0010
0100
1000
,  // measure 22
0010
1000
0100
0010
1000
0010
0100
1000
,  // measure 23
0010
0100
0001
0100
0000
0001
0100
0010
,  // measure 24
0100
0000
0100
0000
0001
0000
0000
0010
0000
0000
0100
0000
0100
0000
0000
0000
,  // measure 25
0010
0000
0001
0000
1000
0000
0000
0001
0000
0000
1000
0000
1000
0000
0000
0000
,  // measure 26
0010
0010
1000
0010
1001
0000
0100
0100
,  // measure 27
0010
1000
0001
0010
0110
0000
0100
0100
,  // measure 28
0010
0000
0010
0000
0001
0000
0000
0100
0000
0000
0010
0000
0010
0000
0000
0000
,  // measure 29
0100
0000
0001
0000
1000
0000
0000
0001
0000
0000
1000
0000
1000
0000
0000
0000
,  // measure 30
0100
0100
0001
0100
1001
0000
0010
0010
,  // measure 31
0110
0000
0000
0000
0001
0000
0010
0000
0100
0000
0000
1000
0000
0000
0100
0000
,  // measure 32
0010
0010
0000
0100
1000
0010
0100
0001
,  // measure 33
1000
1001
1000
0001
1000
0001
1000
0100
,  // measure 34
1000
0001
0100
0100
0010
0010
0110
0110
,  // measure 35
0000
0000
1000
0000
1000
0000
0100
0000
0010
0000
0000
0001
0000
0000
0010
0000
,  // measure 36
0100
0100
0000
0010
0001
0100
0010
1000
,  // measure 37
0001
1001
0001
1000
0001
1000
0001
0010
,  // measure 38
0001
1000
0010
0010
0100
0100
0110
0110
,  // measure 39
0010
0000
0010
0000
0100
0000
0000
0101
0000
0000
0100
0000
0000
0000
0010
0000
,  // measure 40
1000
0000
0100
0000
0010
0000
0000
0110
0000
0000
0100
0000
0000
0000
0100
0000
,  // measure 41
0100
0000
0000
0000
;
