#TITLE:Nasty;
#SUBTITLE:;
#ARTIST:Tinashe;
#TITLETRANSLIT:;
#SUBTITLETRANSLIT:;
#ARTISTTRANSLIT:;
#GENRE:;
#CREDIT:;
#BANNER:Nasty.png;
#BACKGROUND:Nasty-bg.png;
#LYRICSPATH:;
#CDTITLE:cdtitle.png;
#MUSIC:Nasty.ogg;
#OFFSET:0.003000;
#SAMPLESTART:47.997000;
#SAMPLELENGTH:12.000000;
#SELECTABLE:YES;
#BPMS:0.000000=100.000000
;
#STOPS:
;
#BGCHANGES:0.003=Nasty.mp4=1.000=1=0=1===CrossFade==,
99999.000=-nosongbg-=1.000=0=0=0=StretchNoLoop====,
99999=-nosongbg-=1.000=0=0=0 // don't automatically add -songbackground-
;
#KEYSOUNDS:;
#ATTACKS:;

//---------------dance-single - ----------------
#NOTES:
     dance-single:
     :
     Hard:
     6:
     0.385567,0.394724,0.265162,0.000000,0.000000,285.000000,257.000000,28.000000,0.000000,0.000000,0.000000,0.385567,0.394724,0.265162,0.000000,0.000000,285.000000,257.000000,28.000000,0.000000,0.000000,0.000000:
// measure 0
0000
0000
0000
0000
,  // measure 1
0000
0000
0000
0000
,  // measure 2
0000
0000
0000
0000
,  // measure 3
0000
0000
0000
0000
,  // measure 4
0000
0010
1000
0100
0010
0100
0100
0000
,  // measure 5
0000
0010
0100
1000
0001
0010
0001
0000
,  // measure 6
0000
0010
0100
1000
0010
0100
0001
0001
,  // measure 7
0000
0100
0010
0001
0010
0100
0010
0010
,  // measure 8
0000
0100
0001
1000
0010
0100
0100
0000
,  // measure 9
0000
0001
0010
0100
1000
0100
0100
0000
,  // measure 10
0000
0010
0001
1000
0010
0100
0001
0001
,  // measure 11
1000
0010
0100
0010
0001
1000
0100
0001
,  // measure 12
1000
1000
0001
0001
0000
1100
0000
0000
,  // measure 13
0010
0001
1000
0010
1010
0000
0010
0100
,  // measure 14
0001
1000
0100
1100
0000
0011
0000
0000
,  // measure 15
1001
0100
0010
1000
0001
0000
0100
0010
,  // measure 16
1010
0000
1100
0000
1010
1000
1000
0100
,  // measure 17
0011
0000
0101
0000
0011
0000
0001
1000
,  // measure 18
0010
0100
0001
0100
0000
0110
0000
0000
,  // measure 19
1000
0001
0010
0100
1000
0000
0001
0001
,  // measure 20
1000
0100
0001
0100
1000
0000
0001
0001
,  // measure 21
0001
0100
1000
0100
0001
0000
1000
1000
,  // measure 22
1000
0100
0001
0100
1000
0000
0001
0001
,  // measure 23
0100
1000
0001
0010
0001
0010
0001
0010
,  // measure 24
1000
0100
0001
0100
1000
0000
0001
0001
,  // measure 25
0001
0010
1000
0001
0100
0000
1000
1000
,  // measure 26
1000
0010
0001
1000
0100
0000
0001
0001
,  // measure 27
1000
0001
1000
0100
1000
0100
1000
0010
,  // measure 28
0100
0001
1000
0001
0000
1001
0000
0000
,  // measure 29
0100
0010
0001
1000
1010
0000
0100
0010
,  // measure 30
1000
0001
0010
0011
0000
1100
0000
0000
,  // measure 31
1001
0010
0100
0001
1000
0000
0010
0100
,  // measure 32
0101
0000
0011
0000
0101
0001
0001
0010
,  // measure 33
1100
0000
1010
0000
1100
0000
1000
0001
,  // measure 34
0100
0010
1000
0010
0000
0110
0000
0000
,  // measure 35
0001
1000
0100
0010
0001
0000
1000
1000
,  // measure 36
0001
0100
0000
0100
0001
0000
1001
0000
,  // measure 37
1000
0100
1000
0010
1000
0001
1000
0100
,  // measure 38
1000
0010
0000
0010
1000
0000
1010
0000
,  // measure 39
0100
0001
0100
0010
0100
1000
0100
0010
,  // measure 40
1000
0010
0000
0010
1000
0000
1001
0000
,  // measure 41
0001
0010
0001
0100
0001
1000
0001
0010
,  // measure 42
0001
0100
0000
0100
0001
0000
0101
0000
,  // measure 43
0010
1000
0010
0100
0010
0001
0010
0100
;
