#VERSION:0.83;
#TITLE:NIGHT RIDE;
#SUBTITLE:;
#ARTIST:lomi;
#TITLETRANSLIT:;
#SUBTITLETRANSLIT:;
#ARTISTTRANSLIT:;
#GENRE:90s GAME MUSIC?;
#ORIGIN:;
#TAGS:;
#CREDIT:chewi;
#BANNER:NIGHT RIDE.png;
#BACKGROUND:NIGHT RIDE-bg.png;
#PREVIEWVID:;
#JACKET:NIGHT RIDE-jacket.png;
#CDIMAGE:;
#DISCIMAGE:;
#LYRICSPATH:;
#CDTITLE:cdtitle.png;
#MUSIC:NIGHT RIDE.ogg;
#OFFSET:1.018000;
#SAMPLESTART:28.455999;
#SAMPLELENGTH:12.000000;
#SELECTABLE:YES;
#BPMS:0.000000=171.000000
;
#STOPS:;
#DELAYS:;
#WARPS:;
#TIMESIGNATURES:0.000000=4=4
;
#TICKCOUNTS:0.000000=4
;
#COMBOS:0.000000=1
;
#SPEEDS:0.000000=1.000000=0.000000=0
;
#SCROLLS:0.000000=1.000000
;
#FAKES:;
#LABELS:0.000000=Song Start
;
#BGCHANGES:0.000=NIGHT RIDE.mp4=1.000=1=0=1===CrossFade==,
212.000=NIGHT RIDE-bg.png=1.000=1=0=1===CrossFade==,
99999=-nosongbg-=1.000=0=0=0 // don't automatically add -songbackground-
;
#KEYSOUNDS:;
#ATTACKS:
;

//---------------dance-single - chewi----------------
#NOTEDATA:;
#CHARTNAME:chewi;
#CHARTHASH:2540758170;
#STEPSTYPE:dance-single;
#BANNER:;
#DESCRIPTION:chewi;
#CHARTSTYLE:;
#DIFFICULTY:Beginner;
#METER:2;
#METERF:0.000000;
#LASTSECONDHINT:73.367973;
#RADARVALUES:0.147319,0.204958,0.090233,0.025781,0.000000,80.000000,73.000000,7.000000,2.000000,0.000000,0.000000,0.000000,0.000000,0.000000,0.147319,0.204958,0.090233,0.025781,0.000000,80.000000,73.000000,7.000000,2.000000,0.000000,0.000000,0.000000,0.000000,0.000000;
#CREDIT:chewi;
#NOTES:
0000
0000
0000
0000
,
0000
0000
0000
0000
,
0000
0000
0000
0000
,
0000
0000
0000
0000
,
0000
0000
0000
0000
,
1000
0000
0000
0000
,
0000
0000
0000
0000
,
0001
0000
0000
0000
,
0000
0000
0000
0000
,
1000
1000
0000
0000
,
0100
0100
0000
0000
,
0010
0010
0000
0000
,
0001
0001
0000
0000
,
1000
0000
1000
0000
,
1000
0000
0000
0000
,
0001
0000
0001
0000
,
0001
0000
0000
0000
,
0100
0000
0100
0000
,
0100
0000
0000
0000
,
0010
0000
0010
0000
,
0010
0000
0000
0000
,
0010
0000
1000
0000
,
0010
0000
0001
0000
,
0010
0000
1000
0000
,
0100
0000
0001
0000
,
0001
0000
0100
0000
,
1000
0000
0100
0000
,
0001
0000
0100
0000
,
1000
0000
0010
0000
,
0001
0001
0001
0000
,
0002
0000
0000
0003
,
0001
0000
1000
0000
,
1001
0000
0000
0000
,
1000
1000
1000
0000
,
2000
0000
0000
3000
,
1000
0000
0001
0000
,
1001
0000
0000
0000
,
1001
0000
0000
0000
,
0100
0000
0000
0000
,
0110
0000
0000
0000
,
0010
0000
0000
0000
,
1001
0000
0000
0000
,
0001
0000
0000
0000
,
1001
0000
0000
0000
,
1000
0000
0000
0000
,
0001
0000
1000
0000
,
0001
0000
0000
0000
,
1000
0000
0001
0000
,
1000
0000
0000
0000
,
0100
0000
0010
0000
,
0100
0000
0000
0000
,
0010
0000
0100
0000
,
0010
0000
0000
0000
,
0110
0000
0000
0000
;

//---------------dance-single - chewi----------------
#NOTEDATA:;
#CHARTNAME:chewi;
#CHARTHASH:3597305839;
#STEPSTYPE:dance-single;
#BANNER:;
#DESCRIPTION:chewi;
#CHARTSTYLE:;
#DIFFICULTY:Easy;
#METER:5;
#METERF:0.000000;
#LASTSECONDHINT:73.367973;
#RADARVALUES:0.263333,0.375756,0.090233,0.051562,0.000000,143.000000,136.000000,7.000000,4.000000,0.000000,0.000000,0.000000,0.000000,0.000000,0.263333,0.375756,0.090233,0.051562,0.000000,143.000000,136.000000,7.000000,4.000000,0.000000,0.000000,0.000000,0.000000,0.000000;
#CREDIT:chewi;
#NOTES:
0000
0000
0000
0000
,
0000
0000
0000
0000
,
0000
0000
0000
0000
,
0000
0000
0000
0000
,
0000
0000
0000
0000
,
0001
0000
0000
0001
0000
0000
0000
0000
,
0000
0000
0000
0000
,
0100
0000
0000
0100
0000
0000
0000
0000
,
0000
0000
0000
0000
,
0001
0000
0000
0001
0000
0000
0000
0000
,
0000
0000
0000
0000
,
0010
0000
0000
0010
0000
0000
0000
0000
,
0100
0000
1000
1001
,
1001
0100
0010
1000
,
0100
0100
0001
0010
,
1000
1000
0001
0100
,
0020
0000
0000
0030
,
1001
0010
0100
1000
,
0010
0010
0001
0100
,
1000
1000
0001
0010
,
0200
0000
0000
0300
,
0001
0100
1000
0100
,
0001
0100
0010
0100
,
0010
0001
1000
0001
,
1001
1000
0001
0000
,
1000
0010
0001
0010
,
1000
0010
0100
0010
,
0100
0001
1000
0001
,
1001
1000
0100
0000
,
0010
0010
0001
0001
,
0100
0000
0100
0000
1000
0010
0001
0000
,
0100
0100
1000
1000
,
0100
0000
0000
0100
0000
0000
0000
0000
,
0010
0010
1000
1000
,
0100
0000
0100
0000
0001
0010
1000
0000
,
0100
0100
0001
0001
,
0100
0100
0200
0300
,
0100
0000
0000
0100
0000
0000
0000
0000
,
0000
0000
0000
0000
,
0010
0000
0000
0010
0000
0000
0000
0000
,
0000
0000
0000
0000
,
1000
0000
0000
1000
0000
0000
0000
0000
,
0000
0000
0000
0000
,
0001
0000
0000
0001
0000
0000
0000
0000
,
0000
0000
0000
0000
,
1001
0100
0010
0001
,
0100
0100
1000
0010
,
1000
1000
0001
0100
,
0010
0001
0000
0000
,
1001
0100
0010
1000
,
0100
0100
0001
0010
,
1000
1000
0001
0100
,
0010
0010
0010
0020
,
0030
0000
0000
0000
;

//---------------dance-single - chewi----------------
#NOTEDATA:;
#CHARTNAME:chewi;
#CHARTHASH:2058131567;
#STEPSTYPE:dance-single;
#BANNER:;
#DESCRIPTION:chewi;
#CHARTSTYLE:;
#DIFFICULTY:Medium;
#METER:6;
#METERF:0.000000;
#LASTSECONDHINT:73.192528;
#RADARVALUES:0.383030,0.443028,0.167575,0.000000,0.000000,208.000000,195.000000,13.000000,0.000000,0.000000,0.000000,0.000000,0.000000,0.000000,0.383030,0.443028,0.167575,0.000000,0.000000,208.000000,195.000000,13.000000,0.000000,0.000000,0.000000,0.000000,0.000000,0.000000;
#CREDIT:chewi;
#NOTES:
0000
0000
0000
0000
,
0000
0000
0000
0000
,
0000
0000
0000
0000
,
0000
0000
0000
0000
,
0000
0000
0000
0000
,
1000
0000
0000
0100
0000
0000
0000
0000
,
0000
0000
0000
0000
,
0010
0000
0000
0001
0000
0000
0000
0000
,
0000
1000
0001
1000
0001
1000
0000
0000
,
1000
0000
0000
0100
0000
0000
0001
0000
,
0100
0010
0001
1000
,
0100
0000
0000
0010
0000
0000
0100
0000
,
1000
0010
0100
0110
,
1001
0000
0100
0000
0001
1000
0100
0000
,
0010
0000
0001
0000
1000
0010
0100
0000
,
0001
0000
0100
0000
0010
1000
0100
0000
,
0010
0001
0010
0001
0000
0001
0010
0000
,
1001
0000
0100
0000
1000
0001
0100
0000
,
0010
0000
1000
0000
0001
0010
0100
0000
,
1000
0000
0100
0000
0010
0001
0100
0000
,
0010
1000
0010
1000
0000
1000
0010
0000
,
0001
0100
1000
0010
,
0001
0100
1000
0010
,
0001
0100
1000
0010
,
0010
0100
0010
0100
0000
0001
1000
0000
,
1000
0100
0001
0010
,
1000
0100
0001
0010
,
1000
0100
0001
0100
,
0010
0100
1000
0001
,
1100
0010
0001
0100
,
0010
1001
0100
1001
,
1000
0100
1000
0001
,
1000
0100
1000
0001
,
0011
0100
1000
0010
,
0100
1001
0010
1001
,
0001
0010
0001
1000
,
0001
0010
0001
0100
,
0010
0000
0000
0010
0000
0000
0010
0000
,
0100
0001
1000
0001
,
0001
0000
0000
1000
0000
0000
0001
0000
,
0010
0000
0100
0000
0000
1000
0000
0000
,
0010
0000
0000
1000
0000
0000
0000
1000
,
0100
0010
0100
1000
,
0001
0000
0000
1000
0000
0000
0000
0000
,
1001
0000
0110
0110
,
0010
0100
1000
0001
0000
0000
1000
0000
,
0001
0100
0010
0100
,
0010
0100
0001
1000
0000
0000
0001
0000
,
1000
0100
0010
0100
,
0100
0010
0001
0000
1000
0000
0001
0000
,
1000
0010
0100
0000
0001
0000
0100
0000
,
0010
1000
0100
0000
0010
0000
0001
0000
,
0100
0010
1000
0000
0100
0000
0010
1001
;

//---------------dance-single - chewi----------------
#NOTEDATA:;
#CHARTNAME:chewi;
#CHARTHASH:1244045625;
#STEPSTYPE:dance-single;
#BANNER:;
#DESCRIPTION:chewi;
#CHARTSTYLE:;
#DIFFICULTY:Hard;
#METER:8;
#METERF:0.000000;
#LASTSECONDHINT:73.367973;
#RADARVALUES:0.596642,0.751511,0.167575,0.000000,0.064452,324.000000,311.000000,13.000000,0.000000,0.000000,0.000000,0.000000,0.000000,0.000000,0.596642,0.751511,0.167575,0.000000,0.064452,324.000000,311.000000,13.000000,0.000000,0.000000,0.000000,0.000000,0.000000,0.000000;
#CREDIT:chewi;
#NOTES:
// measure 0
0000
0000
0000
0000
,  // measure 1
0000
0000
0000
0000
,  // measure 2
0000
0000
0000
0000
,  // measure 3
0000
0000
0000
0000
,  // measure 4
0000
0000
0000
0000
,  // measure 5
1000
0000
0000
0010
0000
0000
0000
0000
,  // measure 6
0000
0000
0000
0000
,  // measure 7
0100
0000
0000
0001
0000
0000
0000
0000
,  // measure 8
0000
0001
1000
0001
1000
0000
0000
0000
,  // measure 9
0100
1000
0100
1000
0010
1000
0010
1000
,  // measure 10
0010
0100
0010
0100
0001
0100
0001
0000
,  // measure 11
0010
0001
0010
0001
0100
0001
0100
0001
,  // measure 12
0100
0000
0101
0010
0000
1100
0010
0000
,  // measure 13
1001
0100
0010
0001
1000
0100
0010
0001
,  // measure 14
1000
0100
0010
0001
0000
0100
1000
0000
,  // measure 15
0001
0010
0100
1000
0001
0010
0100
1000
,  // measure 16
0001
0010
0100
1000
0000
0100
0001
0000
,  // measure 17
0110
0001
1000
0010
0100
0001
1000
0010
,  // measure 18
0100
0001
1000
0010
0000
0100
0001
0000
,  // measure 19
1000
0100
0010
0001
1000
0100
0010
0001
,  // measure 20
1000
0100
0010
0001
0000
0010
1000
0000
,  // measure 21
0001
0100
1000
0000
0001
0010
1000
0000
,  // measure 22
1010
1000
0001
0010
0100
0001
0100
1000
,  // measure 23
0010
0001
0001
1000
0100
0100
0001
0010
,  // measure 24
0100
1000
0100
0001
0100
1000
0100
1000
,  // measure 25
0001
0010
1000
0000
0001
0100
1000
0000
,  // measure 26
1100
1000
0001
0100
0010
0001
0010
1000
,  // measure 27
0100
0000
0001
0100
0000
0001
0100
0000
0010
0000
0001
1000
0000
0001
1000
0000
,  // measure 28
1000
0000
0010
0000
0001
0000
1000
0000
0100
0000
0001
0100
0001
0100
0001
0000
,  // measure 29
1001
0000
1000
0001
0010
0100
1000
0000
,  // measure 30
0010
0100
0001
1000
0000
0001
1000
0000
,  // measure 31
1100
0000
0011
0000
1000
0100
0010
0001
,  // measure 32
0100
0001
0100
0001
1000
0010
1000
0010
,  // measure 33
1001
0001
1000
0000
0100
0010
0001
0000
,  // measure 34
0100
0010
1000
0001
0000
1000
0001
0000
,  // measure 35
0011
0000
1100
0000
0001
0010
0100
1000
,  // measure 36
0010
1000
0010
1000
0001
0100
0001
0100
,  // measure 37
0001
0000
0000
0001
0000
0001
0010
0100
,  // measure 38
0010
0001
0100
1000
0100
0001
0010
1000
,  // measure 39
0001
0000
0000
0100
0000
0000
1000
0010
,  // measure 40
0100
0000
0010
0000
0000
1000
0000
0000
,  // measure 41
1000
0000
0000
0000
0000
0000
1000
0000
0000
0000
0000
0000
0000
0000
1000
0010
,  // measure 42
0100
0000
0010
0000
0000
1000
0000
0000
0100
0000
0001
0000
0000
0100
0000
0000
,  // measure 43
0010
0000
0000
0010
0000
0000
0000
0100
,  // measure 44
1000
0000
0000
0000
0000
0000
0000
0000
1100
0000
1000
0100
1000
0000
0000
0000
,  // measure 45
1000
0001
0100
0010
1000
0100
0010
0001
,  // measure 46
0010
1000
0001
0100
1000
0001
0100
0010
,  // measure 47
1000
0100
0010
0100
1000
0010
0001
0010
,  // measure 48
1000
0100
0001
1000
0010
0100
0010
0010
,  // measure 49
0001
1000
0010
0100
0001
0010
0100
1000
,  // measure 50
0100
0001
1000
0010
0001
1000
0010
0100
,  // measure 51
0001
0010
0100
0010
0001
0100
1000
0100
,  // measure 52
0001
0010
1000
0001
0100
1000
0010
0001
,  // measure 53
0100
0000
0000
0000
;
