#VERSION:0.83;
#TITLE:NEW WOMAN;
#SUBTITLE:;
#ARTIST:LISA feat. ROSALÍA;
#TITLETRANSLIT:;
#SUBTITLETRANSLIT:;
#ARTISTTRANSLIT:LISA feat. ROSALIA;
#GENRE:;
#ORIGIN:;
#TAGS:;
#CREDIT:;
#BANNER:NEW WOMAN.png;
#BACKGROUND:NEW WOMAN-bg.png;
#PREVIEWVID:;
#JACKET:NEW WOMAN-jacket.png;
#CDIMAGE:;
#DISCIMAGE:;
#LYRICSPATH:;
#CDTITLE:cdtitle.png;
#MUSIC:NEW WOMAN.ogg;
#OFFSET:0.080000;
#SAMPLESTART:53.191002;
#SAMPLELENGTH:12.000000;
#SELECTABLE:YES;
#BPMS:0.000000=107.000000
;
#STOPS:;
#DELAYS:;
#WARPS:;
#TIMESIGNATURES:0.000000=4=4
;
#TICKCOUNTS:0.000000=4
;
#COMBOS:0.000000=1
;
#SPEEDS:0.000000=1.000000=0.000000=0
;
#SCROLLS:0.000000=1.000000
;
#FAKES:;
#LABELS:0.000000=Song Start
;
#BGCHANGES:0.080=NEW WOMAN.mp4=1.000=1=0=1===CrossFade==,
176.000=NEW WOMAN-bg.png=1.000=1=0=1===CrossFade==,
99999=-nosongbg-=1.000=0=0=0 // don't automatically add -songbackground-
;
#KEYSOUNDS:;
#ATTACKS:
;

//---------------dance-single - ----------------
#NOTEDATA:;
#CHARTNAME:;
#CHARTHASH:780164057;
#STEPSTYPE:dance-single;
#BANNER:;
#DESCRIPTION:;
#CHARTSTYLE:;
#DIFFICULTY:Beginner;
#METER:1;
#METERF:0.000000;
#LASTSECONDHINT:98.611588;
#RADARVALUES:0.000000,0.000000,0.000000,0.000000,0.000000,0.000000,0.000000,0.000000,0.000000,0.000000,0.000000,0.000000,0.000000,0.000000,0.000000,0.000000,0.000000,0.000000,0.000000,0.000000,0.000000,0.000000,0.000000,0.000000,0.000000,0.000000,0.000000,0.000000;
#CREDIT:;
#NOTES:
0000
0000
0000
0000
,
0000
0000
0000
0000
,
0000
0000
0000
0000
,
0000
0000
0000
0000
,
1000
0000
0000
0000
,
0001
0000
0000
0000
,
0100
0000
0000
0000
,
0010
0000
0000
0000
,
0020
0000
0000
0030
,
0010
0000
0000
0000
,
0200
0000
0000
0300
,
0100
0000
0000
0000
,
2000
0000
0000
3000
,
1000
0000
0000
0000
,
0002
0000
0000
0003
,
0001
0000
0000
0000
,
0100
0100
0100
0000
,
0200
0000
0000
0300
,
0010
0010
0010
0000
,
0020
0000
0000
0030
,
0001
0001
0001
0000
,
0002
0000
0000
0003
,
2000
0000
0000
3000
,
0002
0000
0000
0003
,
0100
0000
0000
0000
,
0010
0000
0000
0000
,
1000
0000
0000
0000
,
0001
0000
0000
0000
,
1000
0000
0000
0000
,
0001
0000
0000
0000
,
0010
0000
0000
0000
,
1000
0000
0000
0000
,
0100
0000
0000
0000
,
0100
0000
0000
0000
,
1000
0000
0000
0000
,
0010
0000
0000
0000
,
1000
0000
0000
0000
,
0001
0000
0000
0000
,
0100
0000
0000
0000
,
0010
0000
0000
0000
,
1000
0000
0000
0000
,
0001
0000
0000
0000
,
0001
0000
0000
0000
,
1000
0000
0000
0000
,
1000
0000
0000
0000
;

//---------------dance-single - ----------------
#NOTEDATA:;
#CHARTNAME:;
#CHARTHASH:1629109020;
#STEPSTYPE:dance-single;
#BANNER:;
#DESCRIPTION:;
#CHARTSTYLE:;
#DIFFICULTY:Easy;
#METER:2;
#METERF:0.000000;
#LASTSECONDHINT:98.611588;
#RADARVALUES:0.000000,0.000000,0.000000,0.000000,0.000000,0.000000,0.000000,0.000000,0.000000,0.000000,0.000000,0.000000,0.000000,0.000000,0.000000,0.000000,0.000000,0.000000,0.000000,0.000000,0.000000,0.000000,0.000000,0.000000,0.000000,0.000000,0.000000,0.000000;
#CREDIT:;
#NOTES:
0000
0000
0000
0000
,
0000
0000
0000
0000
,
0000
0000
0000
0000
,
0000
0000
0000
0000
,
1000
0000
0100
0000
,
1000
0000
0010
0000
,
0100
0000
0001
0000
,
0010
0000
0001
0000
,
0020
0000
0130
0000
,
2000
0000
3001
0000
,
0002
0000
1003
0000
,
2000
0000
3010
0000
,
0200
0000
0301
0000
,
0002
0000
1003
0000
,
2000
0000
3100
0000
,
0200
0000
0310
0000
,
0100
0100
0100
0100
,
0200
0000
0000
0300
,
0010
0010
0010
0010
,
0020
0000
0000
0030
,
0001
1000
0001
1000
,
0002
1000
0000
1003
,
2000
0001
0000
0002
,
0000
0000
0000
3003
,
0100
0100
0100
0000
,
0010
0010
0010
0000
,
1000
0001
0010
0000
,
0001
1000
0010
0000
,
1000
1000
1000
0000
,
0001
0001
0001
0000
,
0010
0001
1000
0000
,
1000
0010
0100
0000
,
0110
0000
0010
0000
,
0100
0001
0100
0001
,
1000
0000
0100
0000
,
0010
0001
0100
0001
,
2000
0000
3001
1001
,
0002
0000
1003
1001
,
0200
0300
0100
0000
,
0020
0030
0010
0000
,
1000
0000
0100
0000
,
0001
0100
1000
0000
,
0001
0000
0100
0000
,
1000
0100
0001
0010
,
1000
0000
0000
0000
;

//---------------dance-single - ----------------
#NOTEDATA:;
#CHARTNAME:;
#CHARTHASH:3143549924;
#STEPSTYPE:dance-single;
#BANNER:;
#DESCRIPTION:;
#CHARTSTYLE:;
#DIFFICULTY:Medium;
#METER:6;
#METERF:0.000000;
#LASTSECONDHINT:98.611588;
#RADARVALUES:0.000000,0.000000,0.000000,0.000000,0.000000,0.000000,0.000000,0.000000,0.000000,0.000000,0.000000,0.000000,0.000000,0.000000,0.000000,0.000000,0.000000,0.000000,0.000000,0.000000,0.000000,0.000000,0.000000,0.000000,0.000000,0.000000,0.000000,0.000000;
#CREDIT:;
#NOTES:
0000
0000
0000
0000
,
0000
0000
0000
0000
,
0000
0000
0000
0000
,
0000
0000
0000
0000
,
1000
0000
0000
1000
0000
0000
1000
0000
0001
0000
0000
0000
0100
0000
0000
0000
,
0010
0000
0000
0010
0000
0000
0010
0000
1000
0000
0000
0000
0001
0000
0000
0000
,
0100
1000
0100
0001
,
1001
0000
1000
0001
0010
0000
0100
0100
,
0200
1000
0001
1300
,
0002
0103
0020
1030
,
0020
1000
0100
0031
,
0200
0301
0002
0013
,
0200
0001
1000
0301
,
2000
3100
0020
0031
,
0020
0001
0100
1030
,
0200
1300
2000
3010
,
0020
0230
0302
2003
,
3001
0000
0000
0001
0000
0000
1000
0000
0000
1000
0000
0000
0000
0000
0000
0000
,
0200
0320
0032
2003
,
3001
0000
0000
0001
0000
0000
1000
0000
0000
1000
0000
0000
0000
0000
0000
0000
,
0002
2003
3200
0320
,
0130
0000
0000
0100
0000
0000
0010
0000
0000
0010
0000
0000
0000
0000
0000
0000
,
0001
0000
0000
0001
0000
0000
1000
0000
0000
1000
0000
0000
0000
0000
0000
0000
,
0001
0000
1000
0000
1001
0000
1000
0100
,
1000
0000
0001
0100
0001
0000
0100
0000
,
0010
0000
1000
0000
0100
0000
0010
0100
,
0010
0000
0100
0010
0100
0000
1000
0000
,
1100
0001
0101
0010
,
0100
0000
0001
0010
0001
0000
1000
0010
,
1000
0000
0010
0000
0100
0000
0001
1000
,
0001
0000
1000
0001
1000
0000
0001
0000
,
0011
1000
1010
0100
,
0001
0000
0010
0000
0100
1000
0100
0000
,
0010
0010
0000
0000
0001
0000
1000
0000
,
0001
0000
1000
0000
0010
0100
0010
0000
,
0100
0100
0000
0000
0001
0000
0010
0000
,
0100
0000
0000
0100
0000
0000
0100
0000
0000
0000
0000
0000
0110
0000
0000
0000
,
0001
0000
0000
0001
0000
0000
0001
0000
0000
0000
0000
0000
1001
0000
0000
0000
,
1000
1000
1000
0000
0001
0001
0001
0000
,
0100
0001
1000
0010
,
1000
1000
1000
0000
0001
0001
0001
0000
,
0010
0001
1000
0010
,
0100
0100
0100
0000
0010
0010
0010
0000
,
1000
0000
0001
0000
0010
0000
0100
0100
,
0100
0000
0000
0000
;

//---------------dance-single - ----------------
#NOTEDATA:;
#CHARTNAME:;
#CHARTHASH:2577434801;
#STEPSTYPE:dance-single;
#BANNER:;
#DESCRIPTION:;
#CHARTSTYLE:;
#DIFFICULTY:Hard;
#METER:9;
#METERF:0.000000;
#LASTSECONDHINT:98.611588;
#RADARVALUES:0.602520,0.621445,0.438323,0.000000,0.701317,433.000000,388.000000,45.000000,0.000000,0.000000,0.000000,0.000000,0.000000,0.000000,0.602520,0.621445,0.438323,0.000000,0.701317,433.000000,388.000000,45.000000,0.000000,0.000000,0.000000,0.000000,0.000000,0.000000;
#CREDIT:;
#NOTES:
// measure 0
0000
0000
0000
0000
,  // measure 1
0000
0000
0000
0000
,  // measure 2
0000
0000
0000
0000
,  // measure 3
0000
0000
0000
0000
0000
0000
0000
0000
0000
0000
1000
0001
0100
0000
0000
0000
,  // measure 4
0010
1000
0100
1000
0010
0100
0001
0010
0110
0000
0110
0000
1001
0000
0000
0000
,  // measure 5
0010
0001
0100
0001
0010
0100
1000
0010
0110
0000
0110
0000
1001
0000
0000
0000
,  // measure 6
0100
0001
0010
0000
0100
0000
1000
0000
0010
1000
0100
0000
0010
0001
0000
0000
,  // measure 7
1001
0000
0000
1000
0001
1000
0001
0010
0100
0010
0100
0000
0010
0000
0010
0000
,  // measure 8
0010
0000
0010
0000
0100
0010
0000
0010
0100
0000
1000
0000
0010
0100
0000
0100
,  // measure 9
0010
0000
0010
0000
1000
0100
0000
0100
1000
0000
0010
0000
0100
0001
0000
0001
,  // measure 10
0100
0000
0010
0000
1000
0001
0000
0001
1000
0000
0100
0000
0010
0001
0000
0001
,  // measure 11
0010
0000
0100
0000
0010
0001
0000
0001
1000
0010
0100
0000
0100
0001
0000
0001
,  // measure 12
0100
0000
0100
0000
0010
0100
0000
0100
0010
0000
1000
0000
0100
0010
0000
0010
,  // measure 13
0100
0000
0100
0000
1000
0010
0000
0010
1000
0000
0100
0000
0010
0001
0000
0001
,  // measure 14
0010
0000
0100
0000
1000
0001
0000
0001
1000
0000
0010
0000
0100
0001
0000
0001
,  // measure 15
0100
0000
0010
0000
0100
0001
0000
0001
1000
0000
0100
0000
0010
0001
0000
0001
,  // measure 16
0010
0000
0000
0010
0100
0000
0000
0100
1000
0000
0000
1000
0010
0000
0000
0000
,  // measure 17
1010
0000
0000
1010
0000
0000
0101
0000
0000
0101
0000
0000
0010
0000
0001
1000
,  // measure 18
0100
0000
0000
0100
0010
0000
0000
0010
0001
0000
0000
0001
1000
0000
0000
0000
,  // measure 19
1100
0000
0000
1100
0000
0000
0101
0000
0000
0101
0000
0000
0100
0000
0000
0000
,  // measure 20
0001
0000
0000
0001
0100
0000
0000
0100
0010
0000
0000
0010
1000
0000
0000
0000
,  // measure 21
0110
0000
0000
0101
0000
0000
0011
0000
0000
0110
0000
0000
1100
0000
0001
0000
,  // measure 22
0101
0000
0000
0110
0000
0000
1010
0000
0000
1001
0000
0000
0001
0000
0010
0100
,  // measure 23
0010
0000
0001
0000
1000
0001
1000
0000
0010
0000
0100
0000
0001
0010
0100
0010
,  // measure 24
0001
0000
1000
0000
0001
0100
0010
0100
0001
0000
1000
0000
0001
1000
0100
1000
,  // measure 25
1100
0000
1100
0000
1010
0000
1010
0000
0010
0100
0000
0100
1000
0100
0010
0100
,  // measure 26
1000
0000
0100
0000
0001
0010
0100
0010
0001
0000
1000
0000
0100
0010
0001
0000
,  // measure 27
0001
1000
0000
1000
0100
0000
1001
0000
0100
0010
0000
0010
0100
0000
0001
0000
,  // measure 28
0101
0000
0000
0000
0100
0010
1000
0001
0100
0000
0010
0000
1000
0100
0010
0001
,  // measure 29
0011
0000
0011
0000
1100
0000
1100
0000
1000
0100
0000
0100
1000
0100
0010
0100
,  // measure 30
1000
0000
0000
0000
0010
0100
0001
0100
0010
0000
0000
0000
0100
0010
1000
0000
,  // measure 31
0001
1000
0000
1000
0100
0000
0110
0000
0100
0010
0000
0010
0001
0000
1000
0000
,  // measure 32
1001
0000
0000
0000
1001
0000
0000
0000
1100
0000
1100
0000
0101
0000
0000
0100
,  // measure 33
0001
0000
0001
0000
0100
0010
0100
0000
0001
0010
0000
0010
0100
0000
1000
0000
,  // measure 34
0010
1000
0000
1000
0100
0000
0000
0000
0011
0000
0011
0000
1010
0000
0000
0010
,  // measure 35
1000
0000
1000
0000
0010
0100
0010
0000
1000
0100
0000
0100
0010
0000
0001
0000
,  // measure 36
0100
0001
0100
0001
0100
0001
0100
0001
0100
0000
0000
0000
0101
0000
0000
0000
,  // measure 37
0010
1000
0010
1000
0010
1000
0010
1000
0010
0000
0000
0000
1010
0000
0000
0000
,  // measure 38
1000
0001
1000
0001
1000
0000
1000
0001
0010
0000
0100
0000
1000
0000
0000
0000
,  // measure 39
0100
0010
0001
1000
0001
0000
1000
0000
0001
1000
0001
1000
0001
0000
0000
0000
,  // measure 40
1000
0000
0000
0000
0100
0000
0000
0000
1000
0000
0000
0000
0010
0000
0000
0000
0100
0000
0000
0000
0000
0000
0000
0000
0001
0000
0000
0010
0000
0000
0100
0000
0000
1000
0000
0000
0100
0000
0000
1000
0000
0000
0000
0000
0000
0000
0000
0000
,  // measure 41
0001
0000
0000
0010
0000
0000
0001
0000
0000
0010
0000
0000
0100
0000
0000
0000
0000
0000
1000
0000
0000
0000
0000
0000
0001
0000
0000
0000
1000
0000
0000
0000
0001
0000
0000
0000
0100
0000
0000
0000
0001
0000
0000
0000
0000
0000
0000
0000
,  // measure 42
0100
0010
0100
0010
1000
0001
1000
0001
1000
0000
0001
0000
1000
0000
0100
0000
,  // measure 43
1000
0000
0000
0000
0100
0010
0100
0000
0100
1000
0000
1000
0010
0000
0100
0000
,  // measure 44
0001
0000
0000
0000
;
