#VERSION:0.83;
#TITLE:My Humps (Lil Jon Remix);
#SUBTITLE:;
#ARTIST:Black Eyed Peas;
#TITLETRANSLIT:;
#SUBTITLETRANSLIT:;
#ARTISTTRANSLIT:;
#GENRE:Pop Rap;
#ORIGIN:;
#TAGS:;
#CREDIT:chewi;
#BANNER:My Humps (Lil Jon Remix).png;
#BACKGROUND:My Humps (Lil Jon Remix)-bg.png;
#PREVIEWVID:;
#JACKET:My Humps (Lil Jon Remix)-jacket.png;
#CDIMAGE:;
#DISCIMAGE:;
#LYRICSPATH:;
#CDTITLE:cdtitle.png;
#MUSIC:My Humps (Lil Jon Remix).ogg;
#OFFSET:0.008000;
#SAMPLESTART:58.063000;
#SAMPLELENGTH:12.000000;
#SELECTABLE:YES;
#BPMS:0.000000=123.986992
;
#STOPS:;
#DELAYS:;
#WARPS:;
#TIMESIGNATURES:0.000000=4=4
;
#TICKCOUNTS:0.000000=4
;
#COMBOS:0.000000=1
;
#SPEEDS:0.000000=1.000000=0.000000=0
;
#SCROLLS:0.000000=1.000000
;
#FAKES:;
#LABELS:0.000000=Song Start
;
#BGCHANGES:0.000=My Humps (Lil Jon Remix).mp4=1.000=1=0=1===CrossFade==,
216.000=My Humps (Lil Jon Remix)-bg.png=1.000=1=0=1===CrossFade==,
99999=-nosongbg-=1.000=0=0=0 // don't automatically add -songbackground-
;
#KEYSOUNDS:;
#ATTACKS:
;

//---------------dance-single - chewi----------------
#NOTEDATA:;
#CHARTNAME:chewi;
#CHARTHASH:1819113082;
#STEPSTYPE:dance-single;
#BANNER:;
#DESCRIPTION:chewi;
#CHARTSTYLE:;
#DIFFICULTY:Beginner;
#METER:1;
#METERF:0.000000;
#LASTSECONDHINT:104.519089;
#RADARVALUES:0.000000,0.000000,0.000000,0.000000,0.000000,0.000000,0.000000,0.000000,0.000000,0.000000,0.000000,0.000000,0.000000,0.000000,0.000000,0.000000,0.000000,0.000000,0.000000,0.000000,0.000000,0.000000,0.000000,0.000000,0.000000,0.000000,0.000000,0.000000;
#CREDIT:chewi;
#NOTES:
0000
0000
0000
0000
,
0000
0000
0000
0000
,
1000
0000
0000
0000
,
0001
0000
0000
0000
,
0010
0000
0000
0000
,
0100
0000
0000
0000
,
1000
0000
0000
0000
,
0001
0000
0000
0000
,
0100
0000
0000
0000
,
0010
0000
0000
0000
,
0100
0000
0100
0000
,
0100
0000
0000
0000
,
0010
0000
0010
0000
,
0010
0000
0000
0000
,
1000
0000
0001
0000
,
1000
0000
0000
0000
,
0001
0000
1000
0000
,
0001
0000
0000
0000
,
0001
0000
0100
0000
,
0100
0000
0000
0000
,
0010
0000
1000
0000
,
1000
0000
0000
0000
,
1000
0000
0100
0000
,
0100
0000
0000
0000
,
0010
0000
0001
0000
,
0001
0000
0000
0000
,
1001
0000
0000
0000
,
0110
0000
0000
0000
,
1001
0000
0000
0000
,
0110
0000
0000
0000
,
1000
0000
0000
0000
,
0001
0000
0000
0000
,
1000
0000
1000
0000
,
0001
0000
0001
0000
,
0100
0000
0000
0000
,
0010
0000
0000
0000
,
0100
0000
0100
0000
,
0010
0000
0010
0000
,
1000
0000
1000
0000
,
0001
0000
0001
0000
,
0010
0000
0010
0000
,
0100
0000
0100
0000
,
1000
0000
1000
0000
,
0001
0000
0001
0000
,
0100
0000
0100
0000
,
0010
0000
0010
0000
,
0010
0000
0010
0000
,
0100
0000
0100
0000
,
0010
0000
0010
0000
,
0010
0010
0010
0000
,
1000
0000
1000
0000
,
0001
0000
0001
0000
,
1000
0000
1000
0000
,
0001
0001
0001
0000
,
1001
0000
0000
0000
;

//---------------dance-single - chewi----------------
#NOTEDATA:;
#CHARTNAME:chewi;
#CHARTHASH:2898859282;
#STEPSTYPE:dance-single;
#BANNER:;
#DESCRIPTION:chewi;
#CHARTSTYLE:;
#DIFFICULTY:Easy;
#METER:3;
#METERF:0.000000;
#LASTSECONDHINT:104.519089;
#RADARVALUES:0.000000,0.000000,0.000000,0.000000,0.000000,0.000000,0.000000,0.000000,0.000000,0.000000,0.000000,0.000000,0.000000,0.000000,0.000000,0.000000,0.000000,0.000000,0.000000,0.000000,0.000000,0.000000,0.000000,0.000000,0.000000,0.000000,0.000000,0.000000;
#CREDIT:chewi;
#NOTES:
0000
0000
0000
0000
,
0000
0000
0000
0000
,
0000
1000
0000
0001
,
0000
0100
0000
0010
,
0000
1000
0000
0001
,
0000
0010
0000
0100
,
0100
0010
0100
0000
,
0010
0100
0010
0000
,
0001
1000
0001
0000
,
1000
0001
1000
0000
,
0001
0001
0100
0000
,
1000
1000
0100
0000
,
0001
0010
1000
0000
,
1000
0010
0001
0000
,
1000
1000
0010
0000
,
0001
0001
0010
0000
,
1000
0100
0001
0000
,
0001
0100
1000
0000
,
0001
0100
0001
0000
,
0100
0000
0010
0000
,
1000
0100
1000
0000
,
0100
0000
0010
0000
,
0100
0010
0100
0000
,
0010
0100
0010
0000
,
0001
0010
0001
0000
,
1000
0010
1000
0000
,
0110
0000
0100
0000
,
0010
0000
1000
0000
,
0001
0000
1000
0000
,
0100
0000
0010
0000
,
0100
1000
0100
1000
,
0100
0000
0000
0100
0000
0000
0000
0000
,
1000
1000
0001
0000
,
0001
0001
1000
0000
,
0001
0100
0001
0100
,
0001
0000
0000
0001
0000
0000
0000
0000
,
0001
0001
0010
0000
,
0100
0100
1000
0000
,
0001
0100
0000
0100
,
0000
0100
0010
1000
,
0100
0010
0000
0010
,
0000
0010
0100
1000
,
0001
1000
0000
1000
,
0001
1000
0001
0100
,
0010
0100
0000
0100
,
0000
0010
0000
0010
,
0010
0000
0100
0000
,
0100
0000
0010
0000
,
1000
0000
0100
0000
,
0100
0000
1000
0000
,
0001
0000
0010
0000
,
0010
0000
0001
0000
,
1000
0000
0010
0000
,
0010
0000
1000
0000
,
1001
0000
0000
0000
;

//---------------dance-single - chewi----------------
#NOTEDATA:;
#CHARTNAME:chewi;
#CHARTHASH:651750408;
#STEPSTYPE:dance-single;
#BANNER:;
#DESCRIPTION:chewi;
#CHARTSTYLE:;
#DIFFICULTY:Medium;
#METER:5;
#METERF:0.000000;
#LASTSECONDHINT:104.519089;
#RADARVALUES:0.000000,0.000000,0.000000,0.000000,0.000000,0.000000,0.000000,0.000000,0.000000,0.000000,0.000000,0.000000,0.000000,0.000000,0.000000,0.000000,0.000000,0.000000,0.000000,0.000000,0.000000,0.000000,0.000000,0.000000,0.000000,0.000000,0.000000,0.000000;
#CREDIT:chewi;
#NOTES:
0000
0000
0000
0000
,
0000
0000
0000
0000
,
0001
0100
0001
0101
,
0010
1000
0010
1010
,
0010
0100
0001
1000
,
0001
0010
0000
0010
,
0001
0000
0100
0010
,
1000
0000
0001
0010
,
0001
0000
0010
0100
,
0010
0000
0001
0000
,
1000
0100
0020
0030
,
0001
0100
0020
0030
,
0100
0010
0200
0300
,
0001
1000
0200
0300
,
0010
0100
2000
3000
,
0001
0010
0200
0300
,
1000
0010
0200
0300
,
0001
0100
0020
0030
,
1000
0001
1000
0100
,
1000
0001
1000
0010
,
0100
0001
0010
0001
,
0100
0001
0010
0001
,
0010
0010
0200
0300
,
0100
0100
0020
0030
,
0001
1000
0020
0030
,
0100
0001
2000
3000
,
1001
0000
0000
0001
0010
0000
0100
0000
,
1001
0000
0000
1000
0010
0000
0100
0000
,
0101
0000
0000
0100
0001
0000
0010
0000
,
0100
0000
0000
1000
0100
0000
1100
0000
,
1000
0100
0010
0100
,
1000
0000
0000
0001
0000
0000
1001
0000
,
0001
1000
0010
0100
,
0000
0001
1000
0100
,
0000
1000
0100
0010
,
0001
0000
0000
0010
0000
0000
0001
0000
,
0010
0100
0010
0001
,
1000
1000
0001
0001
,
0001
0100
1000
0100
,
0001
0100
1000
0010
,
0001
0010
1000
0010
,
0001
0010
0100
1000
,
1000
0010
0001
0010
,
1000
0010
0001
0100
,
1000
0100
0001
0100
,
1000
0100
0010
0001
,
0001
0000
0100
0001
0000
0100
0001
0000
,
0010
0000
0100
1000
0000
0100
1000
0000
,
0100
0000
0100
0010
0000
0100
0010
0000
,
0001
1001
1000
1001
,
1000
0000
0010
1000
0000
0010
1000
0000
,
0001
0000
0001
0100
0000
0001
0100
0000
,
0100
0000
0010
0100
0000
0010
0100
0000
,
0010
0110
0100
0110
,
1001
0000
0000
0000
;

//---------------dance-single - chewi----------------
#NOTEDATA:;
#CHARTNAME:chewi;
#CHARTHASH:2867162051;
#STEPSTYPE:dance-single;
#BANNER:;
#DESCRIPTION:chewi;
#CHARTSTYLE:;
#DIFFICULTY:Hard;
#METER:7;
#METERF:0.000000;
#LASTSECONDHINT:104.519089;
#RADARVALUES:0.457639,0.431201,0.075155,0.037577,0.000000,341.000000,333.000000,8.000000,4.000000,0.000000,0.000000,0.000000,0.000000,0.000000,0.457639,0.431201,0.075155,0.037577,0.000000,341.000000,333.000000,8.000000,4.000000,0.000000,0.000000,0.000000,0.000000,0.000000;
#CREDIT:chewi;
#NOTES:
// measure 0
0000
0000
0000
0000
,  // measure 1
0000
0000
0000
0000
,  // measure 2
0001
0001
0001
0000
1000
0001
0100
0000
,  // measure 3
0010
0010
0010
0000
1000
0001
0010
0000
,  // measure 4
0100
1000
0100
0000
1000
0001
0010
0000
,  // measure 5
0100
0010
0001
0000
0000
1000
0100
1000
,  // measure 6
0001
0000
0000
1000
0100
1000
0010
1000
,  // measure 7
0001
0000
0000
0001
0100
0001
0010
0001
,  // measure 8
1000
0000
0000
0001
0010
0001
1000
0001
,  // measure 9
0100
0100
0001
0001
1000
1000
0010
0010
,  // measure 10
1000
0100
0010
0100
2000
0000
3100
0000
,  // measure 11
0010
0100
1000
0100
0020
0000
0130
0000
,  // measure 12
0010
0001
0100
0001
0020
0000
0031
0000
,  // measure 13
1000
0100
1000
0010
2000
0000
3001
0000
,  // measure 14
1000
0010
1000
0000
0001
0100
0001
0000
,  // measure 15
0100
0001
0010
0000
0100
1000
0010
0000
,  // measure 16
1000
0001
0100
0001
0010
0010
0100
0100
,  // measure 17
1000
0010
0100
0010
1000
1000
0001
0000
,  // measure 18
1000
0100
0010
0000
0001
0100
0001
0000
,  // measure 19
0100
0010
1000
0000
0001
1000
0001
0000
,  // measure 20
1000
0100
0010
0000
0001
0100
0001
0000
,  // measure 21
0100
0010
1000
0000
0001
1000
0001
1000
,  // measure 22
0010
0100
0010
0000
0100
0001
0100
0000
,  // measure 23
0100
0010
0100
0000
0010
1000
0010
0000
,  // measure 24
1000
0100
0001
0000
0100
0100
0100
0000
,  // measure 25
0010
0001
1000
0000
1000
1000
1000
0000
,  // measure 26
1001
0000
0000
1000
0001
1000
0001
1000
,  // measure 27
0100
0000
0000
0100
0010
0100
0010
0100
,  // measure 28
1000
0000
0000
0001
1000
0001
1000
0001
,  // measure 29
0100
0100
0010
0010
1000
1000
0001
0001
,  // measure 30
0000
0001
0010
0100
,  // measure 31
0110
0000
0000
0011
0000
0000
0101
0000
,  // measure 32
0100
0001
0010
0100
1000
0010
1000
0010
,  // measure 33
0000
1000
0100
0010
0100
1000
0010
1000
,  // measure 34
0000
0000
0010
0100
0001
0000
1000
0000
,  // measure 35
0110
0000
0001
0110
0000
1000
0110
0000
,  // measure 36
0100
0001
0010
0100
1000
0001
1000
1000
,  // measure 37
0000
0001
0001
0001
1000
0001
0100
0010
,  // measure 38
1000
0001
0100
0000
0001
1000
0100
0000
,  // measure 39
1000
0001
0100
0000
0001
1000
0100
0001
,  // measure 40
1000
0010
0100
0000
0010
0100
1000
0100
,  // measure 41
1000
0010
0100
0001
0010
0001
0100
0001
,  // measure 42
0010
1000
0001
0000
0100
1000
0001
0100
,  // measure 43
0001
1000
0010
0000
1000
0001
0100
0010
,  // measure 44
1000
0001
0100
0000
0010
0010
0100
0001
,  // measure 45
0010
0100
1000
0010
0100
0001
0100
0010
,  // measure 46
1000
0001
0100
0010
0100
0000
0100
0001
,  // measure 47
0000
0100
0010
1000
0001
0000
0001
0100
,  // measure 48
0000
0010
1000
0001
0010
0000
0010
0001
,  // measure 49
0010
0010
0001
0000
0010
0010
0100
0000
,  // measure 50
0010
0100
0010
0001
0010
0000
0010
0100
,  // measure 51
1000
0010
1000
0100
0010
0000
0010
0100
,  // measure 52
1000
0010
0100
0001
0100
0000
0010
0100
,  // measure 53
0001
0001
1000
1000
0010
0010
0100
0100
,  // measure 54
0110
0000
0000
0000
;
