#VERSION:0.83;
#TITLE:Most Girls;
#SUBTITLE:;
#ARTIST:P!nk;
#TITLETRANSLIT:;
#SUBTITLETRANSLIT:;
#ARTISTTRANSLIT:;
#GENRE:R&B;
#ORIGIN:;
#TAGS:;
#CREDIT:chewi;
#BANNER:Most Girls.png;
#BACKGROUND:Most Girls-bg.png;
#PREVIEWVID:;
#JACKET:Most Girls-jacket.png;
#CDIMAGE:;
#DISCIMAGE:;
#LYRICSPATH:;
#CDTITLE:cdtitle.png;
#MUSIC:Most Girls.ogg;
#OFFSET:2.453000;
#SAMPLESTART:49.018002;
#SAMPLELENGTH:12.000000;
#SELECTABLE:YES;
#BPMS:0.000000=97.919998
;
#STOPS:;
#DELAYS:;
#WARPS:;
#TIMESIGNATURES:0.000000=4=4
;
#TICKCOUNTS:0.000000=4
;
#COMBOS:0.000000=1
;
#SPEEDS:0.000000=1.000000=0.000000=0
;
#SCROLLS:0.000000=1.000000
;
#FAKES:;
#LABELS:0.000000=Song Start
;
#BGCHANGES:4.000=Most Girls.mp4=1.000=1=0=1===CrossFade==,
148.000=Most Girls-bg.png=1.000=1=0=1===CrossFade==,
99999=-nosongbg-=1.000=0=0=0 // don't automatically add -songbackground-
;
#KEYSOUNDS:;
#ATTACKS:
;

//---------------dance-single - chewi----------------
#NOTEDATA:;
#CHARTNAME:chewi;
#CHARTHASH:3189243645;
#STEPSTYPE:dance-single;
#BANNER:;
#DESCRIPTION:chewi;
#CHARTSTYLE:;
#DIFFICULTY:Beginner;
#METER:1;
#METERF:0.000000;
#LASTSECONDHINT:90.684258;
#RADARVALUES:0.070562,0.122410,0.053688,0.010738,0.000000,46.000000,41.000000,5.000000,1.000000,0.000000,0.000000,0.000000,0.000000,0.000000,0.070562,0.122410,0.053688,0.010738,0.000000,46.000000,41.000000,5.000000,1.000000,0.000000,0.000000,0.000000,0.000000,0.000000;
#CREDIT:chewi;
#NOTES:
0000
0000
0000
0000
,
0000
0000
0000
0000
,
0000
0000
0000
0000
,
0000
0000
0000
0000
,
0000
0000
0000
0000
,
1000
0000
0000
0000
,
0001
0000
0000
0000
,
0010
0000
0000
0000
,
0100
0000
0000
0000
,
1000
0000
0000
0000
,
0010
0000
0000
0000
,
0100
0000
0000
0000
,
0001
0000
0000
0000
,
1001
0000
0000
0000
,
1000
0000
0000
0000
,
0001
0000
0000
0000
,
0100
0000
0000
0000
,
0110
0000
0000
0000
,
0010
0000
0000
0000
,
0100
0000
0000
0000
,
0001
0000
0000
0000
,
0001
0000
0010
0000
,
0010
0000
0000
0000
,
0010
0000
0100
0000
,
0100
0000
0000
0000
,
1000
0000
0010
0000
,
0010
0000
0000
0000
,
0100
0000
0001
0000
,
0001
0000
0000
0000
,
1001
0000
0000
0000
,
1001
0000
0000
0000
,
1000
0000
0001
0000
,
1000
0000
0001
0000
,
0110
0000
0000
0000
,
0100
0000
0000
0000
,
0010
0000
0100
0000
,
0010
0000
0100
0000
,
0200
0000
0000
0000
,
0300
0000
0000
0000
;

//---------------dance-single - chewi----------------
#NOTEDATA:;
#CHARTNAME:chewi;
#CHARTHASH:1535036638;
#STEPSTYPE:dance-single;
#BANNER:;
#DESCRIPTION:chewi;
#CHARTSTYLE:;
#DIFFICULTY:Easy;
#METER:2;
#METERF:0.000000;
#LASTSECONDHINT:90.684258;
#RADARVALUES:0.118114,0.163213,0.085901,0.021475,0.000000,77.000000,69.000000,8.000000,2.000000,0.000000,0.000000,0.000000,0.000000,0.000000,0.118114,0.163213,0.085901,0.021475,0.000000,77.000000,69.000000,8.000000,2.000000,0.000000,0.000000,0.000000,0.000000,0.000000;
#CREDIT:chewi;
#NOTES:
0000
0000
0000
0000
,
0000
0000
0000
0000
,
0000
0000
0000
0000
,
0000
0000
0000
0000
,
0000
0000
0000
0000
,
1000
0000
0001
0100
,
0001
0000
1000
0100
,
1000
0000
1000
0000
,
0100
0000
0100
0000
,
0010
0000
0010
0001
,
0010
0000
0100
1000
,
0100
0000
1000
0000
,
0001
0000
1000
0000
,
1001
0000
0100
0100
,
0100
0000
0010
0010
,
0010
0000
1000
0001
,
1000
0000
0001
0000
,
0001
1000
0001
0000
,
1000
0000
1000
0000
,
0001
0000
0010
0000
,
0100
0000
1000
0000
,
1001
0000
1000
0000
,
0001
0000
0100
0000
,
0010
0000
0100
0000
,
0001
0000
1000
0000
,
1001
0000
1000
0000
,
0001
0000
0010
0000
,
0100
0000
0010
0000
,
0001
0000
1000
0000
,
1001
0000
0000
0000
,
0110
0000
0000
0000
,
0100
0000
0001
0000
,
1000
0000
0001
0000
,
1001
0000
0000
0000
,
0110
0000
0000
0000
,
0010
0000
0100
0000
,
1000
0000
0001
0000
,
2002
0000
0000
0000
,
3003
0000
0000
0000
;

//---------------dance-single - chewi----------------
#NOTEDATA:;
#CHARTNAME:chewi;
#CHARTHASH:4251865617;
#STEPSTYPE:dance-single;
#BANNER:;
#DESCRIPTION:chewi;
#CHARTSTYLE:;
#DIFFICULTY:Medium;
#METER:4;
#METERF:0.000000;
#LASTSECONDHINT:90.684258;
#RADARVALUES:0.246967,0.367229,0.214754,0.085901,0.000000,161.000000,141.000000,20.000000,8.000000,0.000000,0.000000,0.000000,0.000000,0.000000,0.246967,0.367229,0.214754,0.085901,0.000000,161.000000,141.000000,20.000000,8.000000,0.000000,0.000000,0.000000,0.000000,0.000000;
#CREDIT:chewi;
#NOTES:
0000
0000
0000
0000
,
0000
0000
0000
0000
,
0000
0000
0000
0000
,
0000
0000
0000
0000
,
0000
0000
0000
0000
,
1001
0000
0000
0000
1000
0001
0100
0000
,
0101
0000
0000
0000
0100
0010
1000
0000
,
1100
0101
1100
0101
,
1001
0000
1010
0000
1001
1000
0001
0000
,
0011
0000
0000
0000
0100
1000
0010
0000
,
1010
0000
0000
0000
0010
0100
0001
0000
,
1001
0000
0100
0001
,
0010
0010
0100
0000
1000
0000
0001
0000
,
1000
0001
1000
0000
0001
0000
0100
0000
,
0010
0100
0001
0000
1000
0000
0001
0000
,
0010
0100
1000
0000
0100
0000
0010
0000
,
0001
1000
0001
0000
1000
0001
1000
0000
,
2002
3003
0220
0330
,
1010
0101
2002
3003
,
1000
0001
0010
0100
,
1000
1000
0001
0001
,
1000
0000
0100
0000
0010
0001
0010
0000
,
0100
0000
1000
0000
0001
1000
0001
0000
,
1000
0010
0001
0100
,
1000
0000
1000
0000
1000
1000
0000
0000
,
0001
0000
0010
0000
0100
1000
0100
0000
,
0010
0000
0001
0000
1000
0001
1000
0000
,
0001
0100
1000
0010
,
0001
1000
0001
0001
,
1001
1000
0001
0000
0100
0100
0000
0000
,
0110
0010
1000
0001
,
1000
1000
1000
0000
0001
0001
0001
0000
,
0010
0100
1000
0001
,
1000
1000
1000
0000
1000
1000
0000
0000
,
0001
0001
0001
0000
0001
0001
0000
0000
,
0100
0010
0100
0001
,
0010
0100
1000
0001
,
2002
0000
0000
0000
,
3003
0000
0000
0000
;

//---------------dance-single - chewi----------------
#NOTEDATA:;
#CHARTNAME:chewi;
#CHARTHASH:307594344;
#STEPSTYPE:dance-single;
#BANNER:;
#DESCRIPTION:chewi;
#CHARTSTYLE:;
#DIFFICULTY:Hard;
#METER:6;
#METERF:0.000000;
#LASTSECONDHINT:90.684258;
#RADARVALUES:0.351275,0.408032,0.182541,0.010738,0.102008,229.000000,212.000000,17.000000,1.000000,5.000000,0.000000,0.000000,0.000000,0.000000,0.351275,0.408032,0.182541,0.010738,0.102008,229.000000,212.000000,17.000000,1.000000,5.000000,0.000000,0.000000,0.000000,0.000000;
#CREDIT:chewi;
#NOTES:
// measure 0
0000
0000
0000
0000
,  // measure 1
0000
0000
0000
0000
,  // measure 2
0000
0000
0000
0000
M000
0M00
000M
00M0
,  // measure 3
M000
0000
0000
0000
,  // measure 4
0000
0000
0000
0000
,  // measure 5
1001
0000
0000
0000
0000
0000
0010
0100
1000
0000
0010
0000
1000
0000
0100
0000
,  // measure 6
1100
0000
0000
0000
0000
0000
0100
0010
0001
0000
0100
0000
0010
0000
0100
0000
,  // measure 7
0101
1001
1010
0110
,  // measure 8
1010
0000
1001
0000
0011
0010
0001
0000
,  // measure 9
0110
0000
0000
0000
0000
0000
0100
0010
0001
0000
0100
0000
0010
0000
1000
0000
,  // measure 10
1010
0000
0000
0000
0000
0000
0010
0100
0001
0000
0010
0000
0100
0000
0010
0000
,  // measure 11
0011
0010
0001
0000
1000
0100
1000
0000
,  // measure 12
0010
1000
0001
0000
0100
0001
0100
0000
,  // measure 13
0101
0000
0100
0000
0010
1000
0100
0001
,  // measure 14
0100
0000
1000
0000
0010
0100
0001
1000
,  // measure 15
0100
0000
0010
0000
0100
0100
0010
0010
,  // measure 16
1000
0100
1000
0000
0001
0100
0001
0000
,  // measure 17
1000
0001
1000
0000
0001
0000
0000
0000
0001
1000
0001
0000
1000
0000
0000
0000
,  // measure 18
0001
1000
0001
0000
1000
0001
1000
0000
1001
0000
0000
0000
0000
0000
0000
0000
,  // measure 19
0010
0001
1000
0010
0100
0001
1000
0100
,  // measure 20
0010
0001
1000
0100
,  // measure 21
0010
0001
0010
1000
0010
0001
0010
1000
,  // measure 22
0000
0010
0001
1000
0010
0100
0001
0100
,  // measure 23
0100
0010
1000
0001
,  // measure 24
1000
0000
1100
0000
1010
0100
0001
0000
,  // measure 25
0010
1000
0010
0001
0010
1000
0010
0001
,  // measure 26
0000
0010
0100
1000
0010
0100
0001
0100
,  // measure 27
0100
0000
0000
0100
0000
0000
0010
0000
1000
0000
0001
0000
1001
0000
0000
0000
,  // measure 28
0001
0010
0100
1000
0100
0000
1000
0000
,  // measure 29
0010
0010
0100
0000
0010
0100
0000
0000
,  // measure 30
0001
0000
0001
0000
1000
0000
0000
0000
0001
0000
1000
0000
0000
0000
0001
1000
,  // measure 31
0001
1000
0001
1000
0001
0000
0000
0000
0010
0001
0010
0001
0010
0000
0000
0000
,  // measure 32
0100
0100
1000
1000
0010
0010
1000
1000
,  // measure 33
0100
0100
0010
0000
0100
0010
0000
0000
,  // measure 34
0001
0000
0001
0000
1000
0000
0000
0000
1000
0000
0001
0000
0000
0000
1000
0001
,  // measure 35
1000
0001
1000
0001
1000
0000
0000
0000
0100
0010
0100
0010
0100
0000
0000
0000
,  // measure 36
0010
0010
0100
0100
1000
1000
0001
0001
,  // measure 37
2000
0000
0000
0000
,  // measure 38
3000
0000
0000
0000
;
