#VERSION:0.83;
#TITLE:MUNCH;
#SUBTITLE:(FEELIN' U);
#ARTIST:ICE SPICE;
#TITLETRANSLIT:;
#SUBTITLETRANSLIT:;
#ARTISTTRANSLIT:;
#GENRE:;
#CREDIT:;
#MUSIC:MUNCH (FEELIN' U).ogg;
#BANNER:;
#BACKGROUND:MUNCH (FEELIN' U)-bg.png;
#JACKET:;
#DISCIMAGE:;
#CDIMAGE:;
#SELECTABLE:YES;
#LYRICSPATH:;
#CDTITLE:cdtitle.png;
#SAMPLESTART:5.840000;
#SAMPLELENGTH:12.000000;
#OFFSET:-0.057;
#BPMS:0.000=166.000;
#STOPS:;
#WARPS:;
#DELAYS:;
#SPEEDS:;
#SCROLLS:;
#TICKCOUNTS:;
#TIMESIGNATURES:0.000=4=4;
#LABELS:;
#COMBOS:;
#FAKES:;
#BGCHANGES:-0.057=MUNCH (FEELIN' U).mp4=1.000=1=0=1===CrossFade==,
264.000=MUNCH (FEELIN' U)-bg.png=1.000=1=0=1===CrossFade==,
99999=-nosongbg-=1.000=0=0=0 // don't automatically add -songbackground-
;
#FGCHANGES:;
#ATTACKS:;
#TAGS:;
#PREVIEWVID:;
#KEYSOUNDS:;

//---------------dance-single - ---------------
#NOTEDATA:;
#CHARTNAME:;
#CHARTSTYLE:;
#CREDIT:;
#STEPSTYPE:dance-single;
#DESCRIPTION:;
#DIFFICULTY:Beginner;
#METER:1;
#METERF:1;
#RADARVALUES:0.102813,0.158333,0.038384,0.000000,0.000000,75.000000,71.000000,4.000000,0.000000,0.000000,0.000000,0.000000,0.000000,0.000000,0.102813,0.158333,0.038384,0.000000,0.000000,75.000000,71.000000,4.000000,0.000000,0.000000,0.000000,0.000000,0.000000,0.000000;
#NOTES:
// measure 0
0000
0000
0000
0000
,  // measure 1
0000
0000
0000
0000
,  // measure 2
0000
0000
0000
0000
,  // measure 3
0000
0000
0000
0000
,  // measure 4
1000
0000
0000
0000
,  // measure 5
0100
0000
0000
0000
,  // measure 6
1000
0000
0100
0000
,  // measure 7
1000
0000
0000
0000
,  // measure 8
0001
0000
0000
0000
,  // measure 9
0100
0000
0000
0000
,  // measure 10
0001
0000
0100
0000
,  // measure 11
0001
0000
0000
0000
,  // measure 12
0001
0000
0000
0000
,  // measure 13
1000
0000
0000
0000
,  // measure 14
0001
0000
0000
0000
,  // measure 15
0100
0000
0000
0000
,  // measure 16
0001
0000
0000
0000
,  // measure 17
1000
0000
0000
0000
,  // measure 18
0100
0000
0000
0000
,  // measure 19
0010
0000
0000
0000
,  // measure 20
0100
0000
0000
0000
,  // measure 21
1000
0000
0000
0000
,  // measure 22
0001
0000
0000
0000
,  // measure 23
1000
0000
0000
0000
,  // measure 24
0001
0000
0000
0000
,  // measure 25
0100
0000
0000
0000
,  // measure 26
0010
0000
0000
0000
,  // measure 27
1000
0000
0000
0000
,  // measure 28
1001
0000
0000
0000
,  // measure 29
0000
0000
0000
0000
,  // measure 30
0100
0000
0100
0000
,  // measure 31
0100
0000
0000
0000
,  // measure 32
0110
0000
0000
0000
,  // measure 33
0010
0000
0000
0000
,  // measure 34
0010
0000
0100
0000
,  // measure 35
1000
0000
0001
0000
,  // measure 36
1000
0000
0000
0000
,  // measure 37
0010
0000
0000
0000
,  // measure 38
0001
0000
0000
0000
,  // measure 39
0100
0000
0000
0000
,  // measure 40
1000
0000
0000
0000
,  // measure 41
0100
0000
0000
0000
,  // measure 42
0001
0000
0000
0000
,  // measure 43
0010
0000
0000
0000
,  // measure 44
1000
0000
0000
0000
,  // measure 45
0001
0000
0000
0000
,  // measure 46
1000
0000
0000
0000
,  // measure 47
0100
0000
0000
0000
,  // measure 48
0010
0000
0000
0000
,  // measure 49
0001
0000
0000
0000
,  // measure 50
1000
0000
0000
0000
,  // measure 51
0001
0000
0000
0000
,  // measure 52
1001
0000
0000
0000
,  // measure 53
0100
0000
0000
0000
,  // measure 54
0100
0000
0100
0000
,  // measure 55
0100
0000
0000
0000
,  // measure 56
0110
0000
0000
0000
,  // measure 57
0010
0000
0000
0000
,  // measure 58
0010
0000
0100
0000
,  // measure 59
0001
0000
1000
0000
,  // measure 60
0001
0000
0000
0000
,  // measure 61
0000
0000
0000
0000
,  // measure 62
0001
0000
0001
0000
,  // measure 63
1000
0000
1000
0000
,  // measure 64
0010
0000
0000
0000
,  // measure 65
0100
0000
0000
0000
,  // measure 66
0100
0000
0000
0000
;

//---------------dance-single - ---------------
#NOTEDATA:;
#CHARTNAME:;
#CHARTSTYLE:;
#CREDIT:;
#STEPSTYPE:dance-single;
#DESCRIPTION:;
#DIFFICULTY:Easy;
#METER:4;
#METERF:4;
#RADARVALUES:0,0,0,0,0;
#NOTES:
// measure 0
0000
0000
0000
0000
,  // measure 1
0000
0000
0000
0000
,  // measure 2
0000
0000
0000
0000
,  // measure 3
0000
0000
0000
0000
,  // measure 4
0000
1000
0001
0000
,  // measure 5
0000
0000
1000
0001
,  // measure 6
1000
0000
0100
0000
,  // measure 7
0010
0000
0001
0000
,  // measure 8
0000
0010
0100
0000
,  // measure 9
0000
0000
0100
0010
,  // measure 10
0001
0000
1000
0000
,  // measure 11
0010
0000
0100
0000
,  // measure 12
0100
0100
0001
0001
,  // measure 13
0100
0100
0001
0001
,  // measure 14
0100
0100
0010
0010
,  // measure 15
0100
0100
0010
0010
,  // measure 16
1000
1000
0010
0010
,  // measure 17
1000
1000
0100
0100
,  // measure 18
0010
0010
0001
0001
,  // measure 19
0100
0100
0001
0001
,  // measure 20
0200
0300
0002
0003
,  // measure 21
0100
0001
0100
0000
,  // measure 22
0020
0030
2000
3000
,  // measure 23
0010
1000
0010
0000
,  // measure 24
2000
3000
0002
0003
,  // measure 25
1000
0100
0010
0000
,  // measure 26
0002
0003
2000
3000
,  // measure 27
0001
0100
0010
0000
,  // measure 28
0110
0000
1001
0000
,  // measure 29
0000
0000
0110
0000
,  // measure 30
1000
0001
1000
0000
,  // measure 31
0001
1000
0001
0000
,  // measure 32
1001
0000
1000
0000
,  // measure 33
0000
0000
1001
0000
,  // measure 34
1000
0100
0001
0100
,  // measure 35
1000
0010
0001
0010
,  // measure 36
0010
0010
0100
0100
,  // measure 37
1000
1000
0001
0001
,  // measure 38
0100
0100
0010
0010
,  // measure 39
1000
1000
0001
0001
,  // measure 40
1000
0001
1000
0001
,  // measure 41
0010
0100
0010
0100
,  // measure 42
0010
0001
0010
0001
,  // measure 43
1000
0100
1000
0100
,  // measure 44
1000
0010
0100
0001
,  // measure 45
1000
0010
0100
0001
,  // measure 46
1001
0000
1001
0000
,  // measure 47
0010
0100
0010
0000
,  // measure 48
0110
0000
0110
0000
,  // measure 49
0010
0100
0010
0000
,  // measure 50
0100
1000
0001
0010
,  // measure 51
0100
1000
0001
1000
,  // measure 52
0110
0000
1001
0000
,  // measure 53
0000
0000
0110
0000
,  // measure 54
1000
0001
1000
0000
,  // measure 55
0001
1000
0001
0000
,  // measure 56
1001
0000
0110
0000
,  // measure 57
0000
0000
1001
0000
,  // measure 58
1000
0010
0001
0010
,  // measure 59
1000
0100
0001
0100
,  // measure 60
0200
0000
0000
0000
,  // measure 61
0000
0000
0000
0300
,  // measure 62
0010
0010
0001
0001
,  // measure 63
1000
1000
0010
0010
,  // measure 64
0200
0000
0000
0000
,  // measure 65
0000
0000
0000
0300
,  // measure 66
0100
0000
0000
0000
;

//---------------dance-single - ---------------
#NOTEDATA:;
#CHARTNAME:;
#CHARTSTYLE:;
#CREDIT:;
#STEPSTYPE:dance-single;
#DESCRIPTION:;
#DIFFICULTY:Medium;
#METER:6;
#METERF:6;
#RADARVALUES:0,0,0,0,0;
#NOTES:
// measure 0
0000
0000
0000
0000
,  // measure 1
0000
0000
0000
0000
,  // measure 2
0000
0000
0000
0000
,  // measure 3
0000
0000
0000
0000
,  // measure 4
1000
0100
0001
0000
,  // measure 5
0000
0000
0000
0000
1000
0100
0001
0000
,  // measure 6
0100
0010
0001
1000
,  // measure 7
0001
0100
0010
0100
,  // measure 8
0100
0001
0010
0000
,  // measure 9
0000
0000
0000
0000
0100
0001
0010
0000
,  // measure 10
0001
1000
0100
0010
,  // measure 11
0100
1000
0010
0100
,  // measure 12
0101
0000
0100
0000
,  // measure 13
0010
1000
0001
0000
,  // measure 14
1000
0000
0001
0000
,  // measure 15
1000
0100
0010
0000
,  // measure 16
0110
0000
0100
0000
,  // measure 17
0010
0001
1000
0000
,  // measure 18
0001
0000
1000
0000
,  // measure 19
0001
0100
0010
0000
,  // measure 20
1010
0000
0010
0000
,  // measure 21
0100
0001
1000
0000
,  // measure 22
0001
0000
1000
0000
,  // measure 23
0001
0010
0100
0000
,  // measure 24
0110
0000
0010
0000
,  // measure 25
0100
1000
0001
0000
,  // measure 26
1000
0000
0001
0000
,  // measure 27
1000
0010
0100
0000
,  // measure 28
1000
0010
0001
0000
,  // measure 29
0000
0000
0000
0000
1000
0010
0001
0000
,  // measure 30
0010
0100
0001
1000
,  // measure 31
0001
0010
0100
0010
,  // measure 32
0010
0001
0100
0000
,  // measure 33
0000
0000
0000
0000
0010
0001
0100
0000
,  // measure 34
0001
1000
0010
0100
,  // measure 35
0010
1000
0100
0010
,  // measure 36
0011
0001
0010
0100
,  // measure 37
1000
0010
0100
0100
,  // measure 38
0001
1000
0001
1000
,  // measure 39
0100
0010
0100
0010
,  // measure 40
0100
1000
0010
0100
,  // measure 41
0010
0100
0001
1000
,  // measure 42
0001
0001
0001
0000
,  // measure 43
1000
1000
1000
0000
,  // measure 44
1001
1000
0100
0000
,  // measure 45
0010
0001
0100
0000
,  // measure 46
0001
0100
0010
0000
,  // measure 47
1000
0010
0100
0000
,  // measure 48
0001
1000
0001
1000
,  // measure 49
0100
0010
0100
0010
,  // measure 50
0001
0010
0001
0010
,  // measure 51
0100
1000
0100
1000
,  // measure 52
0001
0010
1000
0000
,  // measure 53
0000
0000
0000
0000
0001
0010
1000
0000
,  // measure 54
0010
0100
1000
0001
,  // measure 55
1000
0010
0100
0010
,  // measure 56
0010
1000
0100
0000
,  // measure 57
0000
0000
0000
0000
0010
1000
0100
0000
,  // measure 58
1000
0001
0010
0100
,  // measure 59
0010
0001
0100
0010
,  // measure 60
1010
0000
0000
0000
,  // measure 61
0000
0000
0000
0000
0000
0100
0000
0000
,  // measure 62
0001
0000
0000
0001
0001
0000
0000
1000
,  // measure 63
1000
0000
0000
0100
0100
0000
0000
0000
,  // measure 64
0110
0000
0000
0000
,  // measure 65
0100
0000
0000
0000
,  // measure 66
0010
0000
0000
0000
;

//---------------dance-single - ---------------
#NOTEDATA:;
#CHARTNAME:;
#CHARTSTYLE:;
#CREDIT:;
#STEPSTYPE:dance-single;
#DESCRIPTION:;
#DIFFICULTY:Hard;
#METER:8;
#METERF:8;
#RADARVALUES:0.531888,0.506664,0.047980,0.009596,0.038384,388.000000,383.000000,5.000000,1.000000,0.000000,0.000000,0.000000,0.000000,0.000000,0.531888,0.506664,0.047980,0.009596,0.038384,388.000000,383.000000,5.000000,1.000000,0.000000,0.000000,0.000000,0.000000,0.000000;
#NOTES:
// measure 0
0000
0000
0000
0000
,  // measure 1
0000
0000
0000
0000
,  // measure 2
0000
0000
0000
0000
,  // measure 3
0000
0000
0000
0000
,  // measure 4
0000
1000
0100
0010
0001
0010
0000
0000
,  // measure 5
0000
0000
0000
0001
0010
0100
1000
0000
,  // measure 6
0001
1000
0001
1000
0010
0010
0010
0000
,  // measure 7
1000
0001
1000
0001
0010
0010
0010
0010
,  // measure 8
0000
0001
0010
0100
1000
0100
0000
0000
,  // measure 9
0000
0000
0000
1000
0010
0100
0001
0000
,  // measure 10
0100
0010
0100
0010
1000
1000
1000
0000
,  // measure 11
0100
0010
0100
0010
0001
0001
0001
0001
,  // measure 12
0000
0000
0001
0100
0001
0010
0001
0100
,  // measure 13
0100
0000
0010
1000
0100
1000
0010
1000
,  // measure 14
1000
0000
1000
0100
0001
0100
1000
0100
,  // measure 15
0100
0000
1000
0010
0001
0010
1000
0010
,  // measure 16
0010
0000
0100
0001
0010
0001
0100
0010
,  // measure 17
0010
0000
1000
0001
0100
0001
1000
0100
,  // measure 18
0100
0000
0010
0001
1000
0001
0010
0100
,  // measure 19
0100
0000
0010
0001
0100
0001
0010
0001
,  // measure 20
0001
0000
1000
0010
0100
1000
0100
0000
,  // measure 21
0100
0000
0001
0010
0100
0001
0100
0000
,  // measure 22
0100
0000
1000
0010
0100
0001
1000
0000
,  // measure 23
1000
1001
0000
0110
,  // measure 24
0000
0000
0010
0100
0100
0000
0010
0100
,  // measure 25
0100
0000
0010
0100
0001
1000
0100
0010
,  // measure 26
0100
0000
0010
0100
0100
0000
0010
0100
,  // measure 27
0100
0000
0010
0100
1000
0001
0100
0010
,  // measure 28
0100
0001
0010
0100
1000
0100
0000
0000
,  // measure 29
0000
0000
0000
1000
0100
0010
0001
0000
,  // measure 30
1000
0001
1000
0001
0100
0100
0100
0000
,  // measure 31
0001
1000
0001
1000
0100
0100
0100
0100
,  // measure 32
0000
1000
0100
0010
0001
0010
0000
0000
,  // measure 33
0000
0000
0000
0001
0100
0010
1000
0000
,  // measure 34
0010
0100
0010
0100
0001
0001
0001
0000
,  // measure 35
0010
0100
0010
0100
1000
1000
1000
1000
,  // measure 36
1000
0010
1000
0100
1000
0010
0010
0000
,  // measure 37
0100
0001
0010
0001
0100
0001
0001
0000
,  // measure 38
0001
0010
1000
0010
0001
0010
0010
0000
,  // measure 39
0001
0100
1000
0100
0001
0100
0100
0000
,  // measure 40
0010
1000
0100
1000
0010
0100
0100
0000
,  // measure 41
0001
1000
0010
1000
0001
0010
0010
0000
,  // measure 42
0100
1000
0001
1000
0100
0010
0010
0000
,  // measure 43
0100
1000
0010
1000
0100
1000
1000
0000
,  // measure 44
0100
0001
0100
1000
0010
0001
0010
0000
,  // measure 45
0100
0001
0010
1000
0010
0001
0010
0000
,  // measure 46
0011
0000
0000
0010
0001
0010
0001
0000
,  // measure 47
0100
0010
1000
0001
0010
0100
1000
0000
,  // measure 48
0010
1000
0001
0100
0010
0000
0010
0010
,  // measure 49
1000
0100
0010
0001
0010
0000
0010
0010
,  // measure 50
0001
0010
0100
1000
0100
0000
0100
0100
,  // measure 51
1000
0001
0100
0010
1000
0000
1001
0000
,  // measure 52
0000
1000
0100
0010
0001
0010
0000
0000
,  // measure 53
0000
0000
0000
0001
0010
0100
1000
0000
,  // measure 54
0001
1000
0001
1000
0010
0010
0010
0000
,  // measure 55
1000
0001
1000
0001
0010
0010
0010
0010
,  // measure 56
0000
0001
0010
0100
1000
0100
0000
0000
,  // measure 57
0000
0000
0000
1000
0010
0100
0001
0000
,  // measure 58
0100
0010
0100
0010
1000
1000
1000
0000
,  // measure 59
0100
0010
0100
0010
0001
0001
0001
0001
,  // measure 60
0002
0000
0000
0000
,  // measure 61
0000
0000
0000
0003
0000
1000
0000
0000
,  // measure 62
0001
0000
0000
0001
0000
0000
0001
1000
0001
0000
0000
0010
0000
0000
0100
0000
,  // measure 63
1000
0000
0000
1000
0000
0000
1000
0000
1001
0000
1000
0000
0000
0000
0001
0000
,  // measure 64
1000
0000
0000
1000
0000
0000
1000
0001
1000
0000
0000
0100
0000
0000
0010
0000
,  // measure 65
0001
0000
0000
0001
0000
0000
0001
0000
1000
0000
0001
0000
0000
0000
0000
0000
,  // measure 66
0100
0000
0000
0000
;
