#VERSION:0.83;
#TITLE:MILLION DOLLAR BABY;
#SUBTITLE:;
#ARTIST:Tommy Richman;
#TITLETRANSLIT:;
#SUBTITLETRANSLIT:;
#ARTISTTRANSLIT:;
#GENRE:Hip-Hop/Rap;
#ORIGIN:;
#TAGS:;
#CREDIT:chewi;
#BANNER:MILLION DOLLAR BABY.png;
#BACKGROUND:MILLION DOLLAR BABY-bg.png;
#PREVIEWVID:;
#JACKET:MILLION DOLLAR BABY-jacket.png;
#CDIMAGE:;
#DISCIMAGE:;
#LYRICSPATH:;
#CDTITLE:cdtitle.png;
#MUSIC:MILLION DOLLAR BABY.ogg;
#OFFSET:1.739000;
#SAMPLESTART:19.565001;
#SAMPLELENGTH:12.000000;
#SELECTABLE:YES;
#BPMS:0.000000=138.000000
;
#STOPS:;
#DELAYS:;
#WARPS:;
#TIMESIGNATURES:0.000000=4=4
;
#TICKCOUNTS:0.000000=4
;
#COMBOS:0.000000=1
;
#SPEEDS:0.000000=1.000000=0.000000=0
;
#SCROLLS:0.000000=1.000000
;
#FAKES:;
#LABELS:0.000000=Song Start
;
#BGCHANGES:4.000=MILLION DOLLAR BABY.mp4=1.000=1=0=1===CrossFade==,
276.000=MILLION DOLLAR BABY-bg.png=1.000=1=0=1===CrossFade==,
99999=-nosongbg-=1.000=0=0=0 // don't automatically add -songbackground-
;
#KEYSOUNDS:;
#ATTACKS:
;

//---------------dance-single - ----------------
#NOTEDATA:;
#CHARTNAME:;
#CHARTHASH:1028241871;
#STEPSTYPE:dance-single;
#BANNER:;
#DESCRIPTION:;
#CHARTSTYLE:;
#DIFFICULTY:Beginner;
#METER:1;
#METERF:0.000000;
#LASTSECONDHINT:120.000137;
#RADARVALUES:0.081549,0.142710,0.065239,0.000000,0.000000,70.000000,62.000000,8.000000,0.000000,0.000000,0.000000,0.000000,0.000000,0.000000,0.081549,0.142710,0.065239,0.000000,0.000000,70.000000,62.000000,8.000000,0.000000,0.000000,0.000000,0.000000,0.000000,0.000000;
#CREDIT:;
#NOTES:
0000
0000
0000
0000
,
0000
0000
0000
0000
,
0000
0000
0000
0000
,
0000
0000
0000
0000
,
0000
0000
0000
0000
,
0010
0000
0000
0000
,
0100
0000
0000
0000
,
0010
0000
0000
0000
,
0001
0000
0000
0000
,
1000
0000
0000
0000
,
0010
0000
0000
0000
,
0100
0000
0000
0000
,
0001
0000
0000
0000
,
1001
0000
0000
0000
,
1000
0000
0000
0000
,
1001
0000
0000
0000
,
0001
0000
0000
0000
,
0010
0000
0000
0000
,
0100
0000
0000
0000
,
0100
0000
0000
0000
,
0010
0000
0000
0000
,
0001
0000
0000
0000
,
0100
0000
0000
0000
,
0010
0000
0000
0000
,
1000
0000
0000
0000
,
1000
0000
0000
0000
,
0100
0000
0000
0000
,
0010
0000
0000
0000
,
0001
0000
0000
0000
,
1001
0000
0000
0000
,
1000
0000
0000
0000
,
1001
0000
0000
0000
,
0001
0000
0000
0000
,
0100
0000
0000
0000
,
0100
0000
0000
0000
,
0010
0000
0000
0000
,
0010
0000
0000
0000
,
1000
0000
0000
0000
,
0001
0000
0000
0000
,
1000
0000
0000
0000
,
0100
0000
0000
0000
,
1000
0000
0000
0000
,
0001
0000
0000
0000
,
0010
0000
0000
0000
,
0001
0000
0000
0000
,
1000
0000
0000
0000
,
0000
0000
0000
0000
,
0001
0000
0000
0000
,
0000
0000
0000
0000
,
0100
0000
0000
0000
,
0000
0000
0000
0000
,
0010
0000
0000
0000
,
0000
0000
0000
0000
,
0001
0000
0000
0000
,
1001
0000
0000
0000
,
1000
0000
0000
0000
,
1001
0000
0000
0000
,
0001
0000
0000
0000
,
0010
0000
0000
0000
,
0100
0000
0000
0000
,
0100
0000
0000
0000
,
0100
0000
0000
0000
,
0110
0000
0000
0000
,
0010
0000
0000
0000
,
0110
0000
0000
0000
,
0100
0000
0000
0000
,
0001
0000
0000
0000
,
0010
0000
0000
0000
,
0100
0000
0000
0000
,
1000
0000
0000
0000
,
1000
0000
0000
0000
;

//---------------dance-single - ----------------
#NOTEDATA:;
#CHARTNAME:;
#CHARTHASH:1109310619;
#STEPSTYPE:dance-single;
#BANNER:;
#DESCRIPTION:;
#CHARTSTYLE:;
#DIFFICULTY:Easy;
#METER:3;
#METERF:0.000000;
#LASTSECONDHINT:118.261002;
#RADARVALUES:0.152613,0.225075,0.048929,0.032620,0.000000,131.000000,125.000000,6.000000,4.000000,0.000000,0.000000,0.000000,0.000000,0.000000,0.152613,0.225075,0.048929,0.032620,0.000000,131.000000,125.000000,6.000000,4.000000,0.000000,0.000000,0.000000,0.000000,0.000000;
#CREDIT:;
#NOTES:
0000
0000
0000
0000
,
0000
0000
0000
0000
,
0000
0000
0000
0000
,
0000
0000
0000
0000
,
0000
0000
0000
0000
,
1000
0000
0001
0000
,
0000
1000
0001
0000
,
0100
0000
0010
0000
,
0000
0100
0010
0000
,
0100
0000
0001
0000
,
0000
0100
0001
0000
,
1000
0000
0010
0000
,
0000
1000
0010
0000
,
1001
0000
1000
1000
,
1000
0000
0001
0000
,
0010
0000
0000
0000
,
1000
0000
0001
0000
,
0100
0000
0000
0000
,
0010
0000
0001
0000
,
1000
0000
0000
0000
,
0001
0000
0100
0000
,
1001
0000
0000
0000
,
0001
0000
1000
0000
,
0100
0000
0000
0000
,
1000
0000
0001
0000
,
0010
0000
0000
0000
,
1000
0000
0010
0000
,
0100
0000
0000
0000
,
0001
0000
0100
0000
,
0010
0000
0010
0000
,
1000
0010
1000
0000
,
1000
0000
1000
0000
,
0010
1000
0010
0000
,
0100
0000
0001
0000
,
0100
0001
0100
0000
,
0001
0000
1000
0000
,
0001
1000
0001
0000
,
1001
0000
0001
0000
,
1000
0100
0001
0000
,
0010
0000
1000
0000
,
0100
0001
0010
0000
,
1000
0000
0100
0000
,
0001
0010
1000
0000
,
0100
0001
0010
0000
,
1000
0100
0001
0100
,
0200
0000
0000
0300
,
0020
0000
0000
0030
,
0002
0000
0000
0003
,
2000
0000
0000
3000
,
0001
0000
0001
0000
,
0100
0000
0100
0000
,
0010
0000
0010
0000
,
1000
0000
1000
0000
,
1001
0000
0001
0001
,
0001
0000
1000
0000
,
0100
0000
0000
0000
,
0001
0000
0010
0000
,
0100
0000
0000
0000
,
0100
0000
1000
0000
,
0001
0000
0000
0000
,
1000
0000
0010
0000
,
1001
0000
1000
1000
,
1000
0000
0001
0000
,
0010
0000
0000
0000
,
1000
0000
0001
0000
,
0100
0000
0000
0000
,
0010
0000
0001
0000
,
1000
0000
0000
0000
,
0001
0000
0100
0000
,
1001
0000
0000
0000
;

//---------------dance-single - ----------------
#NOTEDATA:;
#CHARTNAME:;
#CHARTHASH:2147483647;
#STEPSTYPE:dance-single;
#BANNER:;
#DESCRIPTION:;
#CHARTSTYLE:;
#DIFFICULTY:Medium;
#METER:4;
#METERF:0.000000;
#LASTSECONDHINT:118.261002;
#RADARVALUES:0.231832,0.309478,0.073394,0.000000,0.000000,199.000000,190.000000,9.000000,0.000000,0.000000,0.000000,0.000000,0.000000,0.000000,0.231832,0.309478,0.073394,0.000000,0.000000,199.000000,190.000000,9.000000,0.000000,0.000000,0.000000,0.000000,0.000000,0.000000;
#CREDIT:;
#NOTES:
// measure 0
0000
0000
0000
0000
,  // measure 1
0000
0000
0000
0000
,  // measure 2
0000
0000
0000
0000
,  // measure 3
0000
0000
0000
0000
,  // measure 4
0000
0000
0000
0000
,  // measure 5
1000
0000
0000
0100
0000
0000
0010
0000
,  // measure 6
0000
0000
0010
0000
0000
0010
0000
0000
,  // measure 7
0001
0000
0000
0100
0000
0000
0010
0000
,  // measure 8
0000
0000
0010
0000
0000
0010
0000
0000
,  // measure 9
0100
0000
0000
0001
0000
0000
1000
0000
,  // measure 10
0000
0000
1000
0000
0000
1000
0000
0000
,  // measure 11
0100
0000
0000
0010
0000
0000
0001
0000
,  // measure 12
0000
0001
0100
0001
,  // measure 13
0010
0100
1100
0101
,  // measure 14
0001
0100
1000
0000
,  // measure 15
0100
0001
1000
0000
,  // measure 16
0100
0010
0001
0000
,  // measure 17
1000
0000
0000
0001
0000
0000
1000
0000
,  // measure 18
0000
0100
0100
0100
,  // measure 19
0010
0000
0000
0100
0000
0000
0010
0000
,  // measure 20
0001
0001
0001
0000
,  // measure 21
0100
0000
0000
0010
0000
0000
1000
0000
,  // measure 22
0000
0000
1000
0000
0000
0100
0000
0000
,  // measure 23
0010
0000
0000
0001
0000
0000
0100
0000
,  // measure 24
0000
0000
0100
0000
0000
0001
0000
0000
,  // measure 25
0010
0000
0000
0100
0000
0000
1000
0000
,  // measure 26
0000
0000
0100
0000
0000
1000
0000
0000
,  // measure 27
0010
0000
0000
0100
0000
0000
0001
0000
,  // measure 28
0010
0100
1000
1000
,  // measure 29
0010
0000
0000
0100
0000
0000
0001
0000
,  // measure 30
0000
0000
0001
0000
0000
0010
0000
0000
,  // measure 31
0100
0000
0000
1000
0000
0000
0010
0000
,  // measure 32
0000
0000
0010
0000
0000
1000
0000
0000
,  // measure 33
0100
0000
0000
0010
0000
0000
0001
0000
,  // measure 34
0000
0000
0010
0000
0000
0001
0000
0000
,  // measure 35
0100
0000
0000
0010
0000
0000
1000
0000
,  // measure 36
0100
0010
0001
0001
,  // measure 37
1000
0001
0100
0000
,  // measure 38
0010
1000
0001
0000
,  // measure 39
0010
0100
1000
0000
,  // measure 40
0010
0100
0001
0000
,  // measure 41
1000
0001
1000
0000
,  // measure 42
0001
1000
0001
0000
,  // measure 43
1000
0100
0010
0000
,  // measure 44
0001
0010
0100
0000
,  // measure 45
1100
0000
0000
1000
0000
0000
1000
0000
,  // measure 46
0010
0100
0110
0000
,  // measure 47
0001
1000
1001
0000
,  // measure 48
1000
0100
0010
0100
,  // measure 49
1000
0000
0000
1000
0000
0000
0010
0000
,  // measure 50
0000
0000
0010
0000
0000
0010
0000
0000
,  // measure 51
0100
0000
0000
0100
0000
0000
0100
0000
,  // measure 52
0000
0001
0001
0001
,  // measure 53
0010
0100
0101
1100
,  // measure 54
1000
0100
0001
0000
,  // measure 55
0100
1000
0001
0000
,  // measure 56
0100
0010
1000
0000
,  // measure 57
0001
0000
0000
1000
0000
0000
0001
0000
,  // measure 58
0000
0100
0100
0100
,  // measure 59
0010
0000
0000
0100
0000
0000
0010
0000
,  // measure 60
1000
1000
0001
0001
,  // measure 61
0100
0010
1010
0011
,  // measure 62
0001
0010
1000
0000
,  // measure 63
0010
0001
1000
0000
,  // measure 64
0010
0100
0001
0000
,  // measure 65
1000
0000
0000
0001
0000
0000
1000
0000
,  // measure 66
0000
0000
0010
0000
0000
0010
0000
0000
,  // measure 67
0100
0000
0000
0001
0000
0000
0100
0000
,  // measure 68
0010
1000
0100
0001
,  // measure 69
0010
0000
0000
0000
;

//---------------dance-single - ----------------
#NOTEDATA:;
#CHARTNAME:;
#CHARTHASH:628738750;
#STEPSTYPE:dance-single;
#BANNER:;
#DESCRIPTION:;
#CHARTSTYLE:;
#DIFFICULTY:Hard;
#METER:7;
#METERF:0.000000;
#LASTSECONDHINT:120.434914;
#RADARVALUES:0.467158,0.486948,0.277266,0.000000,0.012232,401.000000,367.000000,34.000000,0.000000,0.000000,0.000000,0.000000,0.000000,0.000000,0.467158,0.486948,0.277266,0.000000,0.012232,401.000000,367.000000,34.000000,0.000000,0.000000,0.000000,0.000000,0.000000,0.000000;
#CREDIT:;
#NOTES:
0000
0000
0000
0000
,
0000
0000
0000
0000
,
0000
0000
0000
0000
,
0000
0000
0000
0000
,
0000
0000
0000
0000
,
0010
0000
0100
0001
0000
0100
0010
0000
,
1000
0100
1000
0010
0100
0010
1000
0100
,
1000
0000
0001
0010
0000
0001
0100
0000
,
0001
0100
0001
0010
0100
0010
0001
0100
,
0001
0000
1000
0100
0000
1000
0010
0000
,
1000
0010
1000
0100
0010
0100
1000
0010
,
1000
0000
0010
1000
0000
0010
0100
0000
,
0001
0010
0001
0100
0010
0100
0001
0010
,
1001
0000
0001
1000
1100
0000
1100
0000
,
0001
0010
0100
0000
0010
0100
1000
0100
,
0010
0000
0001
1000
0000
0000
1000
0001
,
0100
0010
1000
0000
0010
0100
0010
0100
,
0001
0000
0010
0100
0000
0100
0010
0000
,
1100
0000
0101
0000
0001
0100
0001
0100
,
0010
0000
0010
1000
0000
1000
0100
0000
,
0011
0000
1010
0000
0010
1000
0100
0010
,
0001
0000
0100
0100
0000
0010
0100
0100
,
0001
1000
0010
0100
0000
0001
0000
0010
,
1000
0000
0010
0010
0000
0100
0010
0010
,
0001
1000
0010
0100
0001
0100
0010
1000
,
0100
0000
0001
0001
0000
0100
1000
1000
,
0010
0100
0001
0000
1000
1000
0100
0010
,
1000
0000
0010
0010
0000
0100
1000
1000
,
0010
0100
0001
1000
0100
0010
0001
0010
,
0001
0000
0010
0100
0010
0000
0001
1000
,
0001
0000
0100
0010
0100
0000
0101
0000
,
0000
0000
0100
0001
0100
0000
0001
0010
,
0001
0000
0000
0010
0000
0000
0100
0000
0010
0000
0000
0000
0110
0000
0000
0000
,
0100
1000
0010
1000
0100
0000
0110
0000
,
1001
0000
0101
0000
0100
0010
0100
0000
,
0100
0001
0010
0001
0100
0000
0110
0000
,
1001
0000
1100
0000
0010
0000
0001
1000
,
0100
0000
0010
0010
0001
0000
1000
0000
,
0001
0000
1000
0010
0000
0000
0100
0000
0001
0000
0000
0000
1000
0000
0000
0000
,
0001
0000
0000
0010
0000
0000
1000
0000
0001
0000
0100
0000
0010
0000
0001
0000
,
1000
0010
1010
0000
0001
0000
0101
0000
,
0001
0100
0010
0100
0001
0000
1000
0010
,
0100
0010
1000
0000
1001
0000
0110
0000
,
0010
0100
1000
0100
0010
0000
1000
0100
,
0010
0100
1000
0000
1100
0000
1010
0000
,
1000
0000
0000
0010
0000
0000
1000
0000
,
0000
0000
0010
0000
0000
0100
0000
0000
,
0001
0000
0000
0010
0000
0000
0100
0000
,
0000
0000
0010
0000
0000
0001
0000
0000
,
1000
0000
0000
0010
0000
0000
0100
0000
,
0000
0000
0010
1000
0010
1000
0100
0010
,
0001
0000
0000
0010
0000
0100
1000
0000
,
0000
0000
1000
0010
0100
0010
1000
0100
,
1001
0000
1000
0001
0011
0000
0011
0000
,
1000
0100
0010
0000
0100
0010
0001
0010
,
0100
0000
1000
0001
0000
0000
0001
1000
,
0010
0100
0001
0000
0100
0010
0100
0010
,
1000
0000
0100
0010
0000
0010
0100
0000
,
0011
0000
1010
0000
1000
0010
1000
0010
,
0100
0000
0100
0001
0000
0001
0010
0000
,
1100
0000
0001
0100
0010
0100
0001
0010
,
1001
0000
0001
1000
1100
0000
1100
0000
,
0001
0010
0100
0000
0010
0100
1000
0100
,
0010
0000
0001
1000
0000
0000
1000
0001
,
0100
0010
1000
0000
0010
0100
0010
0100
,
0001
0000
0010
0100
0000
0100
0010
0000
,
1100
0000
0101
0000
0001
0100
0001
0100
,
0010
0000
0010
1000
0000
1000
0100
0000
,
0011
0000
1010
0000
0010
1000
0100
0010
,
0001
0000
0000
1000
0000
0000
0001
0000
,
0000
0100
0000
0000
;
