#TITLE:Lottery;
#SUBTITLE:;
#ARTIST:Latto feat. LU KALA;
#TITLETRANSLIT:;
#SUBTITLETRANSLIT:;
#ARTISTTRANSLIT:;
#GENRE:;
#CREDIT:;
#BANNER:Lottery.png;
#BACKGROUND:Lottery-bg.png;
#LYRICSPATH:;
#CDTITLE:cdtitle.png;
#MUSIC:Lottery.ogg;
#OFFSET:0.006000;
#SAMPLESTART:42.098999;
#SAMPLELENGTH:12.000000;
#SELECTABLE:YES;
#BPMS:0.000000=114.000000
;
#STOPS:
;
#BGCHANGES:0.000=Lottery.mp4=1.000=1=0=1===CrossFade==,
148.000=Lottery-bg.png=1.000=1=0=1===CrossFade==,
99999=-nosongbg-=1.000=0=0=0 // don't automatically add -songbackground-
;
#KEYSOUNDS:;
#ATTACKS:;

//---------------dance-single - ----------------
#NOTES:
     dance-single:
     :
     Beginner:
     1:
     0.129737,0.154745,0.059747,0.047798,0.000000,76.000000,71.000000,5.000000,4.000000,0.000000,0.000000,0.129737,0.154745,0.059747,0.047798,0.000000,76.000000,71.000000,5.000000,4.000000,0.000000,0.000000:
// measure 0
0000
0000
0000
0000
,  // measure 1
0000
0000
0000
0000
,  // measure 2
0000
0000
0000
0000
,  // measure 3
0000
0000
0000
0000
,  // measure 4
0200
0000
0000
0300
,  // measure 5
0100
0100
0100
0000
,  // measure 6
0020
0000
0000
0030
,  // measure 7
0010
0010
0010
0000
,  // measure 8
2000
0000
0000
3000
,  // measure 9
1000
1000
1000
0000
,  // measure 10
0002
0000
0000
0003
,  // measure 11
0001
0001
0001
0000
,  // measure 12
1001
0000
0000
0000
,  // measure 13
0110
0000
0010
0000
,  // measure 14
0100
0000
0010
0000
,  // measure 15
1000
0000
0001
0000
,  // measure 16
1000
0000
0100
0000
,  // measure 17
0010
0000
0001
0000
,  // measure 18
0001
0000
0010
0000
,  // measure 19
0100
0000
1000
0000
,  // measure 20
1001
0000
0000
0000
,  // measure 21
1000
1000
1000
1000
,  // measure 22
1000
0000
0000
0000
,  // measure 23
0001
0001
0001
0001
,  // measure 24
0001
0000
0000
0000
,  // measure 25
0100
0100
0100
0100
,  // measure 26
0100
0000
0000
0000
,  // measure 27
0010
0010
0010
0010
,  // measure 28
0010
0000
0010
0000
,  // measure 29
1000
0000
0100
0000
,  // measure 30
0001
0000
0010
0000
,  // measure 31
1000
0000
0010
0000
,  // measure 32
0001
0000
0100
0000
,  // measure 33
1000
0000
0100
0000
,  // measure 34
1001
0000
0100
0000
,  // measure 35
1001
0000
0010
0000
,  // measure 36
1000
1000
1000
0000
,  // measure 37
0001
0000
0000
0000
;

//---------------dance-single - ----------------
#NOTES:
     dance-single:
     :
     Easy:
     3:
     0.163878,0.179241,0.083646,0.059747,0.000000,96.000000,89.000000,7.000000,5.000000,0.000000,0.000000,0.163878,0.179241,0.083646,0.059747,0.000000,96.000000,89.000000,7.000000,5.000000,0.000000,0.000000:
0000
0000
0000
0000
,
0000
0000
0000
0000
,
0000
0000
0000
0000
,
0000
0000
0000
0000
,
2000
0010
3010
0000
,
0200
0001
0301
0000
,
0002
0010
0013
0000
,
0200
1000
1300
0000
,
1000
0001
1000
0000
,
0001
1000
0001
0000
,
0100
0010
0100
0000
,
0010
0100
0010
0000
,
0110
0000
0100
0000
,
0110
0000
0010
0000
,
1001
0000
1000
0000
,
1001
0000
0001
0000
,
1000
0100
0010
0001
,
0000
0000
1000
0001
,
0000
0000
0001
1000
,
0000
0000
0000
0000
,
1001
0000
1000
0000
,
0001
1000
0001
1000
,
0100
0000
0010
0000
,
0100
0010
0100
0010
,
0001
0000
0100
0000
,
0001
0100
0001
0100
,
1000
0000
0010
0000
,
0001
0000
0100
0000
,
1001
0000
0001
0000
,
1000
0001
1000
0001
,
0010
0000
0100
0000
,
0010
0100
0010
0100
,
1000
0000
0010
0000
,
1000
0010
1000
0010
,
0001
0000
0100
0000
,
1000
0000
0010
0000
,
1001
1000
0001
0000
,
0200
0300
0100
0000
;

//---------------dance-single - ----------------
#NOTES:
     dance-single:
     :
     Medium:
     4:
     0.198019,0.227039,0.011949,0.274837,0.000000,116.000000,115.000000,1.000000,23.000000,0.000000,0.000000,0.198019,0.227039,0.011949,0.274837,0.000000,116.000000,115.000000,1.000000,23.000000,0.000000,0.000000:
0000
0000
0000
0000
,
0000
0000
0000
0000
,
0000
0000
0000
0000
,
0000
0000
0000
0000
,
0020
0000
0130
0000
0001
1000
0000
0000
,
0002
0000
0013
0000
0100
1000
0000
0000
,
0200
0000
0310
0000
0001
1000
0000
0000
,
0002
0000
0103
0000
0010
1000
0000
0000
,
0020
0000
0130
0000
1000
0001
0000
0000
,
2000
0000
3010
0000
0100
0001
0000
0000
,
0200
0000
0310
0000
1000
0001
0000
0000
,
2000
0000
3100
0000
0010
0001
0000
0000
,
0020
0030
0100
1000
,
0020
0030
1000
0100
,
0010
0001
0100
1000
,
0100
0010
0100
0010
,
2002
0000
3003
0000
1000
0001
1000
0000
,
0000
0000
0000
0000
0001
1000
0001
0000
,
0000
0000
0000
0000
0010
0100
0010
0000
,
0000
0000
0000
0000
0100
0010
0100
0000
,
1000
0010
0100
0010
,
1000
0010
0100
0001
,
2000
3000
0000
0000
,
0001
0010
0100
1000
,
0200
0300
0000
0000
,
0010
0001
1000
0010
,
0200
0000
0300
0000
0010
0000
0100
0010
,
0100
0000
0000
0000
0100
0000
0010
0100
,
0020
0000
0000
0030
,
0010
0100
1000
0001
,
2000
0000
3002
0000
,
1003
0010
0100
0001
,
0020
0000
0230
0000
,
1300
0001
0010
0100
,
2000
0000
0000
0000
3001
0000
1000
0001
,
1000
0000
0000
0000
1000
0000
0001
1000
,
0002
0000
0100
0003
,
0200
0000
0010
0300
,
0010
0000
0000
0000
;

//---------------dance-single - ----------------
#NOTES:
     dance-single:
     :
     Hard:
     6:
     0.416523,0.408671,0.059747,0.000000,0.000000,244.000000,239.000000,5.000000,0.000000,0.000000,0.000000,0.416523,0.408671,0.059747,0.000000,0.000000,244.000000,239.000000,5.000000,0.000000,0.000000,0.000000:
0000
0000
0000
0000
,
0000
0000
0000
0000
,
0000
0000
0000
0000
,
0000
0000
0000
0000
,
1010
0000
0100
0001
0010
0010
0000
0000
,
0100
1000
0010
0100
0001
0001
0000
1000
,
0010
0100
0001
0010
0100
0100
0000
1000
,
0001
0100
0010
1000
0001
0001
1000
1000
,
0001
1000
0010
0100
0001
0001
0010
0100
,
1000
0001
0010
0100
1000
1000
0010
0100
,
0001
1000
1000
0001
0100
0100
0010
1000
,
0001
0010
0100
1000
0001
0001
1000
1000
,
1001
0000
1000
0001
0100
0010
0100
0000
,
0110
0000
0010
0100
0001
1000
0100
0010
,
0100
0100
0100
0000
1000
1000
1000
0000
,
0001
0001
0001
0000
1000
1000
1000
0000
,
1001
0000
0100
0010
0100
0100
0100
0000
,
0010
1000
0001
0010
0100
0100
0100
0000
,
1000
0001
0010
0100
1000
0001
1000
0000
,
0001
1000
0001
1000
1000
0001
0001
0000
,
1001
0000
0100
0010
1000
0010
0010
0100
,
0001
0010
0100
0010
0001
0100
0010
1000
,
0100
0010
0100
1000
0001
1000
1000
0000
,
0001
0100
0010
0100
0001
0010
0100
0010
,
0010
0000
0100
1000
0001
1000
0010
0100
,
0001
0010
0100
1000
0001
1000
0010
0100
,
0001
0000
0100
0000
0010
0010
1000
1000
,
0010
0100
0001
0010
0100
0100
0010
0010
,
0100
1000
0010
1000
0100
0100
0010
0000
,
0001
0100
0010
0100
0001
0001
0100
0000
,
0010
1000
0001
0010
0100
0100
1000
0000
,
0001
0100
0010
1000
0001
0001
0100
0000
,
0010
1000
0001
0010
0100
0100
1000
0000
,
0001
0010
0100
1000
0001
0001
1000
0000
,
0001
1000
0010
0100
0001
0001
0100
0100
,
0010
0100
0001
0010
0100
0100
0010
0010
,
0001
0000
1000
0000
0001
1000
0100
0000
,
0010
0000
0001
0000
1000
0001
0100
0000
,
0010
0000
0000
0000
;
