#VERSION:0.83;
#TITLE:LOOP;
#SUBTITLE:;
#ARTIST:이브 feat. Lil Cherry;
#TITLETRANSLIT:;
#SUBTITLETRANSLIT:;
#ARTISTTRANSLIT:Yves feat. Lil Cherry;
#GENRE:;
#ORIGIN:;
#TAGS:;
#CREDIT:;
#BANNER:LOOP.png;
#BACKGROUND:LOOP-bg.png;
#PREVIEWVID:;
#JACKET:LOOP-jacket.png;
#CDIMAGE:;
#DISCIMAGE:;
#LYRICSPATH:;
#CDTITLE:cdtitle.png;
#MUSIC:LOOP.ogg;
#OFFSET:0.467000;
#SAMPLESTART:45.006001;
#SAMPLELENGTH:12.000000;
#SELECTABLE:YES;
#BPMS:0.000000=127.987000
;
#STOPS:;
#DELAYS:;
#WARPS:;
#TIMESIGNATURES:0.000000=4=4
;
#TICKCOUNTS:0.000000=4
;
#COMBOS:0.000000=1
;
#SPEEDS:0.000000=1.000000=0.000000=0
;
#SCROLLS:0.000000=1.000000
;
#FAKES:;
#LABELS:0.000000=Song Start
;
#BGCHANGES:0.467=LOOP.mp4=1.000=1=0=1===CrossFade==,
225.000=LOOP-bg.png=1.000=1=0=1===CrossFade==,
99999=-nosongbg-=1.000=0=0=0 // don't automatically add -songbackground-
;
#KEYSOUNDS:;
#ATTACKS:
;

//---------------dance-single - ----------------
#NOTEDATA:;
#CHARTNAME:;
#CHARTHASH:954445454;
#STEPSTYPE:dance-single;
#BANNER:;
#DESCRIPTION:;
#CHARTSTYLE:;
#DIFFICULTY:Beginner;
#METER:1;
#METERF:0.000000;
#LASTSECONDHINT:104.543663;
#RADARVALUES:0.077288,0.130590,0.046639,0.000000,0.000000,58.000000,53.000000,5.000000,0.000000,0.000000,0.000000,0.000000,0.000000,0.000000,0.077288,0.130590,0.046639,0.000000,0.000000,58.000000,53.000000,5.000000,0.000000,0.000000,0.000000,0.000000,0.000000,0.000000;
#CREDIT:;
#NOTES:
// measure 0
0000
0000
0000
0000
,  // measure 1
0000
0000
0000
0000
,  // measure 2
0000
0000
0000
0000
,  // measure 3
0000
0000
0000
0000
,  // measure 4
1000
0000
0000
0000
,  // measure 5
0100
0000
0000
0000
,  // measure 6
0010
0000
0000
0000
,  // measure 7
0001
0000
0000
0000
,  // measure 8
1001
0000
0000
0000
,  // measure 9
0100
0000
0000
0000
,  // measure 10
0010
0000
0000
0000
,  // measure 11
0100
0000
0000
0000
,  // measure 12
1001
0000
0000
0000
,  // measure 13
0010
0000
0000
0000
,  // measure 14
0100
0000
0000
0000
,  // measure 15
0010
0000
0000
0000
,  // measure 16
0010
0000
0000
0000
,  // measure 17
0010
0000
0000
0000
,  // measure 18
0001
0000
0000
0000
,  // measure 19
0001
0000
0000
0000
,  // measure 20
1000
0000
0000
0000
,  // measure 21
1000
0000
0000
0000
,  // measure 22
0010
0000
0000
0000
,  // measure 23
0010
0000
0000
0000
,  // measure 24
0100
0000
0000
0000
,  // measure 25
0001
0000
0000
0000
,  // measure 26
0010
0000
0000
0000
,  // measure 27
1000
0000
0000
0000
,  // measure 28
0100
0000
0000
0000
,  // measure 29
0001
0000
0000
0000
,  // measure 30
0010
0000
0000
0000
,  // measure 31
1000
0000
0000
0000
,  // measure 32
1001
0000
0000
0000
,  // measure 33
0100
0000
0000
0000
,  // measure 34
1001
0000
0000
0000
,  // measure 35
0010
0000
0000
0000
,  // measure 36
1000
0000
0000
0000
,  // measure 37
0001
0000
0000
0000
,  // measure 38
0010
0000
0000
0000
,  // measure 39
0100
0000
0000
0000
,  // measure 40
1000
0000
0000
0000
,  // measure 41
1000
0000
0000
0000
,  // measure 42
0001
0000
0000
0000
,  // measure 43
0001
0000
0000
0000
,  // measure 44
0100
0000
0000
0000
,  // measure 45
0100
0000
0000
0000
,  // measure 46
0010
0000
0000
0000
,  // measure 47
0010
0000
0000
0000
,  // measure 48
0010
0000
0000
0000
,  // measure 49
1000
0000
0000
0000
,  // measure 50
0010
0000
0000
0000
,  // measure 51
0001
0000
0000
0000
,  // measure 52
0010
0000
0000
0000
,  // measure 53
0100
0000
0000
0000
,  // measure 54
1000
0000
0000
0000
,  // measure 55
0001
0000
0000
0000
,  // measure 56
1001
0000
0000
0000
;

//---------------dance-single - ----------------
#NOTEDATA:;
#CHARTNAME:;
#CHARTHASH:639221419;
#STEPSTYPE:dance-single;
#BANNER:;
#DESCRIPTION:;
#CHARTSTYLE:;
#DIFFICULTY:Easy;
#METER:3;
#METERF:0.000000;
#LASTSECONDHINT:104.543663;
#RADARVALUES:0.197217,0.235061,0.074623,0.223868,0.000000,148.000000,140.000000,8.000000,24.000000,0.000000,0.000000,0.000000,0.000000,0.000000,0.197217,0.235061,0.074623,0.223868,0.000000,148.000000,140.000000,8.000000,24.000000,0.000000,0.000000,0.000000,0.000000,0.000000;
#CREDIT:;
#NOTES:
// measure 0
0000
0000
0000
0000
,  // measure 1
0000
0000
0000
0000
,  // measure 2
0000
0000
0000
0000
,  // measure 3
0000
0000
0000
0000
,  // measure 4
2000
3000
0002
0003
,  // measure 5
0100
0000
0100
0000
,  // measure 6
0020
0030
2000
3000
,  // measure 7
1001
0000
0000
0000
,  // measure 8
2002
0000
0000
3003
,  // measure 9
1000
0001
0100
0000
,  // measure 10
0010
0000
1000
0000
,  // measure 11
0100
0100
0010
0010
,  // measure 12
0001
0100
0001
0100
,  // measure 13
0001
0000
1000
0000
,  // measure 14
0100
0010
0100
0010
,  // measure 15
0100
0100
0100
0000
,  // measure 16
0020
0030
0020
0030
,  // measure 17
0001
0001
1000
1000
,  // measure 18
0002
0003
0002
0003
,  // measure 19
0100
0100
0010
0010
,  // measure 20
2000
3000
2000
3000
,  // measure 21
0100
0100
0010
0010
,  // measure 22
0200
0300
0200
0300
,  // measure 23
0010
0010
0001
0001
,  // measure 24
0100
0000
0001
0000
,  // measure 25
1000
0000
0010
0000
,  // measure 26
1000
0000
0100
0000
,  // measure 27
0001
0000
0010
0000
,  // measure 28
1000
0000
0001
0000
,  // measure 29
0010
0000
0100
0000
,  // measure 30
1000
0000
0001
0000
,  // measure 31
1000
1000
0001
0001
,  // measure 32
1001
0000
0000
0000
,  // measure 33
0110
0000
0000
0000
,  // measure 34
1001
0000
0000
0000
,  // measure 35
0110
0000
0000
0000
,  // measure 36
1000
1000
1000
1000
,  // measure 37
0001
0001
0001
0001
,  // measure 38
0010
0010
0010
0010
,  // measure 39
0100
0100
0100
0100
,  // measure 40
0200
0300
0200
0300
,  // measure 41
1000
1000
0001
0001
,  // measure 42
2000
3000
2000
3000
,  // measure 43
0010
0010
0100
0100
,  // measure 44
0002
0003
0002
0003
,  // measure 45
0010
0010
0100
0100
,  // measure 46
0020
0030
0020
0030
,  // measure 47
0100
0100
1000
1000
,  // measure 48
2002
0000
0000
3003
,  // measure 49
0001
1000
0010
0000
,  // measure 50
0100
0000
0001
0000
,  // measure 51
0010
0010
0100
0100
,  // measure 52
1000
0010
1000
0010
,  // measure 53
1000
0000
0001
0000
,  // measure 54
0010
0100
0010
0100
,  // measure 55
0010
0010
0010
0000
,  // measure 56
0110
0000
0000
0000
;

//---------------dance-single - ----------------
#NOTEDATA:;
#CHARTNAME:;
#CHARTHASH:2457338475;
#STEPSTYPE:dance-single;
#BANNER:;
#DESCRIPTION:;
#CHARTSTYLE:;
#DIFFICULTY:Medium;
#METER:6;
#METERF:6.000000;
#LASTSECONDHINT:105.012459;
#RADARVALUES:0.319812,0.367284,0.186557,0.233196,0.051303,240.000000,220.000000,20.000000,25.000000,0.000000,0.000000,0.000000,0.000000,0.000000,0.319812,0.367284,0.186557,0.233196,0.051303,240.000000,220.000000,20.000000,25.000000,0.000000,0.000000,0.000000,0.000000,0.000000;
#CREDIT:;
#NOTES:
// measure 0
0000
0000
0000
0000
,  // measure 1
0000
0000
0000
0000
,  // measure 2
0000
0000
0000
0000
,  // measure 3
0000
0000
0000
0000
,  // measure 4
0000
0000
0000
1000
0000
0100
0000
1000
,  // measure 5
0000
0010
0000
0100
0000
0001
0000
0010
,  // measure 6
0000
0001
0000
0100
0000
0010
0000
1000
,  // measure 7
0000
0001
1000
0000
0000
0000
0000
0000
,  // measure 8
0000
0000
0100
0010
0100
0010
0000
0000
,  // measure 9
0000
0010
0100
1100
,  // measure 10
0101
0100
0001
0000
,  // measure 11
0001
0100
0110
0010
,  // measure 12
1010
1000
0010
0001
,  // measure 13
0100
1000
0100
0001
,  // measure 14
0010
0000
1000
0001
1000
0000
0001
1000
,  // measure 15
0001
1001
1100
0101
,  // measure 16
0000
0000
0000
0000
0010
0000
0000
0000
0010
0000
0000
0010
0000
0000
0010
0000
,  // measure 17
0000
0010
0000
0000
0100
0000
0000
0000
0100
0000
0000
0100
0000
0000
0100
0000
,  // measure 18
0000
0100
0000
0000
0001
0000
0000
0000
0001
0000
0000
0001
0000
0000
0001
0000
,  // measure 19
0000
0001
0000
0000
1000
0000
0000
0000
1000
0000
0000
1000
0000
0000
1000
0000
,  // measure 20
0000
1000
0001
0010
,  // measure 21
0100
0000
1000
0100
1000
0000
0001
0100
,  // measure 22
0001
0000
0100
0000
0010
0000
1000
0001
,  // measure 23
1000
0000
0100
0000
0010
0000
0001
1000
,  // measure 24
0001
1002
0023
0032
,  // measure 25
0023
0230
2300
3002
,  // measure 26
0003
0100
2001
0000
3020
0000
2030
0000
,  // measure 27
3200
0320
0032
0203
,  // measure 28
0300
0210
0302
2003
,  // measure 29
3020
0230
0302
0023
,  // measure 30
0030
0001
0210
0000
0320
0000
0032
0000
,  // measure 31
0203
0000
0000
0000
0310
0000
0000
0010
0000
0000
0100
0000
0000
0100
0000
0000
,  // measure 32
0010
0010
0100
0000
0001
0000
0010
0010
,  // measure 33
0010
0000
0100
0000
1000
0000
0010
0010
,  // measure 34
0010
0100
0001
1000
,  // measure 35
0100
0010
0001
1000
,  // measure 36
0010
0000
0100
0001
0100
0000
0010
0000
,  // measure 37
1000
0000
0001
0010
0001
0000
0010
0000
,  // measure 38
0100
0000
1000
0001
1000
0000
0001
1000
,  // measure 39
0001
0000
0000
0000
0001
0000
0000
0001
0000
0000
1000
0000
0000
1000
0000
0000
,  // measure 40
0010
1000
0010
0001
,  // measure 41
0010
0100
1100
0000
,  // measure 42
0100
0001
0100
1000
,  // measure 43
0100
0010
0010
0100
,  // measure 44
0010
0001
0010
1000
,  // measure 45
0010
0100
0101
0000
,  // measure 46
0100
0001
0100
1000
,  // measure 47
0100
0010
0010
0100
,  // measure 48
0100
0000
0010
0100
0010
0100
0000
0000
,  // measure 49
0000
0100
0010
0011
,  // measure 50
1010
0010
1000
0000
,  // measure 51
1000
0010
0110
0100
,  // measure 52
0101
0001
0100
1000
,  // measure 53
0010
0001
0010
1000
,  // measure 54
0100
0000
0001
1000
0001
0000
1000
0001
,  // measure 55
1000
1001
0011
1010
,  // measure 56
1000
0010
0000
0000
;

//---------------dance-single - ----------------
#NOTEDATA:;
#CHARTNAME:;
#CHARTHASH:294907767;
#STEPSTYPE:dance-single;
#BANNER:;
#DESCRIPTION:;
#CHARTSTYLE:;
#DIFFICULTY:Hard;
#METER:8;
#METERF:0.000000;
#LASTSECONDHINT:105.012459;
#RADARVALUES:0.465059,0.498456,0.158573,0.242524,0.186557,349.000000,332.000000,17.000000,26.000000,0.000000,0.000000,0.000000,0.000000,0.000000,0.465059,0.498456,0.158573,0.242524,0.186557,349.000000,332.000000,17.000000,26.000000,0.000000,0.000000,0.000000,0.000000,0.000000;
#CREDIT:;
#NOTES:
// measure 0
0000
0000
0000
0000
,  // measure 1
0000
0000
0000
0000
,  // measure 2
0000
0000
0000
0000
,  // measure 3
0000
0000
0000
0000
,  // measure 4
0000
0000
0000
0000
0001
0000
0100
0000
0000
0000
0100
0000
0001
0000
0000
0100
,  // measure 5
0000
0000
0010
0000
0100
0000
0001
0010
0000
0000
0100
0000
1000
0000
0000
0000
,  // measure 6
1001
0000
0000
0000
1000
0000
0100
0000
0000
0000
0000
0000
0100
0000
1000
0100
,  // measure 7
0000
0100
0010
0001
1000
0010
0200
0000
,  // measure 8
0320
0000
0130
0001
0100
0001
0000
0001
,  // measure 9
0100
0100
0001
0010
0100
1000
0020
0000
,  // measure 10
0230
0000
0301
0000
1000
0000
0000
0001
,  // measure 11
1000
0000
1000
0000
0001
1000
0000
0000
1000
0100
0000
0000
0100
0000
0010
0000
,  // measure 12
0010
0010
0001
0010
0001
1000
0100
0001
,  // measure 13
0100
1000
0010
0100
0001
1000
0001
0100
,  // measure 14
0101
0000
0000
0000
0001
0000
1000
0100
0000
1000
0000
0000
0010
0000
0100
0001
,  // measure 15
0000
0010
0001
0000
1001
0000
0000
0000
1001
0000
0000
0000
0110
0000
0000
0000
,  // measure 16
0010
0000
0000
0000
1000
0000
0000
0000
1000
0000
0000
0100
0000
0000
0010
0000
,  // measure 17
0000
0100
0000
0000
1000
0000
0000
0000
0010
0000
0000
0100
0000
0000
0010
0000
,  // measure 18
0000
0100
0000
0000
0001
0000
0000
0000
0001
0000
0000
0100
0000
0000
0010
0000
,  // measure 19
0000
0100
0000
0000
0001
0000
0000
0000
1000
0000
0000
0001
0000
0000
1000
0000
,  // measure 20
0000
0000
0001
0010
0100
0000
0010
0100
,  // measure 21
1000
0000
0000
0000
0010
0000
0100
0000
0001
1000
0000
0000
0100
0000
0010
0000
,  // measure 22
0001
1000
0000
0000
1200
0000
0000
0000
0010
0000
0000
0000
0001
0000
0000
0000
,  // measure 23
0310
0001
0201
0000
1000
0000
0001
0000
,  // measure 24
0310
0000
1002
0000
0023
0000
0031
0010
,  // measure 25
0001
0100
0002
0000
2003
0000
3002
0000
,  // measure 26
0003
0100
2001
0000
3020
0000
1030
0010
,  // measure 27
1000
0100
2000
0000
3002
0000
0203
0000
,  // measure 28
0300
0000
0210
0000
0302
0000
1003
0010
,  // measure 29
1000
0100
2000
0000
3002
0000
0023
0000
,  // measure 30
0030
0001
0210
0000
0320
0000
0031
0010
,  // measure 31
0001
0000
0100
0000
0010
1000
0000
0010
1000
0000
0001
0100
0000
0001
0100
0000
,  // measure 32
0020
0000
0130
0000
0010
0000
0000
0100
0000
0000
0001
0000
0010
0000
0000
0010
,  // measure 33
0000
0000
0010
0000
0100
0000
0000
1000
0000
0000
0010
0000
0100
0000
0100
0010
,  // measure 34
0100
0000
0100
0000
0010
0000
0000
1000
0000
0000
0001
0000
0010
0000
0000
0100
,  // measure 35
0000
0000
0010
0000
0001
0000
0000
0100
0000
0000
0010
0000
1000
0000
0001
1000
,  // measure 36
0001
1000
0100
0001
0100
1000
0100
0001
,  // measure 37
0100
1000
0010
0001
0010
1000
0010
0001
,  // measure 38
0010
1000
0100
0010
0001
0100
0010
0100
,  // measure 39
0001
0000
1000
0000
0001
1000
0000
0001
1000
0000
0010
0100
0000
0010
0100
0000
,  // measure 40
0010
0010
1000
0000
0010
0010
0001
0000
,  // measure 41
0010
0100
1100
0000
0101
0000
0000
0001
,  // measure 42
0100
0100
1000
0000
0100
0100
0001
0000
,  // measure 43
0100
0010
1000
1000
1000
1000
0000
0001
,  // measure 44
1000
0001
0010
0010
1000
0000
0010
0010
,  // measure 45
0001
0000
0010
0100
1000
0000
0010
0100
,  // measure 46
0001
0001
0100
0100
1000
0000
0100
0100
,  // measure 47
0001
0000
0100
0010
1000
0100
0010
0001
,  // measure 48
1000
0000
0010
1000
0010
1000
0000
1000
,  // measure 49
0010
0010
1000
0100
0010
0001
0200
0000
,  // measure 50
0320
0000
1030
0000
0001
0000
0000
1000
,  // measure 51
0001
0000
0001
0000
1000
0001
0000
0000
0001
0010
0000
0000
0010
0000
0100
0000
,  // measure 52
0100
0100
1000
0100
1000
0001
0010
1000
,  // measure 53
0010
0001
0100
0010
1000
0001
1000
0010
,  // measure 54
1010
0000
0000
0000
1000
0000
0001
0010
0000
0001
0000
0000
0100
0000
0010
1000
,  // measure 55
0000
0100
1000
0000
1001
0000
0000
0000
1001
0000
0000
0000
0110
0000
0000
0000
,  // measure 56
0100
0010
0000
0000
;
