#TITLE:JOYRIDE;
#SUBTITLE:;
#ARTIST:Kesha;
#MUSIC:JOYRIDE.ogg;
#BANNER:;
#BACKGROUND:JOYRIDE-bg.png;
#LYRICSPATH:;
#CDTITLE:cdtitle.png;
#SAMPLESTART:41.373001;
#SAMPLELENGTH:12.000000;
#BPMS:0.000=116.017,
58.000=232.034,
59.000=116.017,
62.000=58.008,
70.000=116.017
;
#STOPS:58.000=1.293;
#TIMESIGNATURES:0.000=4=4;
#BGCHANGES:0=JOYRIDE.mp4=1.000=1=0=1===CrossFade==,
164=JOYRIDE-bg.png=1.000=1=0=1===CrossFade==,
99999=-nosongbg-=1.000=0=0=0=====
;
#FGCHANGES:;
#ATTACKS:;
#TAGS:;
#PREVIEWVID:;
#KEYSOUNDS:;

//---------------dance-single - ---------------
#NOTES:
     dance-single:
     :
     Beginner:
     1:
     0.125426,0.177791,0.098773,0.043899,0.000000,80.000000,71.000000,9.000000,4.000000,0.000000,0.000000,0.000000,0.000000,0.000000,0.125426,0.177791,0.098773,0.043899,0.000000,80.000000,71.000000,9.000000,4.000000,0.000000,0.000000,0.000000,0.000000,0.000000:
// measure 0
0000
0000
0000
0000
,  // measure 1
0000
0000
0000
0000
,  // measure 2
0000
0000
0000
0000
,  // measure 3
0000
0000
0000
0000
,  // measure 4
0010
0000
0000
0000
,  // measure 5
0110
0000
0000
0000
,  // measure 6
0100
0000
0000
0000
,  // measure 7
0110
0000
0000
0000
,  // measure 8
0001
0000
0000
0000
,  // measure 9
1001
0000
0000
0000
,  // measure 10
1000
0000
0000
0000
,  // measure 11
1001
0000
0000
0000
,  // measure 12
1000
0000
0010
0000
,  // measure 13
1000
0000
0000
0000
,  // measure 14
0001
0000
0000
0000
,  // measure 15
0000
0000
0000
0000
0100
0000
0000
0100
,  // measure 16
0000
0000
0000
0000
0010
0000
0000
0010
,  // measure 17
0000
0000
1000
1000
,  // measure 18
1000
0000
0001
0001
,  // measure 19
0001
0000
1001
0000
,  // measure 20
1001
0000
0100
0100
,  // measure 21
0100
0000
0010
0010
,  // measure 22
0010
0000
0100
0100
,  // measure 23
0100
0000
0001
0001
,  // measure 24
0001
0000
1001
0000
,  // measure 25
1001
0000
1000
0000
,  // measure 26
1000
0000
2000
0000
,  // measure 27
0000
3000
0001
0000
,  // measure 28
0001
0000
0002
0000
,  // measure 29
0000
0003
0100
0000
,  // measure 30
0100
0000
0200
0000
,  // measure 31
0000
0300
0010
0000
,  // measure 32
0010
0000
0020
0000
,  // measure 33
0000
0030
0010
0010
,  // measure 34
0010
0000
0100
0100
,  // measure 35
0100
0000
0010
0010
,  // measure 36
0010
0000
0100
0000
,  // measure 37
0110
0000
1000
1000
,  // measure 38
1000
0000
0001
0001
,  // measure 39
0001
0000
1000
1000
,  // measure 40
1000
0000
1000
0000
;

//---------------dance-single - ---------------
#NOTES:
     dance-single:
     :
     Easy:
     3:
     0,0,0,0,0:
// measure 0
0000
0000
0000
0000
,  // measure 1
0000
0000
0000
0000
,  // measure 2
0000
0000
0000
0000
,  // measure 3
0000
0000
0000
1000
,  // measure 4
1100
0000
0000
0001
,  // measure 5
0101
0000
0000
1000
,  // measure 6
1010
0000
0010
0100
,  // measure 7
0002
0003
0000
0010
,  // measure 8
0110
0000
0000
0010
,  // measure 9
0011
0000
0000
0100
,  // measure 10
0010
1000
0100
0110
,  // measure 11
0100
0010
0001
1001
,  // measure 12
1000
0001
0010
0000
,  // measure 13
1000
0100
0001
0000
,  // measure 14
0010
1000
0010
0100
,  // measure 15
0100
0000
0100
0000
0200
0300
0000
0200
,  // measure 16
0300
0010
1000
0001
2000
3000
0000
0002
,  // measure 17
0003
1000
0001
1000
0001
0000
0010
0000
,  // measure 18
0100
1000
0001
0010
,  // measure 19
0100
0000
1000
0000
0000
1000
0001
0000
,  // measure 20
1000
1001
0001
1000
,  // measure 21
0010
0110
0100
0010
,  // measure 22
1000
0001
0100
0010
,  // measure 23
1000
0000
0001
0000
0000
1000
0001
0000
,  // measure 24
1000
1001
0001
1000
,  // measure 25
0100
0110
0010
0001
,  // measure 26
0100
0100
0010
1000
,  // measure 27
0100
0100
0010
0010
,  // measure 28
0001
1000
0010
0010
,  // measure 29
1000
0001
0001
0011
,  // measure 30
0010
0100
1000
1100
,  // measure 31
0100
1000
0001
1001
,  // measure 32
1000
1001
0220
0000
,  // measure 33
0000
0330
0100
0000
,  // measure 34
0100
0000
0100
0100
,  // measure 35
0001
0001
0010
0000
,  // measure 36
0010
0000
1000
0100
,  // measure 37
0001
0010
1000
0000
,  // measure 38
0001
0000
1000
0010
,  // measure 39
0001
0100
1000
0000
,  // measure 40
0001
0000
0100
0010
,  // measure 41
0100
0000
0000
0000
;

//---------------dance-single - ---------------
#NOTES:
     dance-single:
     :
     Medium:
     5:
     0,0,0,0,0:
// measure 0
0000
0000
0000
0000
,  // measure 1
0000
0000
0000
0000
,  // measure 2
0000
0000
0000
0000
,  // measure 3
0000
0000
0000
0000
,  // measure 4
2000
0000
3002
0000
1003
0100
0020
0000
,  // measure 5
0032
0000
2003
0000
3001
0100
0020
0000
,  // measure 6
0230
0000
0302
0000
0013
0100
1000
0000
,  // measure 7
2001
0001
0100
3010
,  // measure 8
0020
0000
0230
0000
0301
0010
0200
0000
,  // measure 9
2300
0000
3002
0000
0103
0010
2000
0000
,  // measure 10
3001
0000
0011
0000
0100
0100
0100
0000
,  // measure 11
1000
0000
0000
0001
0000
0000
1000
0000
0010
0000
0000
0000
0110
0000
0000
0000
,  // measure 12
0200
0001
0010
1300
,  // measure 13
0020
0001
0100
1030
,  // measure 14
2000
0001
3100
0100
,  // measure 15
0100
0000
0000
0000
0010
0000
0000
0000
0010
0000
0010
0000
0000
0000
0010
0010
,  // measure 16
0000
0000
0100
0000
1000
0000
1000
0000
0010
0000
0010
0000
0000
0000
0010
0010
,  // measure 17
0000
0100
0010
0100
0010
0000
1001
0000
,  // measure 18
1000
1000
1000
0000
0001
0000
0011
0000
,  // measure 19
0010
0010
0010
0000
0000
0100
0100
0000
,  // measure 20
0010
0001
1000
1100
,  // measure 21
0001
0101
0110
1001
,  // measure 22
0001
0001
0001
0000
1000
0000
1100
0000
,  // measure 23
0100
0100
0100
0000
0000
0010
0010
0000
,  // measure 24
0100
1000
0001
0011
,  // measure 25
1000
1010
1000
0100
,  // measure 26
0010
0000
0001
0000
1000
0010
1000
0000
,  // measure 27
0001
0100
0001
0000
0100
0000
0010
0000
,  // measure 28
1000
0000
0001
0000
0001
0010
0001
0000
,  // measure 29
0001
1000
0001
0000
1000
0000
0010
0000
,  // measure 30
0100
0000
0001
0000
1000
0100
1000
0000
,  // measure 31
0010
0001
0010
0000
0001
0000
0100
0000
,  // measure 32
0001
0010
0200
0010
,  // measure 33
0001
0000
0310
0000
0001
0000
1000
0001
,  // measure 34
0000
0001
1000
0000
0010
0000
0100
0010
,  // measure 35
0000
0010
0100
0000
0001
0000
0010
0100
,  // measure 36
0000
0100
0010
0000
0001
0000
1000
0010
,  // measure 37
0000
0010
1000
0000
1000
0000
0001
1000
,  // measure 38
0000
1000
0001
0000
0100
0000
0010
0100
,  // measure 39
0000
0100
0010
0000
1000
0000
0100
0010
,  // measure 40
0000
0010
0100
0000
1000
0000
0001
0100
,  // measure 41
0000
0010
1000
0000
0000
0000
0000
0000
;

//---------------dance-single - ---------------
#NOTES:
     dance-single:
     :
     Hard:
     8:
     0,0,0,0,0:
// measure 0
0000
0000
0000
0000
,  // measure 1
0000
0000
0000
0000
,  // measure 2
0000
0000
0000
0000
,  // measure 3
0000
0000
0000
0000
0000
1000
0010
0100
,  // measure 4
0001
0010
0100
0000
0010
0100
1000
0001
,  // measure 5
1001
0000
0100
0000
0010
0100
0001
0100
,  // measure 6
0010
0000
0100
0001
1000
0010
0100
0001
,  // measure 7
0101
0000
0000
0001
1001
1000
1001
0010
,  // measure 8
0100
1000
0001
0000
1000
0010
0100
0001
,  // measure 9
0010
0000
1001
0000
1000
0001
0001
0001
,  // measure 10
0010
0000
0100
0010
0001
1000
0001
0000
1000
0000
0010
0000
0100
0000
0001
0000
,  // measure 11
0101
0000
0000
1001
0000
0000
1100
0000
1000
0000
0001
0000
0100
0010
0000
0000
,  // measure 12
0110
0000
0101
0000
1000
0100
0010
0100
,  // measure 13
1100
0000
1010
0000
0110
0000
0101
0010
,  // measure 14
0010
0000
0100
1000
0000
0000
0001
1000
,  // measure 15
0001
0000
1000
0000
0001
0000
1000
0000
1001
0000
2002
0000
3003
0000
0110
0220
,  // measure 16
0330
0000
0010
1000
0100
0010
0001
0010
0110
0000
0100
0000
1100
0000
1000
0000
,  // measure 17
1010
0000
0000
1000
0010
0000
1000
0000
0001
0100
0001
0100
0001
0100
0001
0100
0001
0000
0000
0000
0010
0000
0100
0000
0000
0000
1000
0000
0001
0000
1000
0000
,  // measure 18
0001
0000
1000
0000
2020
0000
3030
0000
0100
0000
0001
0010
0000
0100
0010
0001
,  // measure 19
0010
0100
2200
3300
0000
1001
1001
1000
,  // measure 20
0001
0000
0101
0000
0101
0000
0000
0000
0100
0010
0000
0100
0000
0001
0010
0100
,  // measure 21
1000
0000
1001
0000
2002
0000
3003
0000
1000
0000
0100
0010
0000
0001
1000
0001
,  // measure 22
1000
0000
0010
0000
0220
0000
0330
0000
0001
0000
0100
0010
0000
1000
0100
0010
,  // measure 23
0001
0010
0022
0033
0000
1001
1001
0001
,  // measure 24
1000
0000
1100
0000
1100
0000
0010
0000
0001
0100
0000
0010
0000
1000
0100
0010
,  // measure 25
0001
1001
2002
3003
1000
0010
0100
0010
,  // measure 26
1000
0000
0001
0000
1000
0100
1000
0100
1000
0000
0010
0000
0010
0000
0100
0000
,  // measure 27
0001
0010
0220
0330
0100
1000
0001
0010
,  // measure 28
0100
0000
1000
0000
0010
1000
0010
1000
0010
0000
0100
0000
0202
0000
0303
0000
,  // measure 29
0001
0010
0022
0033
0001
0100
0010
0100
,  // measure 30
0001
0000
1000
0000
0001
0010
0001
0010
0001
0000
0100
0000
0100
0000
0010
0000
,  // measure 31
1000
0100
0220
0330
0010
0001
0010
0010
,  // measure 32
0100
1000
0010
0100
0010
0010
2020
3030
,  // measure 33
1000
0000
0001
0000
0202
0000
0303
0000
0001
0000
0000
1000
0000
0001
1000
0000
,  // measure 34
0000
1000
0001
0000
2002
0000
3003
0000
0010
0000
0100
0010
0000
0010
0100
0000
,  // measure 35
0001
0000
0010
0000
0100
0000
0100
0000
1000
0000
0000
0001
0000
1000
0001
0000
,  // measure 36
0000
0001
1000
0000
2002
0000
3003
0000
0100
0000
0010
0100
0000
0100
0010
0000
,  // measure 37
1000
0000
0100
0000
0010
0000
0010
0000
0100
0000
0000
0010
0000
0100
0010
0000
,  // measure 38
0000
0010
0100
0000
0220
0000
0330
0000
0100
0000
1000
0010
0000
0010
1000
0000
,  // measure 39
0001
0000
0100
0000
0101
0000
0101
0000
0001
0000
0000
1000
0000
0100
0010
0000
,  // measure 40
0000
0010
0100
0000
0220
0000
0330
0000
0100
1000
0000
0100
0000
0010
0001
1000
,  // measure 41
0000
1001
2002
3003
0000
0000
0000
0000
;
