#VERSION:0.83;
#TITLE:I'm Feeling You;
#SUBTITLE:;
#ARTIST:capsule;
#TITLETRANSLIT:;
#SUBTITLETRANSLIT:;
#ARTISTTRANSLIT:;
#GENRE:Electropop;
#ORIGIN:;
#TAGS:;
#CREDIT:chewi;
#BANNER:I'm Feeling You.png;
#BACKGROUND:I'm Feeling You-bg.png;
#PREVIEWVID:;
#JACKET:I'm Feeling You-jacket.png;
#CDIMAGE:;
#DISCIMAGE:;
#LYRICSPATH:;
#CDTITLE:cdtitle.png;
#MUSIC:I'm Feeling You.ogg;
#OFFSET:0.000000;
#SAMPLESTART:74.172997;
#SAMPLELENGTH:12.000000;
#SELECTABLE:YES;
#BPMS:0.000000=126.999992
;
#STOPS:;
#DELAYS:;
#WARPS:;
#TIMESIGNATURES:0.000000=4=4
;
#TICKCOUNTS:0.000000=4
;
#COMBOS:0.000000=1
;
#SPEEDS:0.000000=1.000000=0.000000=0
;
#SCROLLS:0.000000=1.000000
;
#FAKES:;
#LABELS:0.000000=Song Start
;
#BGCHANGES:;
#KEYSOUNDS:;
#ATTACKS:
;

//---------------dance-single - chewi----------------
#NOTEDATA:;
#CHARTNAME:chewi;
#CHARTHASH:2147483647;
#STEPSTYPE:dance-single;
#BANNER:;
#DESCRIPTION:chewi;
#CHARTSTYLE:;
#DIFFICULTY:Beginner;
#METER:1;
#METERF:0.000000;
#LASTSECONDHINT:124.724419;
#RADARVALUES:0.071215,0.078337,0.000000,0.000000,0.000000,63.000000,63.000000,0.000000,0.000000,0.000000,0.000000,0.000000,0.000000,0.000000,0.071215,0.078337,0.000000,0.000000,0.000000,63.000000,63.000000,0.000000,0.000000,0.000000,0.000000,0.000000,0.000000,0.000000;
#CREDIT:chewi;
#NOTES:
// measure 0
0000
0000
0000
0000
,  // measure 1
0000
0000
0000
0000
,  // measure 2
0000
0000
0000
0000
,  // measure 3
0000
0000
0000
0000
,  // measure 4
1000
0000
0000
0000
,  // measure 5
0100
0000
0000
0000
,  // measure 6
0010
0000
0000
0000
,  // measure 7
0001
0000
0000
0000
,  // measure 8
1000
0000
0000
0000
,  // measure 9
1000
0000
0000
0000
,  // measure 10
0001
0000
0000
0000
,  // measure 11
0001
0000
0000
0000
,  // measure 12
0100
0000
0000
0000
,  // measure 13
0100
0000
0000
0000
,  // measure 14
0010
0000
0000
0000
,  // measure 15
0010
0000
0000
0000
,  // measure 16
0010
0000
0000
0000
,  // measure 17
1000
0000
0000
0000
,  // measure 18
0001
0000
0000
0000
,  // measure 19
0010
0000
0000
0000
,  // measure 20
0100
0000
0000
0000
,  // measure 21
1000
0000
0000
0000
,  // measure 22
0001
0000
0000
0000
,  // measure 23
1000
0000
0000
0000
,  // measure 24
0001
0000
0000
0000
,  // measure 25
0100
0000
0000
0000
,  // measure 26
0010
0000
0000
0000
,  // measure 27
1000
0000
0000
0000
,  // measure 28
0001
0000
0000
0000
,  // measure 29
0010
0000
0000
0000
,  // measure 30
0100
0000
0000
0000
,  // measure 31
1000
0000
0000
0000
,  // measure 32
1000
0000
0000
0000
,  // measure 33
0001
0000
0000
0000
,  // measure 34
0100
0000
0000
0000
,  // measure 35
0010
0000
0000
0000
,  // measure 36
1000
0000
0000
0000
,  // measure 37
0001
0000
0000
0000
,  // measure 38
0010
0000
0000
0000
,  // measure 39
0100
0000
0000
0000
,  // measure 40
0100
0000
0000
0000
,  // measure 41
0100
0000
0000
0000
,  // measure 42
0010
0000
0000
0000
,  // measure 43
0010
0000
0000
0000
,  // measure 44
0001
0000
0000
0000
,  // measure 45
1000
0000
0000
0000
,  // measure 46
0001
0000
0000
0000
,  // measure 47
1000
0000
0000
0000
,  // measure 48
0100
0000
0000
0000
,  // measure 49
0100
0000
0000
0000
,  // measure 50
0010
0000
0000
0000
,  // measure 51
0010
0000
0000
0000
,  // measure 52
0001
0000
0000
0000
,  // measure 53
0001
0000
0000
0000
,  // measure 54
1000
0000
0000
0000
,  // measure 55
1000
0000
0000
0000
,  // measure 56
1000
0000
0000
0000
,  // measure 57
0100
0000
0000
0000
,  // measure 58
0001
0000
0000
0000
,  // measure 59
0010
0000
0000
0000
,  // measure 60
1000
0000
0000
0000
,  // measure 61
0010
0000
0000
0000
,  // measure 62
0001
0000
0000
0000
,  // measure 63
0100
0000
0000
0000
,  // measure 64
0100
0000
0000
0000
,  // measure 65
0010
0000
0000
0000
,  // measure 66
0010
0000
0000
0000
;

//---------------dance-single - chewi----------------
#NOTEDATA:;
#CHARTNAME:chewi;
#CHARTHASH:2147483647;
#STEPSTYPE:dance-single;
#BANNER:;
#DESCRIPTION:chewi;
#CHARTSTYLE:;
#DIFFICULTY:Easy;
#METER:3;
#METERF:0.000000;
#LASTSECONDHINT:126.141739;
#RADARVALUES:0.213646,0.264091,0.039564,0.205734,0.000000,189.000000,184.000000,5.000000,26.000000,0.000000,0.000000,0.000000,0.000000,0.000000,0.213646,0.264091,0.039564,0.205734,0.000000,189.000000,184.000000,5.000000,26.000000,0.000000,0.000000,0.000000,0.000000,0.000000;
#CREDIT:chewi;
#NOTES:
0000
0000
0000
0000
,
0000
0000
0000
0000
,
0000
0000
0000
0000
,
0000
0000
0000
0000
,
0020
1000
0000
0130
,
2000
0100
0000
3001
,
0020
0001
0000
0130
,
2000
0001
0000
3100
,
1000
1000
0001
0000
,
0100
0100
0010
0000
,
1000
1000
0001
0000
,
0010
0010
0100
0000
,
0100
0010
0010
0000
,
0001
1000
1000
0000
,
0010
0100
0100
0000
,
0001
1000
1000
0000
,
0001
0010
0001
0000
,
0010
0000
0100
0000
,
1000
0010
1000
0000
,
0010
0000
0100
0000
,
0001
0001
0001
0000
,
1000
1000
1000
0000
,
0001
1000
0001
0000
,
1001
0000
1000
0001
,
1000
0001
1000
0000
,
0010
0010
0100
0000
,
0001
1000
0001
0000
,
0100
0100
0010
0000
,
0100
0001
0100
0000
,
0010
1000
1000
0000
,
0100
0010
0100
0000
,
1000
0001
0001
0000
,
1000
0100
1000
0000
,
0100
0000
0010
0000
,
0001
0100
0001
0000
,
0100
0000
0010
0000
,
2000
0000
0000
0000
,
3000
0001
1000
0001
,
2002
0000
0000
0000
,
3003
0000
0000
1001
,
2000
0100
0001
0100
,
3002
0100
1000
0100
,
2003
3010
0002
0013
,
2000
3100
0002
0103
,
0002
0010
1000
0010
,
2003
0010
0001
0010
,
3002
0103
2000
3100
,
0002
0013
2000
3010
,
0020
0000
0230
0302
,
0000
1003
0100
0010
,
0002
0020
0000
0000
,
0000
0033
0010
0100
,
1000
0001
0000
0001
,
0100
0010
0000
0010
,
1000
0001
1000
0001
,
1001
0000
0000
0110
,
0010
0100
1000
0000
,
0001
0010
0100
0000
,
1000
0010
0100
0000
,
0001
1000
0010
0000
,
0100
0001
1000
0000
,
0100
0010
0001
0000
,
0010
0100
1000
0000
,
0001
0010
0001
0100
,
0000
0100
0000
0010
,
0010
1000
0010
2000
,
0020
0000
0000
3030
;

//---------------dance-single - chewi----------------
#NOTEDATA:;
#CHARTNAME:chewi;
#CHARTHASH:2147483647;
#STEPSTYPE:dance-single;
#BANNER:;
#DESCRIPTION:chewi;
#CHARTSTYLE:;
#DIFFICULTY:Medium;
#METER:6;
#METERF:0.000000;
#LASTSECONDHINT:126.141739;
#RADARVALUES:0.334600,0.343318,0.110780,0.102867,0.000000,296.000000,282.000000,14.000000,13.000000,0.000000,0.000000,0.000000,0.000000,0.000000,0.334600,0.343318,0.110780,0.102867,0.000000,296.000000,282.000000,14.000000,13.000000,0.000000,0.000000,0.000000,0.000000,0.000000;
#CREDIT:chewi;
#NOTES:
0000
0000
0000
0000
,
0000
0000
0000
0000
,
0000
0000
0000
0000
,
0000
0000
0000
0000
,
1000
0000
0010
0000
0100
0001
0100
0000
,
0001
0000
0100
0000
0010
1000
0010
0000
,
1000
0000
0100
0000
0010
0001
0010
0000
,
0001
0000
0010
0000
0100
1000
0100
0000
,
1000
0001
1000
0001
,
0100
0100
0010
0010
,
1000
0001
1000
0001
,
1000
1100
0001
0101
,
0100
0010
1000
0001
,
1000
0100
1000
0100
,
0100
0010
0001
1000
,
1000
1010
0001
0011
,
0001
1000
0001
1000
,
0010
0010
0100
0100
,
0001
1000
0001
1000
,
0001
0011
1000
1010
,
0010
0100
0001
1000
,
0001
0010
0001
0010
,
0010
0100
1000
0001
,
1001
0000
1000
0001
,
1000
0000
0010
0000
1000
0010
1000
0000
,
0010
0100
0001
0101
,
0001
0000
1000
0000
0100
0010
0001
0000
,
0010
0000
0100
0000
1000
0001
0100
0000
,
0001
0000
0100
0000
0001
0100
0001
0000
,
0100
0010
1000
1010
,
1000
0000
0001
0000
0010
0100
1000
0000
,
0100
0000
0010
0000
0001
1000
0010
0000
,
0100
0000
0001
0000
0010
0010
0001
0000
,
0100
0000
0100
0000
0010
0010
0010
0000
,
1000
0000
0100
0000
0010
0010
0100
0000
,
1000
0000
1000
0000
0001
0001
0001
0000
,
1002
0100
1000
0010
,
1003
0200
0320
1030
,
0001
0001
1000
0000
0100
0000
0010
0000
,
0220
0000
0000
0330
,
0100
0010
0100
0000
0010
0100
0010
0000
,
0100
1000
0010
0100
,
0001
0100
0001
0000
0100
0001
0100
0000
,
0100
0000
0010
1000
0001
0000
1000
0000
,
0010
0100
0010
0000
0100
0010
0100
0000
,
0010
1000
0001
0010
,
0100
0010
0100
0000
0010
0100
0010
0000
,
0100
1000
0010
0100
,
1020
0000
0000
0230
0000
0000
0302
0000
,
0000
0000
0023
0000
0230
0000
2300
3002
,
0000
0203
0000
0000
,
0000
0300
0010
0010
,
0010
0010
0010
0000
0100
0000
0001
0000
,
0010
0010
0010
0000
0100
0000
1000
0000
,
0001
0001
0001
0000
1000
1000
1000
0000
,
1001
0000
0000
0101
,
0100
0001
0100
0000
0001
0100
0001
0000
,
0100
0010
1000
0001
,
1000
0100
1000
0000
0100
1000
0100
0000
,
1000
0010
0100
0000
0001
0100
0010
0000
,
0010
1000
0010
0000
1000
0010
1000
0000
,
0010
0100
0001
1000
,
0001
0010
0001
0000
0010
0001
0010
0000
,
0001
0000
0100
0000
1000
1000
0100
0000
,
0001
0010
0100
1000
,
1000
0100
0001
0100
,
0100
0100
0100
0100
0100
0100
0100
0000
;

//---------------dance-single - chewi----------------
#NOTEDATA:;
#CHARTNAME:chewi;
#CHARTHASH:241266905;
#STEPSTYPE:dance-single;
#BANNER:;
#DESCRIPTION:chewi;
#CHARTSTYLE:;
#DIFFICULTY:Hard;
#METER:7;
#METERF:0.000000;
#LASTSECONDHINT:126.141739;
#RADARVALUES:0.418250,0.475363,0.102867,0.079128,0.000000,370.000000,357.000000,13.000000,10.000000,0.000000,0.000000,0.000000,0.000000,0.000000,0.418250,0.475363,0.102867,0.079128,0.000000,370.000000,357.000000,13.000000,10.000000,0.000000,0.000000,0.000000,0.000000,0.000000;
#CREDIT:chewi;
#NOTES:
0000
0000
0000
0000
,
0000
0000
0000
0000
,
0000
0000
0000
0000
,
0000
0000
0000
0000
,
1000
0010
1000
0100
0000
0010
0001
0010
,
0000
0100
1000
0100
0000
1000
0001
1000
,
0001
0010
0001
0100
0000
0010
1000
0010
,
0000
0100
0001
0100
0001
0001
1000
1000
,
0001
0000
0010
0100
0000
0100
0000
0010
,
0000
0001
0000
1000
0001
0000
0101
0000
,
0100
0000
0010
1000
0000
0001
0000
0010
,
0001
0010
0001
0100
0000
0010
1000
0010
,
1000
0000
0010
0100
0000
0100
0000
0010
,
0000
1000
0000
0001
1000
0000
1100
0000
,
0100
0000
0010
0001
0000
1000
0000
0010
,
1000
0010
1000
0100
0000
1000
0100
1000
,
0010
0000
0100
0001
0000
0100
0000
0010
,
0000
1000
0001
0010
,
0100
0000
0010
0100
0000
1000
0000
0010
,
1000
0010
1000
0100
0000
0010
0001
0100
,
0002
0000
0000
0000
,
0003
1000
0100
0010
,
0001
0010
0000
0001
0000
1000
0000
0010
,
1010
0000
0000
0000
0100
0100
0100
0000
,
0100
0000
0001
0000
0100
1000
0100
0000
,
0001
0000
0010
0000
0100
1000
0100
0000
,
0100
0000
0001
0000
0100
1000
0100
0000
,
0001
0100
1000
1001
,
0010
0000
0001
0000
0010
1000
0010
0000
,
0001
0000
0100
0000
0010
1000
0010
0000
,
0010
0000
0001
0000
0010
1000
0010
0000
,
0001
0010
1000
1001
,
1000
0100
1000
0000
0010
0000
0100
0000
,
0001
0010
0001
0000
0100
0000
0010
0000
,
1000
0001
1000
0000
0100
0010
0100
0000
,
0010
0001
0010
0000
0100
1000
0100
1000
,
1000
0010
0001
0100
,
1000
0000
0001
0000
0100
0010
0100
0001
,
0010
0000
1000
0000
0100
0001
0010
1000
,
0200
0000
0000
0310
,
0100
0010
0100
0010
0001
1000
0001
1000
,
0010
0100
0010
0100
0001
1000
0001
1000
,
0001
0010
0100
1000
0001
0010
0100
1000
,
1000
0010
0100
0001
1000
0010
0100
0001
,
0010
0100
0010
0100
1000
0001
1000
0001
,
0100
0010
0100
0010
1000
0001
1000
0001
,
1000
0100
0010
0001
1000
0100
0010
0001
,
0001
0100
0010
1000
0001
0100
0010
1000
,
1020
0000
0000
0230
0000
0000
0302
0000
,
0000
0000
0023
0000
0230
0000
2300
3002
,
0000
0203
0000
0000
,
0000
0300
0010
0010
,
0010
0010
0010
0000
0100
0100
0100
0000
,
0001
0001
0001
0000
1000
1000
1000
0000
,
0001
0001
0001
0000
1000
1000
1000
1000
,
1001
0000
0000
0110
,
0100
0010
0001
1000
0100
0010
0001
1000
,
0010
0100
0001
1000
0010
0100
0001
1000
,
0100
0010
0001
1000
0010
0100
0001
1000
,
0100
0010
0100
0010
0001
0010
0001
0010
,
0010
0100
1000
0001
0010
0100
1000
0001
,
0100
0010
1000
0001
0100
0010
1000
0001
,
0010
0100
1000
0001
0100
0010
1000
0001
,
0010
0100
1000
0001
1000
0000
1100
0000
,
0010
0000
0011
0000
1000
0001
1001
1000
,
0001
0100
0010
0100
0001
0000
0011
0000
,
0010
0010
0010
0010
0010
0010
0110
0000
;
