#TITLE:Gum;
#SUBTITLE:;
#ARTIST:Jessi;
#TITLETRANSLIT:;
#SUBTITLETRANSLIT:;
#ARTISTTRANSLIT:;
#GENRE:;
#CREDIT:;
#BANNER:Gum.png;
#BACKGROUND:Gum-bg.png;
#LYRICSPATH:;
#CDTITLE:cdtitle.png;
#MUSIC:Gum.ogg;
#OFFSET:-0.025000;
#SAMPLESTART:4.825000;
#SAMPLELENGTH:12.000000;
#SELECTABLE:YES;
#BPMS:0.000000=150.000000
,76.000000=75.000000
,92.000000=150.000000
,124.000000=75.000000
,132.000000=150.000000
,196.000000=75.000000
,204.000000=150.000000
;
#STOPS:
;
#BGCHANGES:-0.025=Gum.mp4=1.000=1=0=1===CrossFade==,
219.000=Gum-bg.png=1.000=1=0=1===CrossFade==,
99999=-nosongbg-=1.000=0=0=0 // don't automatically add -songbackground-
;
#KEYSOUNDS:;
#ATTACKS:;

//---------------dance-single - ----------------
#NOTES:
     dance-single:
     :
     Beginner:
     1:
     0.000000,0.000000,0.000000,0.000000,0.000000,0.000000,0.000000,0.000000,0.000000,0.000000,0.000000,0.000000,0.000000,0.000000,0.000000,0.000000,0.000000,0.000000,0.000000,0.000000,0.000000,0.000000:
0000
0000
0000
0000
,
0000
0000
0000
0000
,
0000
0000
0000
0000
,
1001
0000
0000
0000
,
0100
0000
0000
0000
,
0110
0000
0000
0000
,
0100
0000
0000
0000
,
1001
0000
0000
0000
,
0010
0000
0000
0000
,
0110
0000
0000
0000
,
0010
0000
0000
0000
,
1000
0000
0000
0000
,
1000
0000
0000
0000
,
0001
0000
0000
0000
,
0001
0000
0000
0000
,
0010
0000
0000
0000
,
0010
0000
0000
0000
,
0100
0000
0000
0000
,
0100
0000
0000
0000
,
1000
0000
0000
0000
,
0001
0000
0000
0000
,
0100
0000
0000
0000
,
0010
0000
0000
0000
,
1000
0000
0000
0000
,
0001
0000
0000
0000
,
1000
0000
0000
0000
,
0100
0000
0000
0000
,
0010
0000
0000
0000
,
0001
0000
0000
0000
,
0010
0000
0000
0000
,
0001
0000
0000
0000
,
1001
0000
0000
0000
,
0110
0000
0000
0000
,
1001
0000
0000
0000
,
0001
0000
0000
0000
,
0110
0000
0000
0000
,
0001
0000
0000
0000
,
1001
0000
0000
0000
,
1000
0000
0000
0000
,
0110
0000
0000
0000
,
1000
0000
0000
0000
,
1000
0000
0000
0000
,
1000
0000
0000
0000
,
0010
0000
0000
0000
,
0010
0000
0000
0000
,
0100
0000
0000
0000
,
0100
0000
0000
0000
,
0001
0000
0000
0000
,
0001
0000
0000
0000
,
1001
0000
0000
0000
,
1000
0000
0000
0000
,
1001
0000
0000
0000
,
0001
0000
0000
0000
,
1000
0000
0000
0000
,
0001
0000
0000
0000
;

//---------------dance-single - ----------------
#NOTES:
     dance-single:
     :
     Easy:
     3:
     0.000000,0.000000,0.000000,0.000000,0.000000,0.000000,0.000000,0.000000,0.000000,0.000000,0.000000,0.000000,0.000000,0.000000,0.000000,0.000000,0.000000,0.000000,0.000000,0.000000,0.000000,0.000000:
0000
0000
0000
0000
,
0000
0000
0000
0000
,
0000
0000
0000
0000
,
1001
0000
0000
0000
,
0100
0010
0100
0000
,
0110
0000
0000
0000
,
0010
0100
0010
0000
,
1001
0000
0000
0000
,
1000
0001
1000
0000
,
0110
0000
0000
0000
,
0010
0100
0010
0000
,
0001
0000
0001
0000
,
1000
0000
1000
0000
,
0001
0000
0001
0000
,
0100
0000
0100
0000
,
0010
0000
0010
0000
,
0100
0000
0100
0000
,
0001
0000
1000
0000
,
0001
0000
1000
0000
,
1001
0000
1000
0000
,
0001
0000
0100
0000
,
0110
0000
0010
0000
,
1000
0000
0001
0000
,
1000
0100
1000
0000
,
0001
0100
0001
0000
,
0100
0010
1000
0000
,
0100
0010
0001
0000
,
0001
0010
0001
0000
,
1000
0010
1000
0000
,
0010
0100
0001
0000
,
0010
0100
1000
0000
,
1001
0000
0000
0000
,
0110
0100
0010
0010
,
1001
0000
0000
0000
,
0100
0010
0100
0000
,
0110
0000
0000
0000
,
0010
0100
0010
0000
,
1001
0000
0000
0000
,
1000
0001
1000
0000
,
0110
0000
0000
0000
,
0010
0100
0010
0000
,
0001
0000
0001
0000
,
1000
0000
1000
0000
,
0001
0000
0001
0000
,
0100
0000
0100
0000
,
0010
0000
0010
0000
,
0100
0000
0100
0000
,
0001
0000
1000
0000
,
0001
0000
1000
0000
,
1001
0000
1000
0000
,
0001
0000
0100
0000
,
0100
0100
0010
0000
,
1000
0001
1000
0000
,
0100
0100
0010
0000
,
0001
1000
0001
0001
;

//---------------dance-single - ----------------
#NOTES:
     dance-single:
     :
     Medium:
     5:
     0.000000,0.000000,0.000000,0.000000,0.000000,0.000000,0.000000,0.000000,0.000000,0.000000,0.000000,0.000000,0.000000,0.000000,0.000000,0.000000,0.000000,0.000000,0.000000,0.000000,0.000000,0.000000:
0000
0000
0000
0000
,
0000
0000
0000
0000
,
0000
0000
0000
0000
,
1000
0100
0001
0000
,
1000
0100
0001
0000
,
0001
0100
1000
0000
,
0001
0100
1000
0000
,
1000
0001
0010
0000
,
1000
0001
0010
0000
,
0001
1000
0100
0000
,
0001
1000
0100
0000
,
0100
0010
0001
1000
,
0010
0100
0001
0000
,
0100
0010
1000
0001
,
0010
0100
1000
0000
,
0001
0010
0100
0010
,
0001
0100
0010
0000
,
0100
0010
1000
0001
,
1000
1000
0001
0000
,
1001
0000
1000
0000
,
0100
0000
0010
0000
,
0011
0000
0010
0000
,
0100
0000
1000
1000
,
1000
0000
0001
0000
,
0100
0010
1000
0001
,
0010
0000
0100
0000
,
1000
0001
0010
0100
,
1000
0000
0001
0001
,
0100
0000
0110
0000
,
0010
0000
1000
0000
,
0100
0000
0110
0000
,
0010
0000
0001
0000
0000
0010
0001
0000
,
0100
0000
0010
0000
1000
0001
1000
0000
,
0001
0010
1000
0000
,
0001
0010
1000
0000
,
1000
0010
0001
0000
,
1000
0010
0001
0000
,
0001
1000
0100
0000
,
0001
1000
0100
0000
,
1000
0001
0010
0000
,
1000
0001
0010
0000
,
0010
0100
1000
0001
,
0100
0010
1000
0000
,
0010
0100
0001
1000
,
0100
0010
0001
0000
,
1000
0100
0010
0100
,
1000
0010
0100
0000
,
0010
0100
0001
1000
,
0001
0001
1000
0000
,
1001
0000
0001
1000
,
0010
0000
0100
0000
,
0100
0100
0001
0001
,
0010
0010
0100
0100
,
1000
0001
1000
0000
,
0001
1000
1000
0001
;

//---------------dance-single - ----------------
#NOTES:
     dance-single:
     :
     Hard:
     8:
     0.497222,0.542907,0.208238,0.118993,0.034706,351.000000,330.000000,21.000000,12.000000,0.000000,0.000000,0.497222,0.542907,0.208238,0.118993,0.034706,351.000000,330.000000,21.000000,12.000000,0.000000,0.000000:
// measure 0
0000
0000
0000
0000
,  // measure 1
0000
0000
0000
0000
,  // measure 2
0000
0000
0000
0000
,  // measure 3
0000
0000
0010
0100
0100
0000
0000
0000
,  // measure 4
0001
0010
0100
1000
0100
0000
1100
0000
,  // measure 5
0000
0000
0100
0010
0010
0000
0000
0001
,  // measure 6
1000
0010
0100
0001
0100
0000
0101
0101
,  // measure 7
0000
0000
0001
1000
1000
0000
0000
0000
,  // measure 8
0100
0010
0001
1000
0010
1000
0010
0000
,  // measure 9
0000
0000
1000
0001
0001
0000
0000
0000
,  // measure 10
0010
0000
0000
0000
0100
0000
0000
0000
1000
0001
0000
0000
1000
0001
1000
0000
,  // measure 11
0001
0100
0001
0100
1000
0100
1000
0100
,  // measure 12
0001
0100
0001
0100
0020
0000
2030
0000
,  // measure 13
3001
0010
0001
0010
1000
0010
1000
0010
,  // measure 14
0001
0010
0001
0010
0100
0100
1000
1000
,  // measure 15
0010
1000
0010
0001
0010
1000
0010
0001
,  // measure 16
0010
1000
0010
0001
0020
0000
0230
0000
,  // measure 17
0301
0010
0100
0010
0001
0010
0100
0010
,  // measure 18
0002
0000
0000
0000
2003
0000
0000
0000
3001
1000
0000
0000
0000
0000
0000
0000
,  // measure 19
1000
0100
0010
0001
0000
0010
0001
0100
,  // measure 20
0101
0001
0100
0001
0010
0100
1000
0010
,  // measure 21
1000
0010
0100
0001
0000
0100
0010
1000
,  // measure 22
1010
0000
0000
0000
0000
0000
0000
0000
0101
0000
0000
0000
0000
0000
0000
0000
1001
0000
0000
0000
0000
0000
0000
0000
1000
0001
0000
0000
0000
0000
0000
0000
,  // measure 23
0100
1000
0010
0100
0001
0001
1000
1000
,  // measure 24
0001
0100
1000
1000
0001
0010
0100
0100
,  // measure 25
0010
1000
0100
0010
0001
0001
1000
1000
,  // measure 26
0001
0010
1000
1000
0001
0100
0010
0010
,  // measure 27
0100
0010
0001
1000
1001
1001
1001
0000
,  // measure 28
0100
0010
0100
0001
1000
0001
1000
0000
,  // measure 29
1000
0100
0001
0100
1000
0001
1000
0000
,  // measure 30
1000
0010
0001
0010
1000
0100
0010
0001
,  // measure 31
0000
0001
1000
0000
0000
0100
0010
0000
,  // measure 32
0011
0000
0000
0000
0000
0000
0000
0000
1010
0000
0000
0000
0000
0000
0000
0000
1000
0000
0000
0000
0010
0000
0000
0000
0100
0010
0000
0000
0000
0000
0000
0000
,  // measure 33
0101
0000
0100
0010
0010
0000
0000
0000
,  // measure 34
1000
0100
0010
0001
0010
0000
0011
0000
,  // measure 35
0000
0000
0010
0100
0100
0000
0000
1000
,  // measure 36
0001
0100
0010
1000
0010
0000
1010
1010
,  // measure 37
0000
0000
1000
0001
0001
0000
0000
0000
,  // measure 38
0010
0100
1000
0001
0100
0001
0101
0000
,  // measure 39
0000
0000
0001
1000
1000
0000
0000
1000
,  // measure 40
0100
0000
0010
0000
0001
0000
1000
0000
0010
1000
0000
0000
1000
0010
1000
0000
,  // measure 41
1000
0010
1000
0010
0001
0010
0001
0010
,  // measure 42
1000
0010
1000
0010
0200
0000
0302
0000
,  // measure 43
1003
0100
1000
0100
0001
0100
0001
0100
,  // measure 44
1000
0100
1000
0100
0010
0001
0001
0100
,  // measure 45
0100
0001
0100
1000
0100
0001
0100
1000
,  // measure 46
0100
0001
0100
1000
0200
0000
0320
0000
,  // measure 47
1030
0100
0010
0100
1000
0100
0010
0100
,  // measure 48
2000
0002
0000
3003
,  // measure 49
1000
0100
0001
0100
1000
0100
0001
0010
,  // measure 50
1000
1000
1100
1100
0000
0010
0011
0011
,  // measure 51
0010
0000
1000
0000
0001
0100
1000
0100
,  // measure 52
0001
0000
0100
0000
1000
0001
1000
0010
,  // measure 53
0100
0000
0001
0000
1000
0010
0100
0001
,  // measure 54
1000
0000
0001
0000
0100
0100
0100
0000
;
