#VERSION:0.83;
#TITLE:Girl Like Me;
#SUBTITLE:;
#ARTIST:PinkPantheress;
#TITLETRANSLIT:;
#SUBTITLETRANSLIT:;
#ARTISTTRANSLIT:;
#GENRE:UK House-Pop;
#ORIGIN:;
#TAGS:;
#CREDIT:chewi;
#BANNER:Girl Like Me.png;
#BACKGROUND:Girl Like Me-bg.png;
#PREVIEWVID:;
#JACKET:Girl Like Me-jacket.png;
#CDIMAGE:;
#DISCIMAGE:;
#LYRICSPATH:;
#CDTITLE:cdtitle.png;
#MUSIC:Girl Like Me.ogg;
#OFFSET:1.748000;
#SAMPLESTART:33.634998;
#SAMPLELENGTH:11.794000;
#SELECTABLE:YES;
#BPMS:0.000000=137.354996
;
#STOPS:;
#DELAYS:;
#WARPS:;
#TIMESIGNATURES:0.000000=4=4
;
#TICKCOUNTS:0.000000=4
;
#COMBOS:0.000000=1
;
#SPEEDS:0.000000=1.000000=0.000000=0
;
#SCROLLS:0.000000=1.000000
;
#FAKES:;
#LABELS:0.000000=Song Start
;
#BGCHANGES:4.000=Girl Like Me.mp4=1.000=1=0=1===CrossFade==,
211.000=Girl Like Me-bg.png=1.000=1=0=1===CrossFade==,
99999=-nosongbg-=1.000=0=0=0 // don't automatically add -songbackground-
;
#KEYSOUNDS:;
#ATTACKS:
;

//---------------dance-single - chewi----------------
#NOTEDATA:;
#CHARTNAME:chewi;
#CHARTHASH:2120911240;
#STEPSTYPE:dance-single;
#BANNER:;
#DESCRIPTION:chewi;
#CHARTSTYLE:;
#DIFFICULTY:Beginner;
#METER:1;
#METERF:0.000000;
#LASTSECONDHINT:89.111458;
#RADARVALUES:0.000000,0.000000,0.000000,0.000000,0.000000,0.000000,0.000000,0.000000,0.000000,0.000000,0.000000,0.000000,0.000000,0.000000,0.000000,0.000000,0.000000,0.000000,0.000000,0.000000,0.000000,0.000000,0.000000,0.000000,0.000000,0.000000,0.000000,0.000000;
#CREDIT:chewi;
#NOTES:
0000
0000
0000
0000
,
0000
0000
0000
0000
,
0000
0000
0000
0000
,
0000
0000
0000
0000
,
0000
0000
0000
0000
,
0010
0000
0000
0000
,
0100
0000
0000
0000
,
0001
0000
0000
0000
,
1000
0000
0000
0000
,
0001
0000
0001
0000
,
1000
0000
1000
0000
,
0100
0000
0000
0000
,
0010
0000
0000
0000
,
0100
0000
0100
0000
,
0100
0000
0000
0000
,
1000
0000
1000
0000
,
1000
0000
0000
0000
,
0001
0000
0001
0000
,
0001
0000
0000
0000
,
0100
0000
0100
0000
,
0100
0000
0000
0000
,
0110
0000
0000
0000
,
1000
0000
1000
0000
,
1001
0000
0000
0000
,
0001
0000
0001
0000
,
0010
0000
0000
0000
,
0010
0000
0000
0000
,
0100
0000
0000
0000
,
0100
0000
0000
0000
,
0010
0000
0000
0000
,
0001
0000
0000
0000
,
0100
0000
0000
0000
,
1000
0000
0000
0000
,
0010
0000
0000
0000
,
1000
0000
0000
0000
,
0100
0000
0000
0000
,
0001
0000
0000
0000
,
1001
0000
0000
0000
,
1000
0000
0000
0000
,
0001
0000
0000
0000
,
0100
0000
0000
0000
,
0100
0000
0100
0000
,
0100
0000
0000
0000
,
0010
0000
0010
0000
,
0010
0000
0000
0000
,
1001
0000
0000
0000
,
1000
0000
0000
0000
,
0001
0000
0000
0000
,
1000
0000
1000
0000
,
0001
0000
0000
0000
,
0010
0000
0000
0000
,
0100
0000
0000
0000
,
1000
0000
0000
0000
;

//---------------dance-single - chewi----------------
#NOTEDATA:;
#CHARTNAME:chewi;
#CHARTHASH:1014597542;
#STEPSTYPE:dance-single;
#BANNER:;
#DESCRIPTION:chewi;
#CHARTSTYLE:;
#DIFFICULTY:Easy;
#METER:3;
#METERF:0.000000;
#LASTSECONDHINT:90.421928;
#RADARVALUES:0.000000,0.000000,0.000000,0.000000,0.000000,0.000000,0.000000,0.000000,0.000000,0.000000,0.000000,0.000000,0.000000,0.000000,0.000000,0.000000,0.000000,0.000000,0.000000,0.000000,0.000000,0.000000,0.000000,0.000000,0.000000,0.000000,0.000000,0.000000;
#CREDIT:chewi;
#NOTES:
0000
0000
0000
0000
,
0000
0000
0000
0000
,
0000
0000
0000
0000
,
0000
0000
0000
0000
,
0000
0000
0000
0000
,
0010
0000
1000
0000
,
0100
0000
0100
0000
,
0010
0000
0001
0000
,
0100
0000
0100
0000
,
0001
0100
0001
0000
,
0100
0001
0100
0000
,
0001
0000
0001
0000
,
1000
0000
1000
0000
,
0100
0000
0001
0000
,
0010
0000
0010
0000
,
0100
0000
1000
0000
,
0010
0000
0010
0000
,
1000
0010
1000
0000
,
0010
1000
0010
0000
,
1000
0000
1000
0000
,
0001
0000
0001
0000
,
1001
0000
0000
0000
,
0000
0010
0100
0110
,
0000
0100
0000
0100
,
0000
1000
0001
1001
,
1000
0000
0010
0000
,
0100
0000
0001
0000
,
0100
0000
0010
0000
,
0100
0000
0001
0000
,
0000
0010
0100
0100
,
0010
0010
0100
0010
,
0000
0001
1000
1000
,
0001
0001
1000
0001
,
0000
0100
0010
0010
,
0100
0100
0010
0100
,
0000
1000
0001
0001
,
1000
1000
0001
1000
,
0000
0001
0000
0001
,
0000
0010
0000
0010
,
0000
0100
0000
0100
,
0000
1000
0000
1000
,
1000
0000
0001
0000
,
1001
1001
0000
0000
,
0010
0100
0010
0100
,
0010
0100
0010
0000
,
0000
0001
0000
0001
,
0000
1000
0000
1000
,
0000
0001
0000
0001
,
0000
0100
0000
0100
,
0000
0001
0000
0001
,
0000
1000
0000
1000
,
0000
0001
0000
0001
,
0000
1000
0000
1000
;

//---------------dance-single - chewi----------------
#NOTEDATA:;
#CHARTNAME:chewi;
#CHARTHASH:591308081;
#STEPSTYPE:dance-single;
#BANNER:;
#DESCRIPTION:chewi;
#CHARTSTYLE:;
#DIFFICULTY:Medium;
#METER:5;
#METERF:0.000000;
#LASTSECONDHINT:90.421928;
#RADARVALUES:0.326262,0.492314,0.252539,0.131760,0.000000,208.000000,185.000000,23.000000,12.000000,0.000000,0.000000,0.000000,0.000000,0.000000,0.326262,0.492314,0.252539,0.131760,0.000000,208.000000,185.000000,23.000000,12.000000,0.000000,0.000000,0.000000,0.000000,0.000000;
#CREDIT:chewi;
#NOTES:
// measure 0
0000
0000
0000
0000
,  // measure 1
0000
0000
0000
0000
,  // measure 2
0000
0000
0000
0000
,  // measure 3
0000
0000
0000
0000
,  // measure 4
0000
0000
0000
0000
,  // measure 5
2000
3010
0020
1030
,  // measure 6
0020
0100
0001
0130
,  // measure 7
0002
0103
0200
0301
,  // measure 8
0002
0010
0100
1003
,  // measure 9
1001
1001
0110
0110
,  // measure 10
1010
1010
0101
0101
,  // measure 11
0001
0010
0001
0100
,  // measure 12
0010
1000
0100
0010
,  // measure 13
0002
0103
0200
0301
,  // measure 14
0200
0010
1000
0310
,  // measure 15
2000
3010
0020
1030
,  // measure 16
2000
0100
0010
3001
,  // measure 17
1001
1001
0110
0110
,  // measure 18
0101
0101
1010
1010
,  // measure 19
1000
0100
1000
0010
,  // measure 20
0100
0001
0010
0100
,  // measure 21
0010
0100
0110
0110
,  // measure 22
0010
0100
1000
0001
,  // measure 23
1000
0001
1001
1001
,  // measure 24
0001
1000
0010
0100
,  // measure 25
0010
0000
0100
0000
,  // measure 26
0010
0100
0010
0000
0100
0000
0110
0000
,  // measure 27
0001
0001
1000
1000
,  // measure 28
0001
0010
0100
1000
,  // measure 29
0000
0001
0100
1000
,  // measure 30
0010
0001
0100
0000
,  // measure 31
0000
1000
0010
0001
,  // measure 32
0100
1000
0010
0000
,  // measure 33
0000
0001
0100
1000
,  // measure 34
0010
0001
0100
0000
,  // measure 35
0000
1000
0010
0001
,  // measure 36
0100
1000
0010
0001
,  // measure 37
1000
0001
1000
1100
,  // measure 38
0001
1000
0001
0101
,  // measure 39
0100
0001
1000
0010
,  // measure 40
0010
1000
0001
0100
,  // measure 41
0001
0000
0010
0000
,  // measure 42
0100
0010
0100
0000
0010
0100
0010
0000
,  // measure 43
0001
0001
1000
1000
,  // measure 44
0010
0010
0100
0100
,  // measure 45
0010
0100
0000
0010
0000
0100
0000
0001
,  // measure 46
0000
0100
0000
0001
0000
0100
0000
0010
,  // measure 47
0000
1000
0000
0010
0000
1000
0000
0100
,  // measure 48
0000
0010
0000
0100
0000
0010
0000
0100
,  // measure 49
0100
0100
1000
1000
,  // measure 50
0001
0001
0100
0100
,  // measure 51
0010
1000
0100
0001
,  // measure 52
0010
1000
0100
0001
;

//---------------dance-single - chewi----------------
#NOTEDATA:;
#CHARTNAME:chewi;
#CHARTHASH:4012909063;
#STEPSTYPE:dance-single;
#BANNER:;
#DESCRIPTION:chewi;
#CHARTSTYLE:;
#DIFFICULTY:Hard;
#METER:8;
#METERF:0.000000;
#LASTSECONDHINT:90.640343;
#RADARVALUES:0.000000,0.000000,0.000000,0.000000,0.000000,0.000000,0.000000,0.000000,0.000000,0.000000,0.000000,0.000000,0.000000,0.000000,0.000000,0.000000,0.000000,0.000000,0.000000,0.000000,0.000000,0.000000,0.000000,0.000000,0.000000,0.000000,0.000000,0.000000;
#CREDIT:chewi;
#NOTES:
0000
0000
0000
0000
,
0000
0000
0000
0000
,
0000
0000
0000
0000
,
0000
0000
0000
0000
,
0000
0000
0000
0000
,
0020
0000
1030
0000
0100
0100
0010
0000
,
0002
0000
0013
0000
0100
1000
0100
1000
,
0002
0000
0103
0000
0001
0001
0010
0000
,
0200
0000
1300
0000
1000
0100
1000
0100
,
1000
0100
0000
0000
0001
0100
0000
0000
1001
0000
1000
0000
0001
0000
0000
0000
,
1000
0010
0000
0000
0001
0010
0000
0000
0110
0000
0100
0000
0010
0000
0000
0000
,
0001
0000
0010
0000
1000
0001
0100
0000
,
1000
1000
1000
0000
0001
0001
0001
0000
,
0200
0000
0301
0000
0010
0010
0100
0000
,
2000
0000
3100
0000
0010
0001
0010
0001
,
2000
0000
3010
0000
1000
1000
0100
0000
,
0020
0000
0031
0000
0001
0010
0001
0010
,
0001
0010
0000
0000
1000
0010
0000
0000
1001
0000
0001
0000
1000
0000
0000
0000
,
0001
0100
0000
0000
1000
0100
0000
0000
0110
0000
0010
0000
0100
0000
0000
0000
,
1000
1000
1000
0000
0001
0001
0001
0000
,
1000
1000
1000
0010
0100
0000
0010
0000
,
0100
0001
1001
1001
,
1000
0000
0001
0010
0100
0000
0010
0000
,
0100
0001
1010
1010
,
0100
0000
0001
1000
0100
0000
1000
0000
,
0010
0000
0000
0000
0000
0000
0100
0010
0100
0000
0000
0000
0000
0000
0010
1000
,
0010
1000
0001
1000
0001
0000
0010
0000
0100
0000
0000
0000
0110
0000
0000
0000
,
0100
0100
1000
1000
1001
0000
1001
0000
,
1000
0000
0001
0010
0100
0000
0010
0000
,
0000
0000
0100
1000
0100
0001
0100
1000
,
0100
0001
0200
0000
2300
0000
3020
0000
,
0030
0000
0100
0001
0010
0100
0010
0001
,
0010
0100
2000
0000
3200
0000
0320
0000
,
0030
0000
0100
1000
0100
0001
0100
1000
,
0100
0001
0200
0000
2300
0000
3020
0000
,
0030
0000
0100
0001
0010
0100
0010
0001
,
0000
0110
1100
1001
,
1000
0000
0000
0000
0010
0000
0000
0100
0000
0100
0000
0000
0100
0000
0000
0000
,
0010
0000
0000
0000
1000
0000
0000
0001
0000
0001
0000
0000
0001
0000
0000
0000
,
2000
3020
0230
0302
,
2003
3002
0023
0230
,
0310
0000
0000
0000
0000
0000
0100
0010
0100
0000
0000
0000
0000
0000
0010
0001
,
0010
0001
1000
0001
1000
0000
0000
0000
0001
0000
0000
0000
0110
0000
0000
0000
,
0002
0203
0320
2030
,
3002
2003
3200
0320
,
0130
0000
0000
0000
0010
0000
0000
0100
0000
0100
0000
0000
0010
0000
0000
0000
,
0001
0000
0000
0000
1000
0000
0000
0001
0000
0001
0000
0000
1000
0000
0000
0000
,
0010
0000
0000
0000
0100
0000
0000
0001
0000
0001
0000
0000
0001
0000
0000
0000
,
0010
0000
0000
0000
0100
0000
0000
1000
0000
1000
0000
0000
1000
0000
0001
0000
,
0100
1000
0100
0010
1000
0001
0010
0100
,
0001
0100
1000
0010
0100
0001
1000
0100
,
0010
0001
1000
0100
0001
0100
0010
0001
,
0010
0100
1000
0001
0010
0100
0001
0100
;
