#VERSION:0.83;
#TITLE:Forget Me Nots;
#SUBTITLE:;
#ARTIST:Patrice Rushen;
#TITLETRANSLIT:;
#SUBTITLETRANSLIT:;
#ARTISTTRANSLIT:;
#GENRE:Synth Funk Boogie;
#ORIGIN:;
#TAGS:;
#CREDIT:chewi;
#BANNER:Forget Me Nots.png;
#BACKGROUND:Forget Me Nots-bg.png;
#PREVIEWVID:;
#JACKET:Forget Me Nots-jacket.png;
#CDIMAGE:;
#DISCIMAGE:;
#LYRICSPATH:;
#CDTITLE:cdtitle.png;
#MUSIC:Forget Me Nots.ogg;
#OFFSET:1.204000;
#SAMPLESTART:9.352000;
#SAMPLELENGTH:12.000000;
#SELECTABLE:YES;
#BPMS:0.000000=113.679001
;
#STOPS:;
#DELAYS:;
#WARPS:;
#TIMESIGNATURES:0.000000=4=4
;
#TICKCOUNTS:0.000000=4
;
#COMBOS:0.000000=1
;
#SPEEDS:0.000000=1.000000=0.000000=0
;
#SCROLLS:0.000000=1.000000
;
#FAKES:;
#LABELS:0.000000=Song Start
;
#BGCHANGES:2.500=Forget Me Nots.mp4=1.000=1=0=1===CrossFade==,
228.000=Forget Me Nots-bg.png=1.000=1=0=1===CrossFade==,
99999=-nosongbg-=1.000=0=0=0 // don't automatically add -songbackground-
;
#KEYSOUNDS:;
#ATTACKS:
;

//---------------dance-single - chewi----------------
#NOTEDATA:;
#CHARTNAME:chewi;
#CHARTHASH:2147483647;
#STEPSTYPE:dance-single;
#BANNER:;
#DESCRIPTION:chewi;
#CHARTSTYLE:;
#DIFFICULTY:Beginner;
#METER:1;
#METERF:0.000000;
#LASTSECONDHINT:117.023643;
#RADARVALUES:0.060223,0.068098,0.000000,0.000000,0.000000,52.000000,52.000000,0.000000,0.000000,0.000000,0.000000,0.000000,0.000000,0.000000,0.060223,0.068098,0.000000,0.000000,0.000000,52.000000,52.000000,0.000000,0.000000,0.000000,0.000000,0.000000,0.000000,0.000000;
#CREDIT:chewi;
#NOTES:
0000
0000
0000
0000
,
0000
0000
0000
0000
,
0000
0000
0000
0000
,
0000
0000
0000
0000
,
0000
0000
0000
0000
,
1000
0000
0000
0000
,
0100
0000
0000
0000
,
0010
0000
0000
0000
,
1000
0000
0000
0000
,
0001
0000
0000
0000
,
0010
0000
0000
0000
,
0100
0000
0000
0000
,
0001
0000
0000
0000
,
0001
0000
0000
0000
,
0100
0000
0000
0000
,
0100
0000
0000
0000
,
0010
0000
0000
0000
,
0001
0000
0000
0000
,
1000
0000
0000
0000
,
0001
0000
0000
0000
,
1000
0000
0000
0000
,
1000
0000
0000
0000
,
0010
0000
0000
0000
,
0001
0000
0000
0000
,
0010
0000
0000
0000
,
1000
0000
0000
0000
,
0001
0000
0000
0000
,
1000
0000
0000
0000
,
0010
0000
0000
0000
,
0100
0000
0000
0000
,
0001
0000
0000
0000
,
0001
0000
0000
0000
,
0010
0000
0000
0000
,
0100
0000
0000
0000
,
1000
0000
0000
0000
,
1000
0000
0000
0000
,
0010
0000
0000
0000
,
0010
0000
0000
0000
,
0001
0000
0000
0000
,
1000
0000
0000
0000
,
1000
0000
0000
0000
,
0001
0000
0000
0000
,
0001
0000
0000
0000
,
1000
0000
0000
0000
,
1000
0000
0000
0000
,
0100
0000
0000
0000
,
1000
0000
0000
0000
,
1000
0000
0000
0000
,
0100
0000
0000
0000
,
0010
0000
0000
0000
,
1000
0000
0000
0000
,
0001
0000
0000
0000
,
0010
0000
0000
0000
,
0100
0000
0000
0000
,
0001
0000
0000
0000
,
1000
0000
0000
0000
,
1000
0000
0000
0000
;

//---------------dance-single - chewi----------------
#NOTEDATA:;
#CHARTNAME:chewi;
#CHARTHASH:1857229952;
#STEPSTYPE:dance-single;
#BANNER:;
#DESCRIPTION:chewi;
#CHARTSTYLE:;
#DIFFICULTY:Easy;
#METER:3;
#METERF:0.000000;
#LASTSECONDHINT:119.134850;
#RADARVALUES:0.166770,0.207942,0.000000,0.040534,0.000000,144.000000,144.000000,0.000000,5.000000,0.000000,0.000000,0.000000,0.000000,0.000000,0.166770,0.207942,0.000000,0.040534,0.000000,144.000000,144.000000,0.000000,5.000000,0.000000,0.000000,0.000000,0.000000,0.000000;
#CREDIT:chewi;
#NOTES:
0000
0000
0000
0000
,
0000
0000
0000
0000
,
0000
0000
0000
0000
,
0000
0000
0000
0000
,
0000
0000
0000
0000
,
1000
1000
0001
0000
,
0100
0100
0100
0000
,
0010
1000
0010
0000
,
1000
0010
1000
0000
,
0001
0001
1000
0000
,
0010
0010
0010
0000
,
0100
0001
0100
0000
,
0001
0100
0001
0000
,
0001
0000
1000
0000
,
0100
0100
0100
0000
,
0100
0010
0100
0000
,
0010
0100
1000
0000
,
0001
0100
0001
0000
,
1000
0010
1000
0000
,
0001
0010
0001
0000
,
1000
0100
1000
0000
,
1000
0000
0100
0000
,
0010
0010
0001
0000
,
0001
0000
0100
0000
,
0010
0010
1000
0000
,
1000
0001
1000
0000
,
0001
1000
0001
0000
,
1000
0001
1000
0001
,
0010
0100
0010
0100
,
0100
0000
0010
0000
,
0001
0001
0000
1000
,
0001
0000
1000
0000
,
0010
0010
0000
0100
,
0100
0000
0001
0000
,
1000
1000
0000
0001
,
1000
0000
0001
0000
,
0010
0000
0100
0000
,
0020
0000
0000
0000
,
0032
0000
0000
0000
,
1003
1000
1000
1000
,
2000
0000
0000
3000
,
0001
0100
0001
0100
,
0002
0000
0000
0003
,
1000
0001
0100
0000
,
1000
0000
0001
0000
,
0100
0100
0010
0010
,
1000
1000
0001
0001
,
1000
1000
0001
0000
,
0100
0100
0100
0000
,
0010
1000
0010
0000
,
1000
0010
1000
0000
,
0001
0001
1000
0000
,
0010
0010
0010
0000
,
0100
0001
0100
0000
,
0001
0100
0001
0000
,
1000
0100
1000
0100
,
2000
0000
0000
0000
,
3000
0000
0000
0000
;

//---------------dance-single - chewi----------------
#NOTEDATA:;
#CHARTNAME:chewi;
#CHARTHASH:2147483647;
#STEPSTYPE:dance-single;
#BANNER:;
#DESCRIPTION:chewi;
#CHARTSTYLE:;
#DIFFICULTY:Medium;
#METER:5;
#METERF:0.000000;
#LASTSECONDHINT:117.023643;
#RADARVALUES:0.273318,0.295090,0.064855,0.348596,0.000000,236.000000,228.000000,8.000000,43.000000,0.000000,0.000000,0.000000,0.000000,0.000000,0.273318,0.295090,0.064855,0.348596,0.000000,236.000000,228.000000,8.000000,43.000000,0.000000,0.000000,0.000000,0.000000,0.000000;
#CREDIT:chewi;
#NOTES:
0000
0000
0000
0000
,
0000
0000
0000
0000
,
0000
0000
0000
0000
,
0000
0000
0000
0000
,
0000
0000
0000
0000
,
0010
1000
0100
1000
,
0010
0010
0100
0100
,
0001
0010
0100
0010
,
0001
1000
0100
0010
,
0100
1000
0010
1000
,
0100
0100
0010
0010
,
0001
0100
1000
0100
,
0001
1000
0001
0010
,
0010
0001
0000
0001
0010
0000
0100
0000
,
1000
0001
0000
0001
1000
0000
0010
0000
,
0100
0001
0010
1000
,
0100
0001
0010
1000
,
0100
1000
0000
1000
0100
0000
0010
0000
,
0001
1000
0000
1000
0001
0000
0100
0000
,
0010
1000
0100
0001
,
0010
1000
0100
0001
,
0100
0010
0001
1001
,
0100
0010
1000
1001
,
1000
0001
0010
0100
,
0100
0010
0001
0011
,
0010
0100
1000
1001
,
0010
0100
0001
1001
,
0001
1000
0100
0010
,
0010
0100
1000
1100
,
0002
0023
0230
0320
,
0031
0010
0100
0000
0010
0100
1000
0000
,
0020
2030
3200
2300
,
3010
0100
0001
0000
1000
0001
1000
0000
,
2000
3200
0320
0230
,
1300
0100
0010
0000
0100
0010
0001
0000
,
0200
0302
0023
0032
,
0103
0010
1000
0000
0001
1000
0001
0000
,
1000
0000
0100
0100
0001
0000
0100
0000
,
0100
0000
1000
0001
1000
0001
1000
0001
,
0200
0320
2030
3100
,
0020
0032
0103
0101
,
0200
0310
0020
1030
,
2000
3100
0002
0103
,
0100
0000
0010
0000
1000
0001
1000
0000
,
0100
0000
0010
0000
0001
1000
0001
0000
,
1000
0010
0001
0100
,
1000
0000
0010
0000
1000
1000
1000
0000
,
2000
3020
0230
0320
,
1030
0010
0100
0000
0010
0100
0001
0000
,
0020
0032
0203
0302
,
0013
0100
1000
0000
0001
1000
0001
0000
,
0002
0203
0320
0230
,
0301
0100
0010
0000
0100
0010
1000
0000
,
0200
2300
3020
2030
,
3100
0010
0001
0000
1000
0001
1000
0000
,
2002
0000
0000
0000
,
3003
0000
0000
0000
;

//---------------dance-single - chewi----------------
#NOTEDATA:;
#CHARTNAME:chewi;
#CHARTHASH:2087757695;
#STEPSTYPE:dance-single;
#BANNER:;
#DESCRIPTION:chewi;
#CHARTSTYLE:;
#DIFFICULTY:Hard;
#METER:7;
#METERF:0.000000;
#LASTSECONDHINT:119.134850;
#RADARVALUES:0.412293,0.415883,0.129710,0.040534,0.024321,356.000000,340.000000,16.000000,5.000000,3.000000,0.000000,0.000000,0.000000,0.000000,0.412293,0.415883,0.129710,0.040534,0.024321,356.000000,340.000000,16.000000,5.000000,3.000000,0.000000,0.000000,0.000000,0.000000;
#CREDIT:chewi;
#NOTES:
// measure 0
0000
0000
0000
0000
,  // measure 1
0000
0000
0000
0000
,  // measure 2
0000
0000
0000
0000
,  // measure 3
0000
0000
0000
0000
,  // measure 4
0000
0000
0000
0000
,  // measure 5
1000
0000
1000
0000
0010
0000
0010
0000
0100
0000
0100
0000
0010
0000
0000
1000
,  // measure 6
0001
0010
0100
0000
0010
0001
0011
0000
,  // measure 7
0010
0100
1000
1000
0001
0010
0100
1000
,  // measure 8
0100
0010
0001
1000
0001
1000
1001
0000
,  // measure 9
0001
0000
0001
0000
0100
0000
0100
0000
0010
0000
0010
0000
0100
0000
0000
0001
,  // measure 10
1000
0100
0010
0000
0100
1000
1100
0000
,  // measure 11
0100
0010
0001
0001
1000
0100
0010
0001
,  // measure 12
0010
0100
1000
0001
1000
0001
1001
0000
,  // measure 13
1000
0100
0000
0100
1000
0000
1010
0000
,  // measure 14
0010
0100
0010
0100
0010
0000
0110
0000
,  // measure 15
1000
0001
0010
0000
0100
1000
0001
0000
,  // measure 16
1000
0001
0100
0000
0010
1000
0001
0000
,  // measure 17
0001
0010
0000
0010
0001
0000
0101
0000
,  // measure 18
0100
0010
0100
0010
0100
0000
0110
0000
,  // measure 19
0001
1000
0100
0000
0010
0001
1000
0000
,  // measure 20
0001
1000
0010
0000
0100
0001
1000
0000
,  // measure 21
0001
0100
1000
0000
1000
0100
0001
0000
,  // measure 22
0001
0100
1000
0100
0001
1000
0001
0000
,  // measure 23
1000
0010
0001
0000
0001
0010
1000
0000
,  // measure 24
1000
0010
0001
0010
1000
0001
1000
0000
,  // measure 25
0010
0000
0100
0000
0001
0010
0100
1000
,  // measure 26
0100
0000
0010
0000
0001
1000
0010
0100
,  // measure 27
0010
0010
0100
0100
0001
0000
1000
1000
,  // measure 28
0100
1000
0100
0010
0001
0010
0001
0000
,  // measure 29
0001
0000
0001
0000
0010
0000
0010
0000
0100
0000
0100
0000
0010
0000
0000
0001
,  // measure 30
1000
0010
0100
0000
0010
1000
1010
0000
,  // measure 31
0010
0100
0001
0001
1000
0010
0100
0001
,  // measure 32
0100
0010
1000
0001
1000
0001
1001
0000
,  // measure 33
1000
0000
1000
0000
0100
0000
0100
0000
0010
0000
0010
0000
0100
0000
0000
1000
,  // measure 34
0001
0100
0010
0000
0100
0001
0101
0000
,  // measure 35
0100
0010
1000
1000
0001
0100
0010
1000
,  // measure 36
0010
0100
0001
1000
0001
1000
1001
0000
,  // measure 37
1000
0000
0100
0100
0001
0000
0100
0000
,  // measure 38
0100
0000
1000
0001
1000
0001
1000
0001
,  // measure 39
0200
0000
0320
0000
2030
0000
3100
0100
,  // measure 40
0020
0000
0032
0000
0103
0100
0001
0001
,  // measure 41
0100
0100
0100
0000
0010
0010
0010
0000
,  // measure 42
1000
1000
1000
0000
0001
0001
0001
0000
,  // measure 43
1000
0001
0010
0000
0100
1000
0010
0000
,  // measure 44
0100
0001
0010
0000
0001
0010
0010
0001
,  // measure 45
0001
1000
0100
0000
0010
0001
0100
0000
,  // measure 46
0010
1000
0100
0000
1000
0100
0100
1000
,  // measure 47
1000
0000
1000
0000
0100
0000
0100
0000
0010
0000
0010
0000
0100
0000
0000
1000
,  // measure 48
0001
0100
0010
0000
0100
0001
0101
0000
,  // measure 49
0100
0010
1000
1000
0001
0100
0010
1000
,  // measure 50
0010
0100
0001
1000
0001
1000
1001
0000
,  // measure 51
0001
0000
0001
0000
0010
0000
0010
0000
0100
0000
0100
0000
0010
0000
0000
0001
,  // measure 52
1000
0010
0100
0000
0010
1000
1010
0000
,  // measure 53
0010
0100
0001
0001
1000
0010
0100
0001
,  // measure 54
0100
0010
1000
0001
1000
0001
1001
0000
,  // measure 55
1000
0100
0001
0010
,  // measure 56
1000
1000
1000
0000
0000
M000
M000
0000
,  // measure 57
M000
0000
0000
0000
;
