#VERSION:0.83;
#TITLE:Fat Juicy & Wet;
#SUBTITLE:;
#ARTIST:Sexxy Red & Bruno Mars;
#TITLETRANSLIT:;
#SUBTITLETRANSLIT:;
#ARTISTTRANSLIT:;
#GENRE:Pop Rap;
#ORIGIN:;
#TAGS:;
#CREDIT:chewi;
#BANNER:Fat Juicy & Wet.png;
#BACKGROUND:Fat Juicy & Wet-bg.png;
#PREVIEWVID:;
#JACKET:Fat Juicy & Wet-jacket.png;
#CDIMAGE:;
#DISCIMAGE:;
#LYRICSPATH:;
#CDTITLE:cdtitle.png;
#MUSIC:Fat Juicy & Wet.ogg;
#OFFSET:-0.001000;
#SAMPLESTART:54.520000;
#SAMPLELENGTH:12.000000;
#SELECTABLE:YES;
#BPMS:0.000000=104.000000
;
#STOPS:;
#DELAYS:;
#WARPS:;
#TIMESIGNATURES:0.000000=4=4
;
#TICKCOUNTS:0.000000=4
;
#COMBOS:0.000000=1
;
#SPEEDS:0.000000=1.000000=0.000000=0
;
#SCROLLS:0.000000=1.000000
;
#FAKES:;
#LABELS:0.000000=Song Start
;
#BGCHANGES:0.000=Fat Juicy & Wet.mp4=1.000=1=0=1===CrossFade==,
160.000=Fat Juicy & Wet-bg.png=1.000=1=0=1===CrossFade==,
99999=-nosongbg-=1.000=0=0=0 // don't automatically add -songbackground-
;
#KEYSOUNDS:;
#ATTACKS:
;

//---------------dance-single - chewi----------------
#NOTEDATA:;
#CHARTNAME:chewi;
#CHARTHASH:1734103603;
#STEPSTYPE:dance-single;
#BANNER:;
#DESCRIPTION:chewi;
#CHARTSTYLE:;
#DIFFICULTY:Beginner;
#METER:1;
#METERF:0.000000;
#LASTSECONDHINT:92.308693;
#RADARVALUES:0.123040,0.150724,0.129192,0.000000,0.000000,80.000000,68.000000,12.000000,0.000000,0.000000,0.000000,0.000000,0.000000,0.000000,0.123040,0.150724,0.129192,0.000000,0.000000,80.000000,68.000000,12.000000,0.000000,0.000000,0.000000,0.000000,0.000000,0.000000;
#CREDIT:chewi;
#NOTES:
0000
0000
0000
0000
,
0000
0000
0000
0000
,
0000
0000
0000
0000
,
0000
0000
0000
0000
,
1001
0000
0000
0000
,
0100
0000
0010
0000
,
0110
0000
0000
0000
,
0001
0000
1000
0000
,
1001
0000
0000
0000
,
0010
0000
0100
0000
,
0110
0000
0000
0000
,
0110
0000
0110
0000
,
1000
0000
1000
0000
,
1000
1000
1000
1000
,
0001
0000
0100
0000
,
0100
0000
0001
0000
,
1000
0000
0100
0000
,
0100
0000
1000
0000
,
0100
0000
0010
0000
,
0010
0000
0100
0000
,
0010
0000
0000
0000
,
0010
0010
0010
0000
,
0001
0000
0000
0000
,
1000
1000
1000
0000
,
1001
0000
0000
0000
,
0100
0000
0010
0000
,
0110
0000
0000
0000
,
0001
0000
1000
0000
,
1001
0000
0000
0000
,
0010
0000
0100
0000
,
0110
0000
0000
0000
,
0110
0000
0110
0000
,
1000
0000
1000
0000
,
0010
0000
0010
0000
,
0001
0000
0001
0000
,
0100
0000
0100
0000
,
1000
0000
1000
0000
,
0100
0000
0100
0000
,
0001
0000
0001
0000
,
0010
0000
0010
0010
,
0010
0000
0000
0000
;

//---------------dance-single - chewi----------------
#NOTEDATA:;
#CHARTNAME:chewi;
#CHARTHASH:4226820569;
#STEPSTYPE:dance-single;
#BANNER:;
#DESCRIPTION:chewi;
#CHARTSTYLE:;
#DIFFICULTY:Easy;
#METER:2;
#METERF:0.000000;
#LASTSECONDHINT:92.308693;
#RADARVALUES:0.172256,0.258384,0.086128,0.000000,0.000000,112.000000,104.000000,8.000000,0.000000,0.000000,0.000000,0.000000,0.000000,0.000000,0.172256,0.258384,0.086128,0.000000,0.000000,112.000000,104.000000,8.000000,0.000000,0.000000,0.000000,0.000000,0.000000,0.000000;
#CREDIT:chewi;
#NOTES:
0000
0000
0000
0000
,
0000
0000
0000
0000
,
0000
0000
0000
0000
,
0000
0000
0000
0000
,
1000
1000
0100
0000
,
0100
0010
0001
0000
,
0001
0001
0100
0000
,
0100
0010
1000
0000
,
0001
0001
1000
0000
,
0100
0010
0100
0000
,
1000
1000
0001
0000
,
1000
0001
1000
0001
,
1000
0000
0001
0000
,
1001
1001
1001
1001
,
0100
0000
0010
0000
,
0100
0000
0001
0000
,
1000
0000
0001
0000
,
0010
0000
0100
0000
,
0010
0010
0010
0000
,
0001
0001
0001
0000
,
1000
0000
0000
0000
,
1000
0100
0001
0000
,
0001
0000
0000
0000
,
0001
0100
1000
0000
,
0100
0100
0001
0000
,
0010
0100
1000
0000
,
1000
1000
0010
0000
,
0010
0100
0001
0000
,
1000
1000
0001
0000
,
0010
0100
0010
0000
,
0001
1000
0001
0000
,
1001
1001
1001
1001
,
0001
0100
0001
0000
,
0100
0001
0100
0000
,
0010
0100
0010
0000
,
0100
0010
0100
0000
,
0001
1000
0001
0000
,
1000
0001
1000
0000
,
1000
0010
1000
0000
,
0010
1000
0010
1000
,
0010
0000
0000
0000
;

//---------------dance-single - chewi----------------
#NOTEDATA:;
#CHARTNAME:chewi;
#CHARTHASH:2095987033;
#STEPSTYPE:dance-single;
#BANNER:;
#DESCRIPTION:chewi;
#CHARTSTYLE:;
#DIFFICULTY:Medium;
#METER:5;
#METERF:0.000000;
#LASTSECONDHINT:92.308693;
#RADARVALUES:0.293758,0.344512,0.409108,0.000000,0.053830,191.000000,153.000000,38.000000,0.000000,0.000000,0.000000,0.000000,0.000000,0.000000,0.293758,0.344512,0.409108,0.000000,0.053830,191.000000,153.000000,38.000000,0.000000,0.000000,0.000000,0.000000,0.000000,0.000000;
#CREDIT:chewi;
#NOTES:
// measure 0
0000
0000
0000
0000
,  // measure 1
0000
0000
0000
0000
,  // measure 2
0000
0000
0000
0000
,  // measure 3
0000
0000
0000
0000
,  // measure 4
0001
0000
0000
0001
0000
0000
0001
0000
0010
0000
0000
0000
0100
0000
0000
0000
,  // measure 5
1000
0001
1001
1001
,  // measure 6
0101
0000
0000
0100
0000
0000
0100
0000
0000
0000
0000
0000
0100
0000
0000
0000
,  // measure 7
0001
0010
0011
0011
,  // measure 8
1001
0000
0000
1000
0000
0000
1000
0000
0000
0000
0001
0000
0000
0000
0000
0000
,  // measure 9
0100
0000
0000
0100
0000
0000
0100
0000
0110
0000
0000
0000
0110
0000
0000
0000
,  // measure 10
1010
0000
0000
0010
0000
0000
0010
0000
0000
0000
1000
0000
0010
0000
0000
0000
,  // measure 11
1010
0101
1010
0101
,  // measure 12
0001
0001
1000
1000
,  // measure 13
1100
0101
1100
0101
,  // measure 14
0100
0000
0001
0000
0100
0100
0100
0000
,  // measure 15
0010
1000
0001
0010
,  // measure 16
0001
0000
0010
0000
0100
0100
0100
0000
,  // measure 17
0010
0001
1000
0010
,  // measure 18
0100
0000
0100
0000
0010
0010
0010
0000
,  // measure 19
0110
1001
0110
1001
,  // measure 20
0001
0000
0000
0001
0000
0001
0000
0000
,  // measure 21
0001
0010
1000
0100
,  // measure 22
0001
0000
0000
0010
0001
0000
0000
0010
,  // measure 23
0100
0100
1000
1000
,  // measure 24
1000
0000
0000
1000
0000
0000
1000
0000
0100
0000
0000
0000
0010
0000
0000
0000
,  // measure 25
0001
1000
1001
1001
,  // measure 26
1010
0000
0000
0010
0000
0000
0010
0000
0000
0000
0000
0000
0010
0000
0000
0000
,  // measure 27
1000
0100
1100
1100
,  // measure 28
1001
0000
0000
0001
0000
0000
0001
0000
0000
0000
1000
0000
0000
0000
0000
0000
,  // measure 29
0010
0000
0000
0010
0000
0000
0010
0000
0110
0000
0000
0000
0110
0000
0000
0000
,  // measure 30
0101
0000
0000
0100
0000
0000
0100
0000
0000
0000
0001
0000
0100
0000
0000
0000
,  // measure 31
0101
1010
0101
1010
,  // measure 32
1000
0100
1000
0010
,  // measure 33
0100
0001
0010
0100
,  // measure 34
0010
0001
0100
0001
,  // measure 35
0100
0100
0010
0010
,  // measure 36
0001
0010
0001
0100
,  // measure 37
0010
1000
0100
0010
,  // measure 38
0100
1000
0010
1000
,  // measure 39
1010
0101
1010
0101
,  // measure 40
1000
0000
0000
0000
;

//---------------dance-single - chewi----------------
#NOTEDATA:;
#CHARTNAME:chewi;
#CHARTHASH:3081183329;
#STEPSTYPE:dance-single;
#BANNER:;
#DESCRIPTION:chewi;
#CHARTSTYLE:;
#DIFFICULTY:Hard;
#METER:8;
#METERF:0.000000;
#LASTSECONDHINT:92.308693;
#RADARVALUES:0.449096,0.581364,0.506002,0.032298,0.075362,292.000000,245.000000,47.000000,3.000000,0.000000,0.000000,0.000000,0.000000,0.000000,0.449096,0.581364,0.506002,0.032298,0.075362,292.000000,245.000000,47.000000,3.000000,0.000000,0.000000,0.000000,0.000000,0.000000;
#CREDIT:chewi;
#NOTES:
0000
0000
0000
0000
,
0000
0000
0000
0000
,
0000
0000
0000
0000
,
0000
0000
0000
0000
0000
0000
0000
0000
0000
0000
0001
0000
0100
0010
1000
0000
,
1001
0000
0000
0001
0000
0000
1000
0000
0000
0000
0100
0000
0100
0000
0010
0000
,
0001
0010
0100
1000
1100
0000
1010
0000
,
0110
0000
0000
0010
0000
0000
0100
0000
0000
0000
0001
0000
0001
0000
1000
0000
,
0100
0010
0001
1000
1100
0000
1010
0000
,
0110
0000
0000
0100
0000
0000
0010
0000
0000
0000
1000
0000
1000
0000
0001
0000
,
0010
0100
1000
0001
0011
0000
0101
0000
,
1001
0000
0000
1000
0000
0000
0001
0000
0000
0000
1000
0000
0100
0010
0001
0000
,
0011
0110
1100
1001
,
1000
1000
1000
0000
0001
0001
0001
0000
,
1001
1001
0101
0101
,
1010
1000
0100
0000
0010
0001
0100
0000
,
0010
1000
0100
0010
0011
0001
0011
0010
,
0110
0100
1000
0010
0100
0001
0010
0000
,
0100
1000
0010
0100
0101
0001
0101
0100
,
0001
0100
0100
0000
1000
0010
0010
0000
,
0001
0100
1000
0010
0001
0100
1000
0010
,
0002
0000
0000
0003
,
1000
0001
0010
1000
0001
0010
1000
0000
,
2000
0100
0010
3100
,
0002
0000
0000
0000
0100
0000
0000
0000
1003
0000
0100
0000
0010
0001
1000
0000
,
1001
0000
1000
0000
0010
0100
0001
0000
0100
0000
0100
0000
0100
0000
0010
0000
,
1000
0100
0010
0100
1100
0000
1010
0000
,
0110
0010
0010
0100
0100
0001
1000
1000
,
0100
0010
0001
1000
1100
0000
1010
0000
,
0110
0100
0000
0010
0010
0010
0010
0000
,
0010
0100
0001
0010
0011
0000
0101
0000
,
1001
0000
1000
0000
1000
0000
0001
0000
0001
0000
1000
0000
0100
0010
0001
0000
,
0011
0011
0110
0110
1100
1100
1001
1001
,
1000
0000
1000
0000
1000
0000
0001
0000
0001
0000
0001
0000
1000
0001
0000
0000
,
0001
0000
0001
0000
0001
0000
1000
0000
1000
0000
1000
0000
0001
1000
0000
0000
,
1100
1000
0001
0100
0001
1000
0001
0000
,
0101
0000
0001
0000
0001
0000
1000
0000
1000
0000
1000
0000
0100
0010
0000
0000
,
0010
0000
0010
0000
0010
0000
0100
0000
0100
0000
0100
0000
0010
0100
0000
0000
,
0100
0100
0100
0010
0010
0010
0100
1000
,
1010
1000
0001
0100
0001
1000
0001
0000
,
0101
0000
0001
0000
0001
0000
1000
0000
1000
0000
1000
0000
0100
0010
0001
0000
,
0011
0000
0000
0000
;
