#VERSION:0.83;
#TITLE:F*Me;
#SUBTITLE:;
#ARTIST:Shygirl feat. Yseult;
#TITLETRANSLIT:;
#SUBTITLETRANSLIT:;
#ARTISTTRANSLIT:;
#GENRE:Tech House;
#ORIGIN:;
#TAGS:;
#CREDIT:chewi;
#BANNER:F Me.png;
#BACKGROUND:F Me-bg.png;
#PREVIEWVID:;
#JACKET:F Me-jacket.png;
#CDIMAGE:;
#DISCIMAGE:;
#LYRICSPATH:;
#CDTITLE:cdtitle.png;
#MUSIC:F Me.ogg;
#OFFSET:1.229000;
#SAMPLESTART:72.755997;
#SAMPLELENGTH:12.000000;
#SELECTABLE:YES;
#BPMS:0.000000=133.000000
;
#STOPS:;
#DELAYS:;
#WARPS:;
#TIMESIGNATURES:0.000000=4=4
;
#TICKCOUNTS:0.000000=4
;
#COMBOS:0.000000=1
;
#SPEEDS:0.000000=1.000000=0.000000=0
;
#SCROLLS:0.000000=1.000000
;
#FAKES:;
#LABELS:0.000000=Song Start
;
#BGCHANGES:3.000=F Me.mp4=1.000=1=0=1===CrossFade==,
251.000=F Me-bg.png=1.000=1=0=1===CrossFade==,
99999=-nosongbg-=1.000=0=0=0 // don't automatically add -songbackground-
;
#KEYSOUNDS:;
#ATTACKS:
;

//---------------dance-single - chewi----------------
#NOTEDATA:;
#CHARTNAME:chewi;
#CHARTHASH:1726212416;
#STEPSTYPE:dance-single;
#BANNER:;
#DESCRIPTION:chewi;
#CHARTSTYLE:;
#DIFFICULTY:Beginner;
#METER:2;
#METERF:0.000000;
#LASTSECONDHINT:112.455215;
#RADARVALUES:0.098403,0.166907,0.044155,0.061817,0.000000,78.000000,73.000000,5.000000,7.000000,0.000000,0.000000,0.000000,0.000000,0.000000,0.098403,0.166907,0.044155,0.061817,0.000000,78.000000,73.000000,5.000000,7.000000,0.000000,0.000000,0.000000,0.000000,0.000000;
#CREDIT:chewi;
#NOTES:
0000
0000
0000
0000
,
0000
0000
0000
0000
,
0000
0000
0000
0000
,
0000
0000
0000
0000
,
0000
0000
0000
0000
,
0001
0000
0010
0000
,
1000
0000
0100
0000
,
0001
0000
0010
0000
,
1000
0000
0001
0000
,
0000
0100
0000
0100
,
0000
0010
0000
0010
,
0000
0100
0000
0100
,
0200
0000
0000
0300
,
0100
0000
0000
0000
,
0001
0000
0000
0000
,
1000
0000
0000
0000
,
0100
0000
0000
0000
,
0110
0000
0000
0000
,
1000
0000
0000
0000
,
0001
0000
0000
0000
,
1000
0000
0000
0000
,
0010
0000
0000
0000
,
0001
0000
0000
0000
,
0100
0000
0000
0000
,
0001
0000
0000
0000
,
0200
0000
0000
0300
,
0100
0000
0000
0000
,
0020
0000
0000
0030
,
0010
0000
0000
0000
,
0002
0000
0000
0003
,
0001
0000
0000
0000
,
2000
0000
0000
3000
,
1000
0000
0000
0000
,
0110
0000
0000
0000
,
1001
0000
0000
0000
,
1001
0000
0000
0000
,
0110
0000
0000
0000
,
0000
0001
0000
0001
,
0000
1000
0000
1000
,
0000
0001
0000
0001
,
0000
1000
0000
1000
,
0010
0000
0010
0000
,
0010
0000
0000
0000
,
1000
0000
1000
0000
,
1000
0000
0000
0000
,
0100
0000
0100
0000
,
0100
0000
0000
0000
,
0001
0000
0001
0000
,
0001
0000
0000
0000
,
0010
0000
0010
0000
,
0010
0000
0000
0000
,
0001
0000
0001
0000
,
0001
0000
0000
0000
,
0100
0000
0100
0000
,
0100
0000
0000
0000
,
0010
0000
0010
0000
,
0010
0000
0000
0000
,
0200
0000
0000
0000
,
0000
0000
0000
0000
,
0000
0000
0000
0320
,
0000
0000
0000
0000
,
0000
0000
0000
0000
,
0000
0000
0000
0000
,
0030
0000
0000
0000
;

//---------------dance-single - chewi----------------
#NOTEDATA:;
#CHARTNAME:chewi;
#CHARTHASH:4251546017;
#STEPSTYPE:dance-single;
#BANNER:;
#DESCRIPTION:chewi;
#CHARTSTYLE:;
#DIFFICULTY:Easy;
#METER:4;
#METERF:0.000000;
#LASTSECONDHINT:112.455215;
#RADARVALUES:0.189236,0.250360,0.035324,0.105972,0.000000,150.000000,146.000000,4.000000,12.000000,0.000000,0.000000,0.000000,0.000000,0.000000,0.189236,0.250360,0.035324,0.105972,0.000000,150.000000,146.000000,4.000000,12.000000,0.000000,0.000000,0.000000,0.000000,0.000000;
#CREDIT:chewi;
#NOTES:
0000
0000
0000
0000
,
0000
0000
0000
0000
,
0000
0000
0000
0000
,
0000
0000
0000
0000
,
0000
0000
0000
0000
,
0001
0100
0010
0000
,
1000
0100
0010
0000
,
0010
0010
0100
0000
,
1000
1000
0001
0000
,
0000
1000
0000
1000
,
0000
0001
0000
0001
,
0000
0100
0000
0100
,
0100
0010
0100
0000
,
0010
0000
0010
0000
,
0010
1000
0010
0000
,
1000
0000
0001
0000
,
0100
0000
0010
0000
,
0110
0000
1001
0000
,
1000
0100
0001
0000
,
0001
0100
1000
0000
,
1000
0001
1000
0000
,
0010
0000
0100
0000
,
0001
0000
1000
0000
,
0100
0000
0010
0000
,
0001
0000
0010
0000
,
0100
0100
0100
0000
,
0010
0001
0100
0000
,
0010
0010
0010
0000
,
0100
0010
1000
0000
,
0001
0001
0001
0000
,
1000
0001
0100
0000
,
0010
0010
0010
0000
,
1000
0001
0010
0000
,
0220
0000
0000
0330
,
0100
0100
0100
0000
,
2002
0000
0000
3003
,
1000
0001
1000
0000
,
0001
0001
0100
0100
,
0001
0001
1000
1000
,
0010
0010
1000
1000
,
0100
0100
0100
0100
,
0020
0000
0032
0000
,
0013
0010
0100
0000
,
2000
0000
3002
0000
,
1003
0001
0100
0000
,
0200
0000
0320
0000
,
1030
0010
1000
0000
,
0001
0000
0010
0000
,
0100
1000
0100
1000
,
0010
0100
0010
0100
,
0010
0000
1000
0000
,
0001
1000
0001
1000
,
0001
0000
1000
0000
,
0100
0010
0001
0000
,
0001
1000
0001
0000
,
1000
0010
0100
0001
,
0100
0100
0100
0100
,
0200
0000
0000
0000
,
0000
0000
0000
0000
,
0000
0000
0000
0020
,
0000
0000
0000
0000
,
0000
0000
0000
0000
,
0000
0000
0000
0000
,
0330
0000
0000
0000
;

//---------------dance-single - chewi----------------
#NOTEDATA:;
#CHARTNAME:chewi;
#CHARTHASH:2808807171;
#STEPSTYPE:dance-single;
#BANNER:;
#DESCRIPTION:chewi;
#CHARTSTYLE:;
#DIFFICULTY:Medium;
#METER:6;
#METERF:0.000000;
#LASTSECONDHINT:112.004082;
#RADARVALUES:0.298994,0.415611,0.273762,0.105972,0.030909,237.000000,206.000000,31.000000,12.000000,2.000000,0.000000,0.000000,0.000000,0.000000,0.298994,0.415611,0.273762,0.105972,0.030909,237.000000,206.000000,31.000000,12.000000,2.000000,0.000000,0.000000,0.000000,0.000000;
#CREDIT:chewi;
#NOTES:
0000
0000
0000
0000
,
0000
0000
0000
0000
,
0000
0000
0000
0000
,
0000
0000
0000
0000
,
0000
0000
0000
0000
,
1000
0100
0010
0000
,
0001
0100
0010
0000
,
1000
0001
0010
0000
,
0100
1000
0001
0000
,
0100
0000
0000
0100
0000
0000
0100
0000
0000
0000
0000
0000
0110
0000
0000
0000
,
1000
0000
0000
1000
0000
0000
1000
0000
0000
0000
0000
0000
1001
0000
0000
0000
,
0010
0000
0000
0010
0000
0000
0010
0000
0000
0000
0000
0000
0110
0000
0000
0000
,
0100
0010
0100
0010
0001
0000
0000
0000
,
0000
0010
0000
0001
0000
0100
0000
0000
,
0000
0100
0000
0010
0000
1000
0000
0000
,
0010
0100
0010
0100
0001
0000
0000
0000
,
1000
0001
1000
0001
0100
0000
0010
0000
,
2000
3100
2000
3010
,
0020
0000
0230
0000
0301
0001
0001
0000
,
1000
0000
0001
0001
0001
0000
0010
0000
,
0100
1000
0200
0300
,
0100
1000
0100
0000
0010
0000
0001
0000
,
1000
0010
0100
0010
,
0100
0001
1000
0010
,
1000
0010
1000
0010
1000
0010
1000
0000
,
1000
0000
0001
1000
0001
0000
1000
0000
,
0010
0000
0100
0001
0100
0000
0001
0000
,
0100
0010
1000
0100
,
0010
0100
0110
0000
,
0001
0010
0100
0010
,
0001
1000
0010
0100
,
0001
0100
0010
1000
,
0001
1000
1001
0000
,
0100
0000
0000
0100
0000
0000
0100
0000
0000
0000
0010
0000
0000
0000
0000
0000
,
1000
0000
0000
1000
0000
0000
1000
0000
0000
0000
0001
0000
0000
0000
0000
0000
,
0010
0000
0000
0010
0000
0000
0010
0000
0000
0000
0100
0000
0000
0000
0000
0000
,
1000
0000
0000
1000
0000
0000
1000
0000
0000
0000
0001
0000
1000
0000
0000
0000
,
0001
0101
1000
1010
,
1000
1100
0010
0010
,
0001
0101
0100
0110
,
1000
1000
0001
0001
,
0100
0101
0100
0101
,
0100
0101
1100
0101
,
0010
1010
0010
1010
,
0010
1010
0011
1010
,
0010
0011
0010
0011
,
0010
0011
1010
0011
,
0100
1000
0100
1000
,
0100
1100
0101
1100
,
2002
3003
2002
3003
,
1000
0001
0100
0000
,
0010
0010
0010
0000
,
0100
0100
0100
0000
,
0001
0010
1000
0000
,
0010
0001
1000
0000
,
0010
0100
0001
0000
,
0100
0001
0100
0001
,
0202
0000
0000
0000
,
0000
0000
0000
0003
,
0020
0000
0000
0000
0000
M00M
0000
0000
,
0000
0000
0000
0000
,
0000
0000
0000
0000
,
0000
0000
0000
0330
;

//---------------dance-single - chewi----------------
#NOTEDATA:;
#CHARTNAME:chewi;
#CHARTHASH:4042601298;
#STEPSTYPE:dance-single;
#BANNER:;
#DESCRIPTION:chewi;
#CHARTSTYLE:;
#DIFFICULTY:Hard;
#METER:8;
#METERF:0.000000;
#LASTSECONDHINT:112.004082;
#RADARVALUES:0.454168,0.581855,0.132466,0.026493,0.088310,360.000000,345.000000,15.000000,3.000000,2.000000,0.000000,0.000000,0.000000,0.000000,0.454168,0.581855,0.132466,0.026493,0.088310,360.000000,345.000000,15.000000,3.000000,2.000000,0.000000,0.000000,0.000000,0.000000;
#CREDIT:chewi;
#NOTES:
// measure 0
0000
0000
0000
0000
,  // measure 1
0000
0000
0000
0000
,  // measure 2
0000
0000
0000
0000
,  // measure 3
0000
0000
0000
0000
,  // measure 4
0000
0000
0000
0000
,  // measure 5
1000
0010
1000
0100
1000
0000
0010
0100
,  // measure 6
0001
0010
0001
0100
0001
0000
0100
0010
,  // measure 7
1000
0001
0010
0100
1000
0000
0001
0100
,  // measure 8
0010
1000
0100
0010
0001
0000
0001
0010
,  // measure 9
0100
0000
0000
0010
0000
0000
0001
0000
0000
0000
1000
0000
0100
0000
0000
0000
,  // measure 10
1000
0000
0000
0010
0000
0000
0100
0000
0000
0000
0001
0000
0100
0000
0000
0000
,  // measure 11
0010
0000
0000
0100
0000
0000
0001
0000
0000
0000
1000
0000
0010
0000
0000
0000
,  // measure 12
1000
0100
0010
0100
1000
0000
0001
0001
,  // measure 13
0001
0000
0000
1000
0000
0000
0100
0000
0000
0000
0010
0000
0000
0000
0000
0000
,  // measure 14
0001
0000
0000
1000
0000
0000
0010
0000
0000
0000
0100
0000
0100
0000
0100
0000
,  // measure 15
0010
0000
0000
1000
0000
0000
0001
0000
0000
0000
0010
0000
0100
0000
0000
0000
,  // measure 16
0100
0010
0001
1000
0001
1000
1001
1001
,  // measure 17
0001
0100
0010
1000
1000
0010
0100
0001
,  // measure 18
1000
0000
0001
0000
0010
0000
0100
0000
1000
0100
1000
0100
1000
0000
1000
0000
,  // measure 19
1000
0000
0010
0000
0100
0000
0001
0000
0100
0001
0100
0000
0010
0000
1000
0000
,  // measure 20
0001
0000
1000
0000
0100
0000
0010
0000
0001
0010
0001
0010
0001
0000
0010
0000
,  // measure 21
0100
1000
0010
0000
0100
0000
0001
1000
,  // measure 22
0001
0010
0100
1000
0100
0000
0010
0001
,  // measure 23
1000
0010
0100
0001
0100
0000
0010
1000
,  // measure 24
0001
0100
0001
0010
0100
1000
1000
0001
,  // measure 25
1000
0000
0001
1000
0001
0000
1000
0010
,  // measure 26
0100
0100
0001
0001
1000
0000
0010
0100
,  // measure 27
0001
0100
0010
1000
0100
0000
1000
0100
,  // measure 28
0010
0010
0100
0100
0110
0000
1001
0000
,  // measure 29
0001
0100
1000
0001
0010
0000
1000
0001
,  // measure 30
1000
0100
0001
1000
0010
0000
0010
0100
,  // measure 31
1000
0001
0100
0010
1000
0001
1000
0001
,  // measure 32
0100
0010
0100
0010
1000
0000
1001
0000
,  // measure 33
0100
0000
0000
0010
0000
0000
0100
0000
0000
0000
0010
0000
0000
0000
0000
0000
,  // measure 34
1000
0000
0000
0001
0000
0000
1000
0000
0000
0000
0001
0000
0001
0000
0000
0000
,  // measure 35
1000
0000
0000
0100
0000
0000
1000
0000
0000
0000
0010
0000
0000
0000
0000
0000
,  // measure 36
0100
0000
0000
0001
0000
0000
1000
0000
0000
0000
0001
0000
0001
0000
0000
0000
,  // measure 37
0001
0101
1000
1010
,  // measure 38
1000
0000
1100
0000
0010
0001
0100
0000
,  // measure 39
0010
0110
0001
1001
,  // measure 40
1000
1000
0001
0001
1000
0000
0001
0001
,  // measure 41
1000
0100
1000
0010
1000
0100
0001
0100
,  // measure 42
1000
0010
0100
0001
0100
0000
0000
0000
,  // measure 43
0001
0100
0001
0010
0001
0100
1000
0100
,  // measure 44
0001
0010
0100
1000
0100
0000
1000
0000
,  // measure 45
0100
0010
0001
0100
1000
0100
0001
0010
,  // measure 46
1000
0001
0100
1000
0100
0000
1000
0000
,  // measure 47
1000
0001
0100
0010
0100
0000
0101
0000
,  // measure 48
0001
0100
0001
0100
0001
0100
0001
0100
0001
0000
0100
0000
0010
0000
1000
0000
,  // measure 49
0001
0000
1000
0100
0010
0000
0100
0100
,  // measure 50
1000
0010
0100
0010
1000
0000
0001
0001
,  // measure 51
0001
0100
0010
0100
0001
0010
0100
1000
,  // measure 52
0100
0010
0001
1000
0010
0100
0010
0100
,  // measure 53
0001
1000
0100
0000
1100
0000
1000
0010
,  // measure 54
0100
0010
0110
0000
0101
0000
0100
0100
,  // measure 55
0010
0000
0000
1000
0000
0000
0001
0000
0000
0000
0010
0000
0010
0000
0000
0000
,  // measure 56
0100
1000
0010
0100
0001
0100
0001
0100
,  // measure 57
0202
0000
0000
0000
,  // measure 58
0000
0000
0000
0003
,  // measure 59
0020
0000
0000
0000
0000
M00M
0000
0000
,  // measure 60
0000
0000
0000
0000
,  // measure 61
0000
0000
0000
0000
,  // measure 62
0000
0000
0000
0330
;
