#VERSION:0.83;
#TITLE:Everybody;
#SUBTITLE:;
#ARTIST:Nicki Minaj feat. Lil Uzi Vert;
#TITLETRANSLIT:;
#SUBTITLETRANSLIT:;
#ARTISTTRANSLIT:;
#GENRE:;
#CREDIT:;
#MUSIC:Everybody.ogg;
#BANNER:;
#BACKGROUND:;
#JACKET:;
#DISCIMAGE:;
#CDIMAGE:;
#SELECTABLE:YES;
#LYRICSPATH:;
#CDTITLE:cdtitle.png;
#SAMPLESTART:64.363998;
#SAMPLELENGTH:12.000000;
#OFFSET:-0.016;
#BPMS:0.000=138.000;
#STOPS:;
#WARPS:;
#DELAYS:;
#SPEEDS:;
#SCROLLS:;
#TICKCOUNTS:;
#TIMESIGNATURES:0.000=4=4;
#LABELS:;
#COMBOS:;
#FAKES:;
#BGCHANGES:;
#FGCHANGES:;
#ATTACKS:;
#TAGS:;
#PREVIEWVID:;
#KEYSOUNDS:;

//---------------dance-single - ---------------
#NOTEDATA:;
#CHARTNAME:;
#CHARTSTYLE:;
#CREDIT:;
#STEPSTYPE:dance-single;
#DESCRIPTION:;
#DIFFICULTY:Beginner;
#METER:1;
#METERF:1;
#RADARVALUES:0.162312,0.194602,0.084610,0.000000,0.000000,94.000000,87.000000,7.000000,0.000000,0.000000,0.000000,0.000000,0.000000,0.000000,0.162312,0.194602,0.084610,0.000000,0.000000,94.000000,87.000000,7.000000,0.000000,0.000000,0.000000,0.000000,0.000000,0.000000;
#NOTES:
// measure 0
0000
0000
0000
0000
,  // measure 1
0000
0000
0000
0000
,  // measure 2
0000
0000
0000
0000
,  // measure 3
0000
0000
0000
0000
,  // measure 4
1000
0000
0000
0000
,  // measure 5
1001
0000
0000
0000
,  // measure 6
0110
0000
0000
0000
,  // measure 7
1001
0000
0000
0000
,  // measure 8
0110
0000
0000
0000
,  // measure 9
0100
0000
0100
0000
,  // measure 10
0001
0000
1000
0000
,  // measure 11
0100
0000
0100
0000
,  // measure 12
0010
0000
0001
0000
,  // measure 13
1000
0000
0001
0000
,  // measure 14
1000
0000
0010
0000
,  // measure 15
1000
0000
0001
0000
,  // measure 16
1000
0000
0100
0000
,  // measure 17
0010
0000
0001
0000
,  // measure 18
0100
0000
0100
0000
,  // measure 19
0001
0000
0010
0000
,  // measure 20
0010
0000
0100
0000
,  // measure 21
1000
0000
0001
0000
,  // measure 22
0100
0000
0010
0000
,  // measure 23
1000
0000
0001
0000
,  // measure 24
0010
0000
0010
0000
,  // measure 25
0010
0010
0010
0000
,  // measure 26
0100
0100
0100
0000
,  // measure 27
1000
1000
1000
0000
,  // measure 28
0001
0001
0001
0000
,  // measure 29
1000
0000
0001
0000
,  // measure 30
1000
1000
1000
0000
,  // measure 31
0001
0000
1000
0000
,  // measure 32
0001
0001
0001
0000
,  // measure 33
1001
0000
0100
0000
,  // measure 34
0100
0000
0100
0000
,  // measure 35
1001
0000
0010
0000
,  // measure 36
0010
0000
0010
0000
,  // measure 37
1000
0000
1000
0000
,  // measure 38
0100
0000
0100
0000
,  // measure 39
0010
0000
0010
0000
,  // measure 40
0001
0000
0001
0000
,  // measure 41
1001
0000
0001
0000
,  // measure 42
0100
0000
0100
0000
,  // measure 43
0010
0000
0010
0000
,  // measure 44
1000
0000
1000
0000
,  // measure 45
1000
1000
1000
0000
,  // measure 46
0001
0000
0000
0000
;

//---------------dance-single - ---------------
#NOTEDATA:;
#CHARTNAME:;
#CHARTSTYLE:;
#CREDIT:;
#STEPSTYPE:dance-single;
#DESCRIPTION:;
#DIFFICULTY:Easy;
#METER:4;
#METERF:4;
#RADARVALUES:0,0,0,0,0;
#NOTES:
// measure 0
0000
0000
0000
0000
,  // measure 1
0000
0000
0000
0000
,  // measure 2
0000
0000
0000
0000
,  // measure 3
0000
0000
0000
0000
,  // measure 4
0000
0000
0000
0000
,  // measure 5
1001
0000
0100
0000
,  // measure 6
1001
0000
0010
0000
,  // measure 7
1001
0000
0100
0000
,  // measure 8
1001
1001
1001
1001
,  // measure 9
0010
1000
0100
0001
,  // measure 10
0010
1000
0100
0001
,  // measure 11
0010
1000
0100
0001
,  // measure 12
0010
0100
1000
0001
,  // measure 13
0001
0100
1000
0010
,  // measure 14
0001
0100
1000
0010
,  // measure 15
0001
0100
1000
0010
,  // measure 16
0001
0100
1000
0100
,  // measure 17
0100
0010
0002
0003
,  // measure 18
0010
0100
2000
3000
,  // measure 19
0010
0100
0002
0003
,  // measure 20
0100
0010
2000
3000
,  // measure 21
0001
1000
0200
0300
,  // measure 22
0010
0001
2000
3000
,  // measure 23
0001
0100
0020
0030
,  // measure 24
1001
1001
1001
1001
,  // measure 25
1000
0001
0010
0010
,  // measure 26
0100
1000
0001
0001
,  // measure 27
1000
0001
0100
0100
,  // measure 28
0010
1000
0001
0001
,  // measure 29
1000
0100
1000
0100
,  // measure 30
0010
0001
0010
0001
,  // measure 31
1000
0010
1000
0010
,  // measure 32
0100
0001
0100
0001
,  // measure 33
0100
0010
1000
1000
,  // measure 34
0100
0010
0001
0001
,  // measure 35
0100
0010
1000
0100
,  // measure 36
0010
0001
0100
0010
,  // measure 37
0010
1000
0100
0001
,  // measure 38
0010
1000
0100
0001
,  // measure 39
0010
1000
0100
0001
,  // measure 40
0010
0100
1000
0001
,  // measure 41
0001
0100
1000
0010
,  // measure 42
0001
0100
1000
0010
,  // measure 43
0001
0100
1000
0010
,  // measure 44
0001
0100
1000
0100
,  // measure 45
0100
0010
0002
0003
;

//---------------dance-single - ---------------
#NOTEDATA:;
#CHARTNAME:;
#CHARTSTYLE:;
#CREDIT:;
#STEPSTYPE:dance-single;
#DESCRIPTION:;
#DIFFICULTY:Medium;
#METER:6;
#METERF:6;
#RADARVALUES:0,0,0,0,0;
#NOTES:
// measure 0
0000
0000
0000
0000
,  // measure 1
0000
0000
0000
0000
,  // measure 2
0000
0000
0000
0000
,  // measure 3
0000
0000
0000
0000
,  // measure 4
0000
0000
0000
0000
,  // measure 5
1000
0000
0000
0000
0100
0000
0000
0000
1000
0000
0000
1000
0000
0000
1000
0000
,  // measure 6
0010
0000
0000
0000
0100
0000
0000
0000
0001
0000
0000
0001
0000
0000
0001
0000
,  // measure 7
1000
0000
0000
0000
0001
0000
0000
0000
1000
0000
0000
0001
0000
0000
1000
0000
,  // measure 8
1001
0110
1001
0110
,  // measure 9
0010
0100
0002
0003
,  // measure 10
0010
0100
2000
3000
,  // measure 11
0100
0010
0002
0003
,  // measure 12
1000
1100
0001
0101
,  // measure 13
1001
0000
0000
0000
0100
0000
0000
0000
0001
0000
0000
0001
0000
0000
0001
0000
,  // measure 14
0010
0000
0000
0000
0100
0000
0000
0000
1000
0000
0000
1000
0000
0000
1000
0000
,  // measure 15
0001
0000
0000
0000
1000
0000
0000
0000
0001
0000
0000
1000
0000
0000
0001
0000
,  // measure 16
1001
0110
1001
0110
,  // measure 17
0010
0100
0002
0003
,  // measure 18
0010
0100
0001
0000
0202
0000
0303
0000
,  // measure 19
0100
0010
2000
3000
,  // measure 20
0100
0010
1000
0000
2020
0000
3030
0000
,  // measure 21
1000
0000
0100
0000
1000
0100
1000
0000
,  // measure 22
0001
0000
0100
0000
0001
0100
0001
0000
,  // measure 23
0100
0000
0100
0000
0010
1000
0001
0000
,  // measure 24
1001
0110
1001
0110
,  // measure 25
0200
0000
0000
0000
0010
0000
0000
0000
0001
0000
0000
0001
0000
0000
0001
0000
,  // measure 26
0010
0000
0000
0000
0001
0000
0000
0000
0010
0000
0000
0010
0000
0000
0310
0000
,  // measure 27
0020
0000
0000
0000
1000
0000
0000
0000
0100
0000
0000
0100
0000
0000
0100
0000
,  // measure 28
1000
0000
0000
0000
0100
0000
0000
0000
1000
0000
0000
1000
0000
0000
1030
0000
,  // measure 29
1000
1000
0100
0100
,  // measure 30
1000
0100
1000
0000
0001
0100
0001
0000
,  // measure 31
0100
0100
0010
0010
,  // measure 32
0100
0010
1000
0000
0010
0100
0001
0000
,  // measure 33
0010
0100
0001
1000
,  // measure 34
0010
0100
1000
0001
,  // measure 35
0100
1000
0001
0010
,  // measure 36
0110
1001
0110
1001
,  // measure 37
0100
0010
2000
3000
,  // measure 38
0100
0010
0002
0003
,  // measure 39
0010
0100
2000
3000
,  // measure 40
0001
0011
1000
1010
,  // measure 41
1001
0000
0000
0000
0010
0000
0000
0000
1000
0000
0000
1000
0000
0000
1000
0000
,  // measure 42
0100
0000
0000
0000
0010
0000
0000
0000
0001
0000
0000
0001
0000
0000
0001
0000
,  // measure 43
1000
0000
0000
0000
0001
0000
0000
0000
1000
0000
0000
0001
0000
0000
1000
0000
,  // measure 44
1001
0110
1001
0110
,  // measure 45
0100
0010
0220
0330
;

//---------------dance-single - ---------------
#NOTEDATA:;
#CHARTNAME:;
#CHARTSTYLE:;
#CREDIT:;
#STEPSTYPE:dance-single;
#DESCRIPTION:;
#DIFFICULTY:Hard;
#METER:8;
#METERF:8;
#RADARVALUES:0,0,0,0,0;
#NOTES:
// measure 0
0000
0000
0000
0000
,  // measure 1
0000
0000
0000
0000
,  // measure 2
0000
0000
0000
0000
,  // measure 3
0000
0000
0000
0000
,  // measure 4
0000
0000
0000
0000
,  // measure 5
0010
0000
0000
0000
0011
0000
0000
0000
1000
0000
0001
0100
0000
0000
0010
0000
,  // measure 6
0100
0000
0000
0000
0110
0000
0000
0000
0100
0000
0010
1000
0000
0000
0100
0000
,  // measure 7
1000
0000
0000
0000
1100
0000
0000
0000
0001
0000
1000
0001
0000
0000
0001
0000
,  // measure 8
0011
0110
1100
1001
,  // measure 9
1000
0000
0100
0000
0001
0000
0100
0000
1000
0000
0000
0010
0000
0000
1000
0000
,  // measure 10
0001
0000
0100
0000
1000
0000
0100
0000
0001
0000
0000
0010
0000
0000
0001
0000
,  // measure 11
1000
0000
0010
0000
0001
0000
0010
0000
1000
0000
0000
0100
0000
0000
1000
0000
,  // measure 12
0001
0000
0010
0000
1000
0000
0010
0000
0001
0000
0000
0100
0000
0000
0001
0000
,  // measure 13
1000
0100
0010
0100
1000
0001
0100
0000
,  // measure 14
0001
0100
0010
0100
0001
1000
0100
0000
,  // measure 15
0010
0001
1000
0100
0001
0100
1000
0000
,  // measure 16
1100
0110
0011
1001
,  // measure 17
1000
0010
1000
0100
1100
0000
0101
0000
,  // measure 18
0001
0100
1000
0100
0101
0000
0011
0000
,  // measure 19
1000
0010
0001
0010
1010
0000
0101
0000
,  // measure 20
1000
0001
0010
0100
1100
0000
0101
0000
,  // measure 21
0100
0001
1000
0010
0101
0000
1010
0000
,  // measure 22
1000
0010
0001
0010
1010
0000
0011
0000
,  // measure 23
0010
0100
1000
0001
1001
0000
0110
0000
,  // measure 24
0101
0110
1010
1001
,  // measure 25
1000
0000
0000
0010
0000
0000
1000
0000
0100
0000
0000
0010
0000
0000
0001
0000
,  // measure 26
0100
0000
0000
0001
0000
0000
0100
0000
1000
0000
0000
0000
1100
0000
0000
0000
,  // measure 27
0001
0000
0000
0010
0000
0000
0001
0000
0100
0000
0000
0010
0000
0000
1000
0000
,  // measure 28
0100
0000
0000
1000
0000
0000
0100
0000
0001
0000
0000
0000
0101
0000
0000
0000
,  // measure 29
1100
1000
0100
0000
1000
0001
0010
0000
,  // measure 30
0001
1000
0010
0000
0100
0001
1000
0001
,  // measure 31
0101
0001
0100
0000
0001
1000
0010
0000
,  // measure 32
1000
0001
0010
0000
0100
1000
0001
1000
,  // measure 33
1001
1000
0001
1000
0010
0100
0010
0100
,  // measure 34
0001
0100
0001
0100
0010
1000
0010
1000
,  // measure 35
0100
1000
0100
1000
0100
0010
0100
0010
,  // measure 36
0011
0110
MM00
M00M
,  // measure 37
0001
0000
0010
0000
1000
0000
0010
0000
0001
0000
0000
0100
0000
0000
0001
0000
,  // measure 38
1000
0000
0010
0000
0001
0000
0010
0000
1000
0000
0000
0100
0000
0000
1000
0000
,  // measure 39
0001
0000
0100
0000
1000
0000
0100
0000
0001
0000
0000
0010
0000
0000
0001
0000
,  // measure 40
1000
0000
0100
0000
0001
0000
0100
0000
1000
0000
0000
0010
0000
0000
1000
0000
,  // measure 41
0001
0010
0100
0010
0001
1000
0010
0000
,  // measure 42
1000
0010
0100
0010
1000
0001
0010
0000
,  // measure 43
0100
1000
0001
0010
1000
0010
0001
0000
,  // measure 44
0011
0110
1100
1001
,  // measure 45
0001
1000
0200
0300
;
