#VERSION:0.83;
#TITLE:ELECTRICAL PARADE;
#SUBTITLE:(Retro Future MIX);
#ARTIST:TOMOSUKE;
#TITLETRANSLIT:;
#SUBTITLETRANSLIT:;
#ARTISTTRANSLIT:;
#GENRE:;
#CREDIT:;
#MUSIC:ELECTRICAL PARADE (Retro Future MIX).ogg;
#BANNER:;
#BACKGROUND:ELECTRICAL PARADE (Retro Future MIX)-bg.png;
#JACKET:;
#DISCIMAGE:;
#CDIMAGE:;
#SELECTABLE:YES;
#LYRICSPATH:;
#CDTITLE:cdtitle.png;
#SAMPLESTART:53.528000;
#SAMPLELENGTH:15.000000;
#BPMS:0.000=130.025;
#STOPS:;
#WARPS:;
#DELAYS:;
#SPEEDS:;
#SCROLLS:;
#TICKCOUNTS:;
#TIMESIGNATURES:;
#LABELS:;
#COMBOS:;
#FAKES:;
#BGCHANGES:;
#FGCHANGES:;
#ATTACKS:;
#DISPLAYBPM:130.000000;
#KEYSOUNDS:;

//---------------dance-single - ---------------
#NOTEDATA:;
#CHARTNAME:;
#CHARTSTYLE:;
#CREDIT:;
#STEPSTYPE:dance-single;
#DESCRIPTION:;
#DIFFICULTY:Beginner;
#METER:1;
#METERF:1;
#RADARVALUES:0.130925,0.161147,0.000000,0.152746,0.000000,90.000000,90.000000,0.000000,15.000000,0.000000,0.000000,0.130925,0.161147,0.000000,0.152746,0.000000,90.000000,90.000000,0.000000,15.000000,0.000000,0.000000;
#NOTES:
// measure 0
0000
0000
0000
0000
,  // measure 1
0000
0000
0000
0000
,  // measure 2
0000
0000
0000
0000
,  // measure 3
0000
0000
0000
0000
,  // measure 4
0000
0000
0000
0000
,  // measure 5
0000
1000
0000
1000
,  // measure 6
0000
0001
0000
0001
,  // measure 7
0000
0100
0000
0100
,  // measure 8
0000
0010
0000
0010
,  // measure 9
0000
1000
0000
1000
,  // measure 10
0000
0100
0000
0100
,  // measure 11
0000
0010
0000
0010
,  // measure 12
0000
0001
0000
0001
,  // measure 13
0002
0000
0000
0003
,  // measure 14
2000
0000
0000
3000
,  // measure 15
0002
0000
0000
0003
,  // measure 16
0100
0100
0100
0000
,  // measure 17
0100
0000
0010
0000
,  // measure 18
1000
0000
0001
0000
,  // measure 19
0010
0000
0100
0000
,  // measure 20
1000
0000
0100
0000
,  // measure 21
0010
0000
0001
0000
,  // measure 22
1000
0000
0010
0000
,  // measure 23
0100
0000
0001
0000
,  // measure 24
0100
0100
0100
0000
,  // measure 25
0200
0000
0000
0300
,  // measure 26
0020
0000
0000
0030
,  // measure 27
2000
0000
0000
3000
,  // measure 28
0002
0000
0000
0003
,  // measure 29
1000
0000
0001
0000
,  // measure 30
0001
0001
0001
0000
,  // measure 31
0001
0000
1000
0000
,  // measure 32
1000
1000
1000
0000
,  // measure 33
0100
0000
0010
0000
,  // measure 34
0100
0100
0100
0000
,  // measure 35
0010
0000
0100
0000
,  // measure 36
0010
0010
0010
0000
,  // measure 37
0020
0000
0000
0030
,  // measure 38
0002
0000
0000
0003
,  // measure 39
2000
0000
0000
3000
,  // measure 40
0020
0000
0000
0030
,  // measure 41
0200
0000
0000
0300
,  // measure 42
0002
0000
0000
0003
,  // measure 43
0020
0000
0000
0030
,  // measure 44
0200
0000
0000
0300
,  // measure 45
0010
0000
0001
0000
,  // measure 46
0100
0000
1000
0000
,  // measure 47
0010
0000
0001
0000
,  // measure 48
0100
0000
1000
0000
,  // measure 49
1000
0000
0001
0000
,  // measure 50
0001
0001
0001
0000
,  // measure 51
0001
0000
1000
0000
,  // measure 52
1000
1000
1000
1000
;

//---------------dance-single - ---------------
#NOTEDATA:;
#CHARTNAME:;
#CHARTSTYLE:;
#CREDIT:;
#STEPSTYPE:dance-single;
#DESCRIPTION:;
#DIFFICULTY:Easy;
#METER:4;
#METERF:4;
#RADARVALUES:0.235666,0.268579,0.112014,0.336042,0.000000,162.000000,151.000000,11.000000,33.000000,0.000000,0.000000,0.235666,0.268579,0.112014,0.336042,0.000000,162.000000,151.000000,11.000000,33.000000,0.000000,0.000000;
#NOTES:
// measure 0
0000
0000
0000
0000
,  // measure 1
0000
0000
0000
0000
,  // measure 2
0000
0000
0000
0000
,  // measure 3
0000
0000
0000
0000
,  // measure 4
0000
0000
0000
0000
,  // measure 5
1000
1000
0100
0000
,  // measure 6
0001
0001
0100
0000
,  // measure 7
1000
1000
0010
0000
,  // measure 8
0001
0001
0010
0000
,  // measure 9
0010
0100
1000
0000
,  // measure 10
0100
0010
0001
0000
,  // measure 11
0100
0010
1000
0000
,  // measure 12
0010
0100
0001
0000
,  // measure 13
2002
0000
0000
3003
,  // measure 14
0220
0000
0000
0330
,  // measure 15
2002
0000
0000
3003
,  // measure 16
0000
0000
1001
0000
,  // measure 17
1000
0100
0001
0010
,  // measure 18
1000
0100
0001
0000
,  // measure 19
0001
0100
1000
0010
,  // measure 20
0001
0100
1000
0000
,  // measure 21
1000
0100
0001
0010
,  // measure 22
1000
0100
0001
0000
,  // measure 23
0001
0100
1000
0010
,  // measure 24
0001
0001
0001
0001
,  // measure 25
1000
0000
0000
1000
0000
0000
1100
0000
,  // measure 26
0001
0000
0000
0001
0000
0000
0101
0000
,  // measure 27
0100
0000
0000
0100
0000
0000
0110
0000
,  // measure 28
0010
0000
0000
0010
0000
0000
1010
0000
,  // measure 29
1000
0010
1000
0100
,  // measure 30
1000
0010
0100
0001
,  // measure 31
0001
0100
0001
0010
,  // measure 32
0001
1000
0100
0100
,  // measure 33
0001
0100
0001
0010
,  // measure 34
0001
0100
0010
1000
,  // measure 35
1000
0010
1000
0100
,  // measure 36
1000
0001
0010
0010
,  // measure 37
0020
0030
0200
0300
,  // measure 38
2000
3000
0002
0003
,  // measure 39
0200
0300
0020
0030
,  // measure 40
1000
1001
0001
1001
,  // measure 41
2000
3000
0200
0300
,  // measure 42
0020
0030
0200
0300
,  // measure 43
2000
3000
0002
0003
,  // measure 44
0100
0010
0110
0000
,  // measure 45
0200
0320
0230
0320
,  // measure 46
2030
3002
2003
3002
,  // measure 47
2003
3200
2300
3200
,  // measure 48
0320
0032
0023
0031
,  // measure 49
0001
0010
1000
0100
,  // measure 50
0001
0010
1000
0000
,  // measure 51
1000
0010
0001
0100
,  // measure 52
1000
0010
0001
0100
;

//---------------dance-single - ---------------
#NOTEDATA:;
#CHARTNAME:;
#CHARTSTYLE:;
#CREDIT:;
#STEPSTYPE:dance-single;
#DESCRIPTION:;
#DIFFICULTY:Medium;
#METER:5;
#METERF:5;
#RADARVALUES:0.029095,0.050406,0.000000,0.061099,0.000000,20.000000,20.000000,0.000000,6.000000,0.000000,0.000000,0.029095,0.050406,0.000000,0.061099,0.000000,20.000000,20.000000,0.000000,6.000000,0.000000,0.000000;
#NOTES:
// measure 0
0000
0000
0000
0000
,  // measure 1
0000
0000
0000
0000
,  // measure 2
0000
0000
0000
0000
,  // measure 3
0000
0000
0000
0000
,  // measure 4
0000
0000
0000
0000
,  // measure 5
0020
0000
1030
0000
0000
0010
1000
0000
,  // measure 6
2000
0000
3100
0000
0000
1000
0100
0000
,  // measure 7
0002
0203
0320
0032
,  // measure 8
1003
0000
0001
0000
1000
0001
1000
0000
,  // measure 9
0020
0000
0031
0000
0000
0010
0001
0000
,  // measure 10
0020
0000
1030
0000
0000
0010
1000
0000
,  // measure 11
2000
3200
0320
0032
,  // measure 12
2003
3002
2003
3100
,  // measure 13
0220
0000
0000
0330
,  // measure 14
2002
0000
0000
3003
,  // measure 15
2000
0100
0001
3100
,  // measure 16
0002
0000
0000
0000
0010
0000
0000
0000
1000
0000
0000
1000
0003
0000
0000
0000
,  // measure 17
0010
0000
0100
0000
0010
1000
0001
0000
,  // measure 18
0010
0000
0100
0000
1000
0001
1000
0001
,  // measure 19
1000
0000
0010
0000
0100
0001
1000
0000
,  // measure 20
0001
1001
1000
1100
,  // measure 21
0100
0000
0010
0000
0100
1000
0001
0000
,  // measure 22
0100
0000
0010
0000
1000
0001
1000
0001
,  // measure 23
1000
0000
0100
0000
0010
0001
1000
0000
,  // measure 24
0001
0011
1000
1010
,  // measure 25
1010
0000
0000
0010
0000
0000
1000
0000
,  // measure 26
1001
0000
0000
1000
0000
0000
0001
0000
,  // measure 27
0110
0000
0000
0100
0000
0000
0010
0000
,  // measure 28
0011
0000
0000
0010
0000
0000
0001
0000
,  // measure 29
0010
0010
0200
1300
,  // measure 30
0001
0002
2003
3020
,  // measure 31
0130
0100
0020
1030
,  // measure 32
0001
0001
0100
0110
,  // measure 33
0001
1000
0100
0001
,  // measure 34
1000
0100
0001
0100
,  // measure 35
1000
0001
0010
1000
,  // measure 36
0010
0001
1000
0010
,  // measure 37
1010
0000
0100
0100
,  // measure 38
0101
0000
0001
0001
,  // measure 39
1001
0000
1000
1000
,  // measure 40
1001
0000
1001
0000
,  // measure 41
0011
0000
0100
0100
,  // measure 42
1100
0000
1000
1000
,  // measure 43
1001
0000
0001
0001
,  // measure 44
1001
0000
1001
0000
,  // measure 45
1000
0010
1000
0100
,  // measure 46
1000
0010
0100
0001
,  // measure 47
0001
0100
0001
0010
,  // measure 48
0001
0010
0100
1000
,  // measure 49
0100
0100
0020
0031
,  // measure 50
1000
2000
3002
0203
,  // measure 51
0310
0010
0200
0301
,  // measure 52
1000
1000
0010
1010
;

//---------------dance-single - ---------------
#NOTEDATA:;
#CHARTNAME:;
#CHARTSTYLE:;
#CREDIT:;
#STEPSTYPE:dance-single;
#DESCRIPTION:;
#DIFFICULTY:Hard;
#METER:7;
#METERF:7;
#RADARVALUES:0,0,0,0,0;
#NOTES:
// measure 0
0000
0000
0000
0000
,  // measure 1
0000
0000
0000
0000
,  // measure 2
0000
0000
0000
0000
,  // measure 3
0000
0000
0000
0000
,  // measure 4
0000
0000
0000
0000
,  // measure 5
2100
0000
3010
0000
0100
0001
0010
0000
,  // measure 6
0012
0000
0103
0000
0010
1000
0001
0000
,  // measure 7
0001
0001
0100
0000
0010
0010
1000
0000
,  // measure 8
0001
0000
1000
0000
0100
0010
0100
0000
,  // measure 9
0012
0000
1003
0000
0010
1000
0010
0000
,  // measure 10
0102
0000
0013
0000
0010
0100
1000
0000
,  // measure 11
1000
1000
0100
0000
0010
0010
0001
0000
,  // measure 12
0001
0000
1000
0000
0010
0100
0010
0000
,  // measure 13
0220
0000
0000
0330
,  // measure 14
2002
0000
0000
3003
,  // measure 15
1000
0001
1000
0001
1000
0010
1000
0010
,  // measure 16
0100
0000
0001
0000
0100
0000
0001
0000
1000
0000
0000
1001
0000
0000
0000
0000
,  // measure 17
0010
0100
0100
0000
0010
0001
1000
0000
,  // measure 18
0010
0100
0001
0100
0010
1000
0001
1000
,  // measure 19
0100
0010
0010
0000
0100
1000
0001
0000
,  // measure 20
0001
1000
0001
1000
0001
0100
0001
0100
,  // measure 21
0001
0010
0010
0000
0100
1000
0001
0000
,  // measure 22
0100
0010
0100
0001
1000
0100
0010
0001
,  // measure 23
1000
0100
0100
0000
0010
0001
0001
0000
,  // measure 24
0010
0100
0010
0000
0010
0000
0100
0010
0100
0000
0010
0000
0100
0000
0000
0000
,  // measure 25
1000
0000
0000
0001
0000
0000
1000
0000
0000
0010
0000
0000
1010
0000
0000
0000
,  // measure 26
1000
0000
0000
0001
0000
0000
0100
0000
0000
0001
0000
0000
1000
0000
1000
0000
,  // measure 27
0100
0000
0000
0010
0000
0000
0100
0000
0000
1000
0000
0000
1100
0000
0000
0000
,  // measure 28
1000
0000
0000
0001
0000
0000
0010
0000
0000
0100
0000
0000
1000
0000
0000
0000
,  // measure 29
1000
0000
0010
1000
0010
0000
1000
0000
0100
0000
0010
0100
0010
0000
0100
0000
,  // measure 30
0010
0001
1000
0100
0100
1000
0001
0010
,  // measure 31
0001
0000
1000
0001
1000
0000
0001
0000
1000
0000
0010
0100
0001
0000
0100
0000
,  // measure 32
0010
1000
0001
0100
0100
0001
1000
MMMM
,  // measure 33
0001
0000
0010
0001
0010
0000
0001
0000
0100
0000
0010
0100
0010
0000
0100
0000
,  // measure 34
0010
1000
0001
0100
0100
0001
1000
0010
,  // measure 35
1000
0000
0001
1000
0001
0000
1000
0000
0001
0000
0010
0100
1000
0000
0100
0000
,  // measure 36
0010
0001
1000
0100
0100
1000
0001
MMMM
,  // measure 37
0001
1000
0001
0100
0010
1000
0001
0010
,  // measure 38
0100
1000
0100
0010
0001
0100
0010
1000
,  // measure 39
1000
0001
1000
0010
0100
0001
1000
0100
,  // measure 40
0011
0011
1010
1010
,  // measure 41
1000
0001
1000
0100
0010
0001
1000
0010
,  // measure 42
0100
1000
0100
0010
1000
0001
0100
0010
,  // measure 43
0100
0001
0100
0010
0100
0001
1000
0100
,  // measure 44
0010
0000
0001
0000
1000
0000
0010
0000
1000
0010
0000
0010
0000
0000
0000
0000
,  // measure 45
1000
0000
1100
0000
0010
0001
0001
0000
,  // measure 46
1000
0000
1010
0000
0010
0010
0100
0000
,  // measure 47
0001
0101
1000
1100
,  // measure 48
1001
0000
0110
0000
1001
1000
0001
0000
,  // measure 49
1000
0000
0010
1000
0010
0000
1000
0000
0100
0000
0010
0100
0010
0000
0100
0000
,  // measure 50
0010
0001
1000
0100
0100
1000
0001
0010
,  // measure 51
0001
0000
1000
0001
1000
0000
0001
0000
1000
0000
0010
0100
0001
0000
0100
0000
,  // measure 52
0010
1000
0001
0100
0100
0001
1000
MMMM
;

//---------------dance-single - ---------------
#NOTEDATA:;
#CHARTNAME:;
#CHARTSTYLE:;
#CREDIT:;
#STEPSTYPE:dance-single;
#DESCRIPTION:;
#DIFFICULTY:Challenge;
#METER:10;
#METERF:10;
#RADARVALUES:0.760822,0.778879,0.468422,0.000000,0.707725,523.000000,477.000000,46.000000,0.000000,0.000000,0.000000,0.760822,0.778879,0.468422,0.000000,0.707725,523.000000,477.000000,46.000000,0.000000,0.000000,0.000000;
#NOTES:
// measure 0
0000
0000
0000
0000
,  // measure 1
0000
0000
0000
0000
,  // measure 2
0000
0000
0000
0000
,  // measure 3
0000
0000
0000
0000
,  // measure 4
0000
0000
0000
0000
,  // measure 5
1100
0100
0010
0001
0100
0010
0100
0000
,  // measure 6
0101
0100
0010
0100
0001
0010
0100
0000
,  // measure 7
1000
1100
1000
1010
1000
1100
0010
0001
,  // measure 8
0001
0101
0001
0011
0001
0101
0100
0010
,  // measure 9
1010
1000
0100
0010
0001
0100
1000
0000
,  // measure 10
1100
0100
0001
0010
1000
0001
0100
0000
,  // measure 11
0010
0010
0001
0001
1000
1000
0010
0010
,  // measure 12
0100
0001
0100
0010
1000
0100
1000
0001
,  // measure 13
2002
0000
0000
3003
,  // measure 14
0202
0000
0000
0303
,  // measure 15
1010
0010
0010
0010
0100
0100
0100
0100
,  // measure 16
0001
0000
1000
0001
1000
0000
0000
0000
1001
0000
0000
1001
0000
0000
0000
0000
,  // measure 17
1000
0000
0010
1000
0100
0000
0010
0000
0001
0000
0100
0010
1000
0100
0010
0001
,  // measure 18
0100
0000
0010
1000
0100
0010
0100
1000
0001
0100
0010
0001
0010
1000
0001
0010
,  // measure 19
0100
0000
0001
0100
0010
0000
0100
0000
1000
0000
0100
0010
0001
1000
0010
0100
,  // measure 20
0001
1000
0010
0100
0001
0010
0100
1000
0010
0100
0001
0000
1001
0000
0000
0000
,  // measure 21
0001
0000
1000
0010
0100
0000
0001
0000
0010
0000
0100
1000
0010
1000
0100
1000
,  // measure 22
0010
0000
1000
0010
1000
0100
0010
0100
1000
0001
0010
0100
1000
0010
0100
0001
,  // measure 23
1000
0000
1000
0001
0100
0010
1000
0000
1000
0000
0001
0010
0100
0000
1000
0000
,  // measure 24
0001
1000
0001
0000
0001
0000
1000
0001
1000
0001
1000
0001
1000
0000
0000
0000
,  // measure 25
0101
0000
0000
0011
0000
0000
1100
0000
0000
1010
0000
0000
1001
0000
0000
0000
,  // measure 26
1010
0000
0000
0110
0000
0000
0101
0000
0000
0110
0000
0000
1001
0000
0000
0000
,  // measure 27
1100
0000
0000
1010
0000
0000
0101
0000
0000
0011
0000
0000
1001
0000
0000
0000
,  // measure 28
1000
0100
0010
0001
0001
0010
0100
1000
,  // measure 29
0001
0000
0010
0001
0010
0000
0100
0000
0010
0000
0001
0100
0010
1000
0001
0100
,  // measure 30
0010
0000
1000
0100
0001
1000
0010
0001
1000
0100
0010
0001
1000
0010
0100
0001
,  // measure 31
1000
0000
0010
0100
0001
0000
0010
0000
0100
0000
1000
0010
0001
0010
0100
0001
,  // measure 32
0010
0100
1000
0001
1000
0010
0100
0001
0010
0100
1000
0010
1000
0000
0000
0000
,  // measure 33
0010
0000
1000
0100
0010
0000
0001
0000
1000
0000
0010
0100
0001
0010
0100
1000
,  // measure 34
0010
0000
0100
0001
0010
0100
1000
0010
0100
0001
0010
0100
1000
0001
1000
0010
,  // measure 35
0100
0000
0001
1000
0010
0000
1000
0000
0100
0000
1000
0001
0010
0100
1000
0010
,  // measure 36
0100
0001
0010
0001
0100
0010
0100
0001
0100
0010
0100
0001
0010
0000
0000
0000
,  // measure 37
0100
0000
0100
0000
0100
0010
0100
1000
0100
0000
0010
0001
0010
0000
0011
0000
,  // measure 38
0001
0000
0010
0000
0100
1000
0010
1000
0100
0000
0010
0001
0100
0000
0010
0000
,  // measure 39
0100
0000
0100
0000
0100
0010
0100
0001
0010
0000
0100
1000
0010
0000
1000
0000
,  // measure 40
1100
0000
0010
0000
0100
1000
0010
0100
0001
0000
0010
0100
1000
0010
0100
0001
,  // measure 41
0010
0000
0100
0000
1000
0010
1000
0100
1000
0000
0010
0000
0100
0000
0100
0000
,  // measure 42
0101
0000
0001
0000
0100
0010
1000
0100
0010
0000
0001
1000
0100
0000
0010
0000
,  // measure 43
1001
0000
0100
0000
0010
1000
0100
0010
0001
0000
1000
0100
0010
0001
1000
0000
,  // measure 44
1000
0010
1000
0010
0100
0001
0100
0001
0100
0001
0000
1001
0000
0000
0000
0000
,  // measure 45
1100
1000
1010
0010
0110
0100
0101
0001
,  // measure 46
0011
0010
0110
0100
1100
1000
1001
0001
,  // measure 47
0101
0100
0110
0010
1010
1000
1100
1000
,  // measure 48
1010
0010
0110
0100
0110
1000
1001
0000
,  // measure 49
1010
0000
0100
1000
0010
0000
1000
0000
0100
0000
0010
0001
0100
0010
1000
0001
,  // measure 50
0100
0000
0010
1000
0100
1000
0010
1000
0100
0010
0001
0100
0010
1000
0001
0010
,  // measure 51
0100
0000
1000
0001
0100
0000
0010
0000
1000
0000
0001
0010
0100
1000
0010
0100
,  // measure 52
0001
0010
0100
1000
0010
0100
0001
0010
0100
1000
0001
1000
0001
0000
0000
0000
;
0
1000
0001
1000
0001
0000
0000
0000
;
