#VERSION:0.83;
#TITLE:Drifting Away;
#SUBTITLE:;
#ARTIST:GRUM;
#TITLETRANSLIT:;
#SUBTITLETRANSLIT:;
#ARTISTTRANSLIT:;
#GENRE:Progressive House;
#ORIGIN:;
#TAGS:;
#CREDIT:;
#BANNER:Drifting Away.png;
#BACKGROUND:Drifting Away-bg.png;
#PREVIEWVID:;
#JACKET:Drifting Away-jacket.png;
#CDIMAGE:;
#DISCIMAGE:;
#LYRICSPATH:;
#CDTITLE:cdtitle.png;
#MUSIC:Drifting Away.ogg;
#OFFSET:0.001000;
#SAMPLESTART:60.957001;
#SAMPLELENGTH:12.000000;
#SELECTABLE:YES;
#BPMS:0.000000=125.987991
;
#STOPS:;
#DELAYS:;
#WARPS:;
#TIMESIGNATURES:0.000000=4=4
;
#TICKCOUNTS:0.000000=4
;
#COMBOS:0.000000=1
;
#SPEEDS:0.000000=1.000000=0.000000=0
;
#SCROLLS:0.000000=1.000000
;
#FAKES:;
#LABELS:0.000000=Song Start
;
#BGCHANGES:16.000=fireworks1.avi=0.500=1=0=1===CrossFade==,
32.000=tunnel2.avi=0.700=0=0=1=====,
48.000=ribbon2.avi=0.700=0=0=1=====,
64.000=kaliedoscope1.avi=0.600=0=0=1=====,
72.000=kaliedoscope2.avi=0.700=0=0=1=====,
80.000=kaliedoscope1.avi=0.600=0=0=1=====,
88.000=kaliedoscope2.avi=0.700=0=0=1=====,
96.000=cross1.avi=0.700=0=0=1=====,
112.000=chain1.avi=0.800=0=0=1=====,
128.000=fireworks1.avi=1.000=0=0=1=====,
144.000=tunnel2.avi=1.000=0=0=1=====,
160.000=kaliedoscope1.avi=1.000=0=0=1=====,
176.000=kaliedoscope2.avi=1.000=0=0=1=====,
192.000=chain1.avi=1.000=0=0=1=====,
208.000=fireworks1.avi=1.000=0=0=1=====,
224.000=Drifting Away-bg.png=1.000=1=0=1===CrossFade==,
99999=-nosongbg-=1.000=0=0=0 // don't automatically add -songbackground-
;
#KEYSOUNDS:;
#ATTACKS:
;

//---------------dance-single - ----------------
#NOTEDATA:;
#CHARTNAME:;
#CHARTHASH:219853499;
#STEPSTYPE:dance-single;
#BANNER:;
#DESCRIPTION:;
#CHARTSTYLE:;
#DIFFICULTY:Beginner;
#METER:1;
#METERF:0.000000;
#LASTSECONDHINT:104.770889;
#RADARVALUES:0.074333,0.127760,0.037166,0.000000,0.000000,56.000000,52.000000,4.000000,0.000000,0.000000,0.000000,0.000000,0.000000,0.000000,0.074333,0.127760,0.037166,0.000000,0.000000,56.000000,52.000000,4.000000,0.000000,0.000000,0.000000,0.000000,0.000000,0.000000;
#CREDIT:;
#NOTES:
0000
0000
0000
0000
,
0000
0000
0000
0000
,
0000
0000
0000
0000
,
0000
0000
0000
0000
,
1000
0000
0000
0000
,
0100
0000
0000
0000
,
0001
0000
0000
0000
,
0010
0000
0000
0000
,
1000
0000
0000
0000
,
1000
0000
0000
0000
,
0001
0000
0000
0000
,
0001
0000
0000
0000
,
0010
0000
0000
0000
,
0010
0000
0000
0000
,
0100
0000
0000
0000
,
0100
0000
0000
0000
,
0010
0000
0000
0000
,
0001
0000
0000
0000
,
0100
0000
0000
0000
,
1000
0000
0000
0000
,
0010
0000
0000
0000
,
1000
0000
0000
0000
,
0100
0000
0000
0000
,
0001
0000
0000
0000
,
1001
0000
0000
0000
,
0100
0000
0000
0000
,
0110
0000
0000
0000
,
0010
0000
0000
0000
,
1001
0000
0000
0000
,
1000
0000
0000
0000
,
0110
0000
0000
0000
,
0100
0000
0000
0000
,
0100
0000
0000
0000
,
0001
0000
0000
0000
,
1000
0000
0000
0000
,
0100
0000
0000
0000
,
0010
0000
0000
0000
,
0001
0000
0000
0000
,
0010
0000
0000
0000
,
0100
0000
0000
0000
,
1000
0000
0000
0000
,
0010
0000
0000
0000
,
0100
0000
0000
0000
,
0001
0000
0000
0000
,
0100
0000
0000
0000
,
0001
0000
0000
0000
,
1000
0000
0000
0000
,
0010
0000
0000
0000
,
1000
0000
0000
0000
,
1000
0000
0000
0000
,
0001
0000
0000
0000
,
0001
0000
0000
0000
,
0010
0000
0000
0000
,
0010
0000
0000
0000
,
0100
0000
0000
0000
,
0100
0000
0000
0000
;

//---------------dance-single - ----------------
#NOTEDATA:;
#CHARTNAME:;
#CHARTHASH:696053837;
#STEPSTYPE:dance-single;
#BANNER:;
#DESCRIPTION:;
#CHARTSTYLE:;
#DIFFICULTY:Easy;
#METER:2;
#METERF:0.000000;
#LASTSECONDHINT:106.675835;
#RADARVALUES:0.102208,0.208132,0.000000,0.167249,0.000000,77.000000,77.000000,0.000000,18.000000,0.000000,0.000000,0.000000,0.000000,0.000000,0.102208,0.208132,0.000000,0.167249,0.000000,77.000000,77.000000,0.000000,18.000000,0.000000,0.000000,0.000000,0.000000,0.000000;
#CREDIT:;
#NOTES:
0000
0000
0000
0000
,
0000
0000
0000
0000
,
0000
0000
0000
0000
,
0000
0000
0000
0000
,
0020
0000
0000
0000
,
0000
0000
0000
0000
,
0230
0000
0000
0000
,
0302
0000
0000
0000
,
2003
0000
0000
3000
,
1000
0000
0000
0000
,
0002
0000
0000
0003
,
0001
0000
0000
0000
,
0200
0000
0000
0000
,
0000
0000
0000
0000
,
0320
0000
0000
0000
,
2030
0000
0000
0000
,
3002
0000
0000
0000
,
0000
0000
0000
0000
,
2003
0000
0000
0000
,
0000
0000
0000
0000
,
3200
0000
0000
0000
,
0000
0000
0000
0000
,
0320
0000
0000
0000
,
0000
0000
0000
0000
,
0032
0000
0000
0000
,
2003
0000
0000
0000
,
3002
0000
0000
0000
,
2003
0000
0000
0000
,
3000
0010
0000
0010
,
0000
0100
0000
0100
,
0000
0001
0000
0001
,
0000
1000
1000
1000
,
1000
0100
0100
0000
,
0010
0001
0001
0000
,
0001
0100
0100
0000
,
0010
1000
1000
0000
,
0010
0100
0100
0000
,
0100
0010
0010
0000
,
1000
0001
0001
0000
,
0001
1000
1000
0000
,
0001
0000
0010
0000
,
1000
0000
0010
0000
,
0001
0000
0100
0000
,
1000
0000
0100
0000
,
1000
0000
0001
0000
,
0100
0000
0010
0000
,
0100
0000
0001
0000
,
0010
0000
0100
0000
,
0000
1000
0000
1000
,
0000
0100
0000
0100
,
0000
0010
0000
0010
,
0000
0001
0000
0001
,
0002
0000
0000
0000
,
0000
0000
0000
0000
,
2003
0000
0000
0000
,
0000
0000
0000
0000
,
3000
0000
0000
0000
;

//---------------dance-single - ----------------
#NOTEDATA:;
#CHARTNAME:;
#CHARTHASH:1807066447;
#STEPSTYPE:dance-single;
#BANNER:;
#DESCRIPTION:;
#CHARTSTYLE:;
#DIFFICULTY:Medium;
#METER:4;
#METERF:0.000000;
#LASTSECONDHINT:106.199600;
#RADARVALUES:0.211052,0.259004,0.074333,0.204415,0.000000,159.000000,151.000000,8.000000,22.000000,0.000000,0.000000,0.000000,0.000000,0.000000,0.211052,0.259004,0.074333,0.204415,0.000000,159.000000,151.000000,8.000000,22.000000,0.000000,0.000000,0.000000,0.000000,0.000000;
#CREDIT:;
#NOTES:
0000
0000
0000
0000
,
0000
0000
0000
0000
,
0000
0000
0000
0000
,
0000
0000
0000
0000
,
0020
0000
0000
0000
,
0032
0000
0000
0000
,
0203
0000
0000
0000
,
2300
0000
0000
0000
,
3010
0000
0000
0100
0000
0000
0001
2000
,
0000
0000
0000
3000
,
0001
0000
0000
1000
0000
0000
0010
0200
,
0000
0000
0000
0300
,
0100
0000
0000
0001
0000
1000
0000
0020
,
0000
0000
0000
0030
,
0010
0000
0000
1000
0000
0000
0001
0200
,
0000
0000
0000
0300
,
0110
0010
0000
0100
,
0000
0001
0000
1000
,
0100
0010
0000
0001
,
0000
0010
0000
0100
,
1000
0010
1000
0000
,
0100
0010
0001
0000
,
0100
0010
1000
0000
,
0100
0010
0001
0000
,
0002
2003
3020
0000
,
0230
0302
2003
0000
,
3200
0320
0032
0000
,
0013
0100
2000
0000
,
3001
1001
0000
0101
,
0000
0110
0000
1010
,
0000
1001
0000
0011
,
0000
0110
0100
0100
,
1000
0100
1000
0000
,
0001
0010
0100
0000
,
1000
0010
0100
0000
,
0001
0100
0010
0000
,
1000
0100
0010
0000
,
0001
0010
0100
0000
,
1000
0001
1000
0000
,
0001
1000
0001
0000
,
0000
1000
0000
0100
0000
1000
0000
0100
,
0000
0010
0000
0001
0000
0010
0000
0010
,
0000
0001
0000
0100
0000
0001
0000
0100
,
0000
0010
0000
1000
0000
0010
0000
0010
,
0000
0100
0000
0010
0000
1000
0000
0001
,
0000
0100
0000
0001
0000
1000
0000
0100
,
0000
0010
0000
0001
0000
1000
0000
0010
,
0000
0100
0000
0001
0000
1000
0000
0001
,
0001
1000
0001
1000
,
0100
0010
0100
0010
,
0001
0010
0001
0010
,
0100
1000
0100
1000
,
2000
0100
0100
3100
,
0002
0010
0010
0013
,
2000
0010
0000
3010
,
0002
0100
0100
0103
;

//---------------dance-single - ----------------
#NOTEDATA:;
#CHARTNAME:;
#CHARTHASH:1321423079;
#STEPSTYPE:dance-single;
#BANNER:;
#DESCRIPTION:;
#CHARTSTYLE:;
#DIFFICULTY:Hard;
#METER:7;
#METERF:0.000000;
#LASTSECONDHINT:106.199600;
#RADARVALUES:0.327861,0.466206,0.130083,0.315915,0.074333,247.000000,233.000000,14.000000,34.000000,0.000000,0.000000,0.000000,0.000000,0.000000,0.327861,0.466206,0.130083,0.315915,0.074333,247.000000,233.000000,14.000000,34.000000,0.000000,0.000000,0.000000,0.000000,0.000000;
#CREDIT:;
#NOTES:
// measure 0
0000
0000
0000
0000
,  // measure 1
0000
0000
0000
0000
,  // measure 2
0000
0000
0000
0000
,  // measure 3
0000
0000
0000
0000
,  // measure 4
2000
0000
0000
0000
,  // measure 5
0000
0000
0000
0000
,  // measure 6
3200
0000
0000
0000
,  // measure 7
0320
0000
0000
0000
,  // measure 8
0031
0000
0001
0200
0000
0000
0320
2000
,  // measure 9
0000
0000
0000
3030
,  // measure 10
1000
0000
1000
0020
0000
0000
0230
0002
,  // measure 11
0000
0000
0000
0303
,  // measure 12
0200
0000
0000
0302
0000
0023
0000
0200
,  // measure 13
0000
0000
0000
0000
0000
0000
0330
1000
,  // measure 14
0200
0000
0000
2300
0000
0000
3020
0200
,  // measure 15
0000
0000
0000
0330
,  // measure 16
2000
0010
0001
3100
,  // measure 17
0002
0010
1000
0103
,  // measure 18
0020
1000
0001
0130
,  // measure 19
0200
0001
1000
0310
,  // measure 20
1000
0100
0010
0001
0000
1000
0001
0000
,  // measure 21
0001
0100
0010
1000
0000
0001
0100
0000
,  // measure 22
0010
1000
0001
0010
0000
0100
1000
0000
,  // measure 23
0001
0010
0100
1000
0000
0001
1000
0000
,  // measure 24
0001
0100
0002
0200
0000
0000
0303
0000
,  // measure 25
0010
1000
0020
2000
0000
0000
3030
0000
,  // measure 26
0010
0100
0020
0200
0000
0000
0330
0000
,  // measure 27
0001
1000
0002
2000
0000
0000
3003
0000
,  // measure 28
0001
0011
1000
1010
,  // measure 29
0001
0101
1000
1100
,  // measure 30
0010
0011
0001
0101
,  // measure 31
0100
0110
1010
0101
,  // measure 32
1000
0000
0100
0000
0001
0000
0100
0001
0000
0000
0100
0000
1000
0000
0100
1000
,  // measure 33
0000
0000
0010
0000
1000
0000
0010
1000
0000
0000
0010
0000
0100
0000
0010
0100
,  // measure 34
0000
0000
0100
0000
0001
0000
1000
0001
0000
0000
1000
0000
0100
0000
1000
0010
,  // measure 35
0000
0000
0100
0000
0001
0000
0100
1000
0000
0000
0100
0000
0010
0000
1000
0001
,  // measure 36
1000
0000
0010
0000
1000
0000
0010
1000
0000
0000
0010
0000
0001
0000
0010
0001
,  // measure 37
0000
0000
0010
0000
1000
0000
0001
0100
0000
0000
0100
0000
0010
0000
0100
0010
,  // measure 38
0000
0000
0010
0000
1000
0000
0001
1000
0000
0000
0001
0000
0010
0000
0001
0100
,  // measure 39
0000
0000
0010
0000
1000
0000
0010
0001
0000
0000
0010
0000
0100
0000
0001
1000
,  // measure 40
0001
0010
0100
1000
0000
0100
1000
0010
,  // measure 41
0100
0001
1000
0010
0000
0100
0001
1000
,  // measure 42
0100
0010
0001
1000
0000
0001
0010
0100
,  // measure 43
2000
0010
0001
3100
,  // measure 44
0002
0000
0103
0000
1000
0100
0001
0000
,  // measure 45
0002
0010
1000
0103
,  // measure 46
2000
0000
3010
0000
0001
0010
1000
0000
,  // measure 47
0002
0100
1000
0013
,  // measure 48
1000
0010
0001
1000
,  // measure 49
0100
0001
1000
0001
,  // measure 50
0001
0100
1000
0001
,  // measure 51
0010
1000
0001
1000
,  // measure 52
0001
0010
0100
1000
,  // measure 53
1000
0100
0010
0001
,  // measure 54
1000
1001
0000
1001
,  // measure 55
0000
0110
0110
0110
;
