#TITLE:Delirious;
#SUBTITLE:;
#ARTIST:Vistoso Bosses feat. Soulja Boy Tell 'Em;
#TITLETRANSLIT:;
#SUBTITLETRANSLIT:;
#ARTISTTRANSLIT:;
#GENRE:R&B/Soul;
#CREDIT:;
#BANNER:Delirious.png;
#BACKGROUND:Delirious-bg.png;
#LYRICSPATH:;
#CDTITLE:cdtitle.png;
#MUSIC:Delirious.ogg;
#OFFSET:-0.047000;
#SAMPLESTART:53.888000;
#SAMPLELENGTH:12.000000;
#SELECTABLE:YES;
#BPMS:0.000000=72.992996
,32.000000=145.985992
;
#STOPS:
;
#BGCHANGES:-0.047=Delirious.mp4=1.000=1=0=1===CrossFade==,
288.000=Delirious-bg.png=1.000=1=0=1===CrossFade==,
99999=-nosongbg-=1.000=0=0=0 // don't automatically add -songbackground-
;
#KEYSOUNDS:;
#ATTACKS:;

//---------------dance-single - ----------------
#NOTES:
     dance-single:
     :
     Beginner:
     1:
     0.083905,0.135539,0.022590,0.015060,0.000000,78.000000,75.000000,3.000000,2.000000,0.000000,0.000000,0.083905,0.135539,0.022590,0.015060,0.000000,78.000000,75.000000,3.000000,2.000000,0.000000,0.000000:
// measure 0
0000
0000
0000
0000
,  // measure 1
0000
0000
0000
0000
,  // measure 2
2000
0000
3000
0000
,  // measure 3
0002
0000
0003
0000
,  // measure 4
0100
0000
0000
0000
,  // measure 5
0010
0000
0000
0000
,  // measure 6
1000
0000
0000
0000
,  // measure 7
0001
0000
0000
0000
,  // measure 8
0010
0000
0000
0000
,  // measure 9
0010
0000
0000
0000
,  // measure 10
0001
0000
0000
0000
,  // measure 11
0001
0000
0000
0000
,  // measure 12
0010
0000
0000
0000
,  // measure 13
0010
0000
0000
0000
,  // measure 14
1000
0000
0000
0000
,  // measure 15
1000
0000
0000
0000
,  // measure 16
0010
0000
0010
0000
,  // measure 17
0010
0000
0000
0000
,  // measure 18
0100
0000
0100
0000
,  // measure 19
0100
0000
0000
0000
,  // measure 20
1000
0000
1000
0000
,  // measure 21
1000
0000
0000
0000
,  // measure 22
0001
0000
0001
0000
,  // measure 23
0001
0000
0000
0000
,  // measure 24
1001
0000
0000
0000
,  // measure 25
0100
0000
0000
0000
,  // measure 26
0100
0000
0000
0000
,  // measure 27
0010
0000
0000
0000
,  // measure 28
0110
0000
0000
0000
,  // measure 29
0001
0000
0000
0000
,  // measure 30
0001
0000
0000
0000
,  // measure 31
1000
0000
0000
0000
,  // measure 32
1000
0000
0000
0000
,  // measure 33
0100
0000
0000
0000
,  // measure 34
0001
0000
0000
0000
,  // measure 35
0100
0000
0000
0000
,  // measure 36
1000
0000
0000
0000
,  // measure 37
0010
0000
0000
0000
,  // measure 38
0001
0000
0000
0000
,  // measure 39
0010
0000
0000
0000
,  // measure 40
0001
0000
0000
0000
,  // measure 41
1000
0000
0000
0000
,  // measure 42
0001
0000
0000
0000
,  // measure 43
0100
0000
0000
0000
,  // measure 44
0001
0000
0000
0000
,  // measure 45
1000
0000
0000
0000
,  // measure 46
0001
0000
0000
0000
,  // measure 47
0010
0000
0000
0000
,  // measure 48
0100
0000
0000
0000
,  // measure 49
0100
0000
0000
0000
,  // measure 50
1000
0000
0000
0000
,  // measure 51
1000
0000
0000
0000
,  // measure 52
0010
0000
0000
0000
,  // measure 53
0010
0000
0000
0000
,  // measure 54
0001
0000
0000
0000
,  // measure 55
0001
0000
0000
0000
,  // measure 56
0100
0000
0000
0000
,  // measure 57
0100
0000
0000
0000
,  // measure 58
1000
0000
0000
0000
,  // measure 59
1000
0000
0000
0000
,  // measure 60
1001
0000
0000
0000
,  // measure 61
1000
0000
0000
0000
,  // measure 62
0001
0000
0000
0000
,  // measure 63
1000
0000
0000
0000
,  // measure 64
0100
0000
0000
0000
,  // measure 65
0100
0000
0000
0000
,  // measure 66
0100
0000
0000
0000
,  // measure 67
0100
0000
0000
0000
,  // measure 68
0010
0000
0000
0000
,  // measure 69
0010
0000
0000
0000
,  // measure 70
0010
0000
0000
0000
,  // measure 71
0010
0000
0000
0000
,  // measure 72
0010
0000
0000
0000
;

//---------------dance-single - ----------------
#NOTES:
     dance-single:
     :
     Easy:
     4:
     0.197930,0.243970,0.007530,0.060240,0.000000,184.000000,183.000000,1.000000,8.000000,0.000000,0.000000,0.197930,0.243970,0.007530,0.060240,0.000000,184.000000,183.000000,1.000000,8.000000,0.000000,0.000000:
0000
0000
0000
0000
,
0000
0000
0000
0000
,
2000
0000
0000
3000
0200
0000
0000
0300
,
0020
0000
0000
0030
0002
0000
0000
0003
,
1000
0100
0010
0000
,
0100
0010
0001
0000
,
0010
0001
0100
0000
,
0001
0100
0010
0000
,
2000
0000
0000
3000
,
1000
0100
1000
0000
,
0002
0000
0000
0003
,
0001
0100
0001
0000
,
2000
0000
0000
3000
,
1000
0010
1000
0000
,
0002
0000
0000
0003
,
0001
0010
0001
0000
,
1001
0000
0000
1000
,
0100
0001
0100
1000
,
0000
0000
0000
1000
,
0010
0001
0010
1000
,
0000
0000
0000
1000
,
0001
0100
0010
0100
,
0000
0000
0000
0010
,
0100
0001
1000
0100
,
0010
0000
0000
0001
,
0001
0001
0001
0001
,
0000
0000
0000
0000
,
0000
1000
0100
1000
,
0010
0000
0000
0000
,
1000
1000
1000
1000
,
1000
0000
0000
0000
,
0000
0001
0100
0001
,
0010
0000
0100
0100
,
0100
0000
0100
1000
,
0001
0000
0100
0100
,
0100
0000
0010
1000
,
0001
0000
1000
0000
,
0001
0000
1000
0000
,
0100
0100
0010
0010
,
0100
0100
1000
1000
,
0001
0000
1000
0001
,
0000
1000
0001
1000
,
0100
1000
0001
1000
,
0001
0000
0100
0100
,
0100
0010
0100
0010
,
0010
0000
0010
0010
,
0010
0100
0010
0100
,
0100
0000
0010
1000
,
0001
0000
0000
1000
,
1000
1000
1000
1000
,
0000
0000
0000
0000
,
0000
0001
0100
0001
,
0010
0000
0000
0000
,
0001
0001
0001
0001
,
0001
0000
0000
0000
,
0000
1000
0100
1000
,
0010
0000
0100
0100
,
0100
0000
0100
0001
,
1000
0000
0100
0100
,
0100
0000
0010
0001
,
1000
0000
1000
0000
,
0001
0000
1000
0000
,
0100
0100
0010
0010
,
0100
0100
1000
1000
,
0001
0000
0000
0001
,
0001
0001
0001
0001
,
0000
0000
0000
0000
,
0000
1000
0100
1000
,
0010
0000
0000
0000
,
1000
1000
1000
1000
,
1000
0000
0000
0000
,
0000
0001
0100
0001
,
0010
0000
0000
0000
;

//---------------dance-single - ----------------
#NOTES:
     dance-single:
     :
     Medium:
     6:
     0.278608,0.361438,0.135539,0.060240,0.000000,259.000000,241.000000,18.000000,8.000000,0.000000,0.000000,0.278608,0.361438,0.135539,0.060240,0.000000,259.000000,241.000000,18.000000,8.000000,0.000000,0.000000:
0000
0000
0000
0000
,
0000
0000
0000
0000
,
2000
0000
3020
0000
,
0230
0000
0302
0000
,
1003
1000
1000
0000
0001
0001
0001
0000
,
0010
0010
0010
0000
0100
0100
0100
0000
,
1000
1000
1000
0000
0001
0001
0001
0000
,
0100
0100
0100
0000
0010
0010
0010
0000
,
0020
1030
1000
0010
,
2000
0000
3010
0000
1000
0010
1000
0000
,
0100
0010
0001
1001
,
0100
0010
1000
1001
,
0020
0031
1000
0010
,
0020
0000
1030
0000
0001
0100
0001
0000
,
0100
0010
1000
1001
,
0100
0010
0001
1001
,
1000
0000
0001
0000
0000
1000
0001
0000
,
0100
0000
0010
0000
0000
0100
0010
0000
,
1000
0000
0010
0000
0000
1000
0010
0000
,
0100
0000
0001
0000
0000
0100
0001
0000
,
0010
0000
0001
0000
0000
0010
0001
0000
,
0010
0000
0100
0000
0000
0010
0100
0000
,
1000
0000
0100
0000
0000
1000
0100
0000
,
1000
0100
1000
0000
0001
0100
0001
0000
,
0100
0000
0010
0000
1000
0000
0001
0100
,
0000
0001
0000
0000
1000
0000
1000
0000
,
0100
0100
1000
1000
,
0000
0000
0100
0000
0010
0000
0001
1000
,
0000
0000
0000
0000
0000
0000
0001
0100
,
0000
0010
0000
0000
0100
0000
0100
0000
,
0010
0010
0100
0100
,
0000
0000
0001
1000
0001
1000
0001
0000
,
1001
0000
0100
0010
,
0100
0000
1000
0010
,
0000
0000
0001
0100
,
0010
1000
0001
0010
,
0100
0000
0010
0001
,
1000
0000
0001
1000
,
0001
0100
0001
1000
,
0010
1000
0001
1000
,
0100
0010
0100
1000
,
0000
0100
0010
0001
,
0100
0010
1000
0001
,
0100
0000
0001
1000
,
0001
1000
0100
0001
,
0010
0000
1000
0001
,
1000
0010
0001
0100
,
1000
0000
0001
1000
,
0100
0000
0010
0000
1000
0000
0001
0100
,
0000
0001
0000
0000
1000
0000
1000
0000
,
0100
0100
1000
1000
,
0000
0000
0100
0000
0010
0000
0001
1000
,
0000
0000
0000
0000
0000
0000
0001
0100
,
0000
0010
0000
0000
0100
0000
0100
0000
,
0010
0010
0100
0100
,
0000
0000
0001
1000
0001
1000
0001
0000
,
0010
0000
0100
0000
1000
0000
0001
0100
,
0000
0001
0000
0000
1001
0000
1001
0000
,
0110
0110
1001
1001
,
0000
0000
0100
0000
0010
0000
1000
0001
,
0000
0000
0000
0000
0000
0000
0001
0010
,
0000
0100
0000
0000
0110
0000
0110
0000
,
1001
1001
0110
0110
,
0000
0000
1000
0001
1000
0001
1000
0000
,
1001
0000
0000
0000
;

//---------------dance-single - ----------------
#NOTES:
     dance-single:
     :
     Hard:
     7:
     0.469008,0.487941,0.286138,0.000000,0.000000,436.000000,398.000000,38.000000,0.000000,0.000000,0.000000,0.469008,0.487941,0.286138,0.000000,0.000000,436.000000,398.000000,38.000000,0.000000,0.000000,0.000000:
0000
0000
0000
0000
,
0000
0000
0000
0000
,
0001
0010
0100
0000
1000
0100
0010
0000
,
0001
1000
0100
0000
0100
1000
0001
0000
,
1000
0001
1000
0001
0100
0010
0100
0010
,
1000
0010
1000
0010
0100
0001
0100
0101
,
0001
1000
0001
1000
0010
0100
0010
0100
,
0001
0100
0001
0100
0010
1000
0010
1000
,
0001
0001
1000
0000
0100
0000
0110
0000
,
0010
0001
1000
0000
0001
0000
1001
0000
,
0100
0010
0100
0001
0010
0000
0010
0000
,
0100
1000
0000
1000
0100
0000
0100
0000
,
0110
0100
0010
0000
0001
0000
1001
0000
,
1000
0001
0100
0000
0001
0000
1001
0000
,
0010
1000
0001
0000
0001
1000
0010
0000
,
0100
0001
0010
0000
0010
0001
0100
0001
,
0100
0000
0100
0000
0001
0101
0000
1010
,
0000
0000
1001
0010
0100
1000
1000
0000
,
1000
0001
0001
0000
0010
0110
0000
1001
,
0000
0101
0000
0100
0001
1000
0010
0000
,
0010
0000
1000
0000
0010
1010
0000
0101
,
0000
0010
1000
0001
0010
0100
0100
0000
,
0100
0010
0010
0000
0001
0110
0000
1001
,
0000
1010
0010
0100
0001
0100
0010
0000
,
1001
0000
1000
0010
0100
0000
0001
0010
,
0000
1000
0000
0001
0001
0001
0001
0000
,
0100
1000
0010
0000
0100
1000
0010
0000
,
0000
0100
0001
0100
0010
0000
0100
0100
,
0110
0000
0100
0001
0010
0000
1000
0010
,
0000
0001
0000
1000
1000
1000
1000
0000
,
0100
0001
0010
0000
0100
0001
0010
0000
,
0000
0000
0100
0010
0100
0010
1000
0000
,
1001
0000
0000
0000
0001
1000
0001
1000
,
0001
0000
0000
0010
0100
0010
0100
0010
,
0100
0000
0000
1000
0001
0000
1000
0000
,
1001
0000
1000
0001
1000
0000
0001
0000
,
1001
0000
1000
0001
0010
0000
0100
0000
,
0110
0000
0000
0100
0010
0100
1000
0000
,
0010
0100
1000
0000
0010
0100
0001
0000
,
0001
1000
0001
0000
1000
0001
1000
0001
,
1000
0000
0001
1000
0001
1000
0001
0000
,
0000
0100
0010
0100
0010
0000
0010
0000
,
0110
0000
0100
0010
0100
0010
0100
0000
,
0010
0000
0000
1000
1100
0000
1010
0000
,
1100
0000
0100
0010
0100
0000
0010
0100
,
0010
0000
0000
0001
0011
0000
0101
0000
,
0011
0000
0010
0000
0100
0010
0100
0000
,
0100
0000
0100
0010
0100
0000
1100
0000
,
0101
0001
0100
0001
0100
0000
0001
0010
,
0000
1000
0000
0001
0001
0001
0001
0000
,
0100
1000
0010
0000
0100
1000
0010
0000
,
0000
0100
0001
0100
0010
0000
0100
0100
,
0110
0000
0100
0001
0010
0000
1000
0010
,
0000
0001
0000
1000
1000
1000
1000
0000
,
0100
0001
0010
0000
0100
0001
0010
0000
,
0000
0000
0100
0010
0100
0010
1000
0000
,
1001
0000
1000
0001
0100
0000
1000
0010
,
0000
0001
0000
1000
1000
1000
1000
0000
,
0100
0001
0010
0000
0100
0001
0010
0000
,
0000
0100
1000
0100
0010
0000
0100
0100
,
0110
0000
0100
1000
0010
0000
0001
0010
,
0000
1000
0000
0001
0001
0001
0001
0000
,
0100
1000
0010
0000
0100
1000
0010
0000
,
0000
0000
0100
0010
0100
0010
0001
0000
,
1001
0000
0001
1000
0100
0000
0001
0100
,
0000
1000
0000
0001
0001
0001
0001
0000
,
0010
1000
0100
0000
0010
1000
0100
0000
,
0000
0010
0001
0010
0100
0000
0010
0010
,
0110
0000
0010
0001
0100
0000
1000
0100
,
0000
0001
0000
1000
1000
1000
1000
0000
,
0010
0001
0100
0000
0010
0001
0100
0000
,
0000
0000
0010
0100
0010
0100
1000
0000
,
1001
0000
0000
0000
;
