#VERSION:0.83;
#TITLE:Closer;
#SUBTITLE:;
#ARTIST:Saweetie feat. H.E.R.;
#TITLETRANSLIT:;
#SUBTITLETRANSLIT:;
#ARTISTTRANSLIT:;
#GENRE:;
#ORIGIN:;
#TAGS:;
#CREDIT:;
#BANNER:Closer.png;
#BACKGROUND:Closer-bg.png;
#PREVIEWVID:;
#JACKET:Closer-jacket.png;
#CDIMAGE:;
#DISCIMAGE:;
#LYRICSPATH:;
#CDTITLE:cdtitle.png;
#MUSIC:CLOSER.ogg;
#OFFSET:-0.119000;
#SAMPLESTART:8.768000;
#SAMPLELENGTH:12.000000;
#SELECTABLE:YES;
#BPMS:0.000000=110.989998
;
#STOPS:;
#DELAYS:;
#WARPS:;
#TIMESIGNATURES:0.000000=4=4
;
#TICKCOUNTS:0.000000=4
;
#COMBOS:0.000000=1
;
#SPEEDS:0.000000=1.000000=0.000000=0
;
#SCROLLS:0.000000=1.000000
;
#LABELS:0.000000=Song Start
;
#BGCHANGES:16.000=Closer.mp4=1.000=1=0=1===CrossFade==,
191.000=Closer-bg.png=1.000=1=0=1===CrossFade==,
99999=-nosongbg-=1.000=0=0=0 // don't automatically add -songbackground-
;
#KEYSOUNDS:;
#ATTACKS:
;

//---------------dance-single - ----------------
#NOTEDATA:;
#CHARTNAME:;
#CHARTHASH:2985022116;
#STEPSTYPE:dance-single;
#BANNER:;
#DESCRIPTION:;
#CHARTSTYLE:;
#DIFFICULTY:Beginner;
#METER:1;
#METERF:0.000000;
#LASTSECONDHINT:103.371552;
#RADARVALUES:0.072205,0.111735,0.037440,0.093600,0.000000,54.000000,50.000000,4.000000,10.000000,0.000000,0.000000,0.000000,0.000000,0.000000,0.072205,0.111735,0.037440,0.093600,0.000000,54.000000,50.000000,4.000000,10.000000,0.000000,0.000000,0.000000,0.000000,0.000000;
#CREDIT:;
#NOTES:
// measure 0
0000
0000
0000
0000
,  // measure 1
0000
0000
0000
0000
,  // measure 2
0000
0000
0000
0000
,  // measure 3
0000
0000
0000
0000
,  // measure 4
2000
0000
0000
3000
,  // measure 5
1000
0000
0000
0000
,  // measure 6
0200
0000
0000
0300
,  // measure 7
0100
0000
0000
0000
,  // measure 8
0002
0000
0000
0003
,  // measure 9
0001
0000
0000
0000
,  // measure 10
0200
0000
0000
0300
,  // measure 11
0100
0000
0000
0000
,  // measure 12
1001
0000
0000
0000
,  // measure 13
1000
0000
0000
0000
,  // measure 14
1001
0000
0000
0000
,  // measure 15
0001
0000
0000
0000
,  // measure 16
0110
0000
0000
0000
,  // measure 17
0010
0000
0000
0000
,  // measure 18
0110
0000
0000
0000
,  // measure 19
0100
0000
0000
0000
,  // measure 20
0010
0000
1000
0000
,  // measure 21
0010
0000
0000
0000
,  // measure 22
0100
0000
0001
0000
,  // measure 23
0100
0000
0000
0000
,  // measure 24
0001
0000
1000
0000
,  // measure 25
0001
0000
0000
0000
,  // measure 26
1000
0000
0001
0000
,  // measure 27
1000
0000
0000
0000
,  // measure 28
2000
0000
0000
3000
,  // measure 29
1000
0000
0000
0000
,  // measure 30
0002
0000
0000
0003
,  // measure 31
0001
0000
0000
0000
,  // measure 32
0001
0000
0000
0000
,  // measure 33
0010
0000
0000
0000
,  // measure 34
1000
0000
0000
0000
,  // measure 35
0100
0000
0000
0000
,  // measure 36
0001
0000
0000
0000
,  // measure 37
0010
0000
0000
0000
,  // measure 38
1000
0000
0000
0000
,  // measure 39
0100
0000
0000
0000
,  // measure 40
0002
0000
0000
0003
,  // measure 41
0001
0000
0000
0000
,  // measure 42
0200
0000
0000
0300
,  // measure 43
0100
0000
0000
0000
,  // measure 44
0020
0000
0000
0030
,  // measure 45
0010
0000
0000
0000
,  // measure 46
2000
0000
0000
3000
,  // measure 47
1000
0000
1000
1000
;

//---------------dance-single - ----------------
#NOTEDATA:;
#CHARTNAME:;
#CHARTHASH:2496310379;
#STEPSTYPE:dance-single;
#BANNER:;
#DESCRIPTION:;
#CHARTSTYLE:;
#DIFFICULTY:Easy;
#METER:2;
#METERF:2.000000;
#LASTSECONDHINT:102.830963;
#RADARVALUES:0.135051,0.177839,0.009360,0.000000,0.000000,101.000000,100.000000,1.000000,0.000000,0.000000,0.000000,0.000000,0.000000,0.000000,0.135051,0.177839,0.009360,0.000000,0.000000,101.000000,100.000000,1.000000,0.000000,0.000000,0.000000,0.000000,0.000000,0.000000;
#CREDIT:;
#NOTES:
// measure 0
0000
0000
0000
0000
,  // measure 1
0000
0000
0000
0000
,  // measure 2
0000
0000
0000
0000
,  // measure 3
0000
0000
0000
0000
,  // measure 4
1000
0000
0100
0000
,  // measure 5
1000
0000
0100
0000
,  // measure 6
0001
0000
0100
0000
,  // measure 7
0001
0000
0100
0000
,  // measure 8
1000
0000
0100
0000
,  // measure 9
0001
0000
0100
0000
,  // measure 10
1000
0000
0010
0000
,  // measure 11
0001
0000
0010
0000
,  // measure 12
0010
0000
0100
0000
,  // measure 13
0100
0000
0010
0000
,  // measure 14
0001
0000
1000
0000
,  // measure 15
1000
0000
0001
0000
,  // measure 16
1000
0000
0100
0000
,  // measure 17
0100
0000
1000
0000
,  // measure 18
0010
0000
0100
0000
,  // measure 19
0100
0000
0010
0000
,  // measure 20
0010
0010
0010
0000
,  // measure 21
1000
0001
1000
0000
,  // measure 22
0001
0001
0001
0000
,  // measure 23
0010
0100
0010
0000
,  // measure 24
0100
0100
0100
0000
,  // measure 25
1000
0001
1000
0000
,  // measure 26
0001
0001
0001
0000
,  // measure 27
1000
0001
1000
0000
,  // measure 28
1001
0000
0100
0000
,  // measure 29
0010
0000
0100
0000
,  // measure 30
1000
0000
0001
0000
,  // measure 31
1000
0000
0001
0000
,  // measure 32
1000
0000
0010
0000
,  // measure 33
0001
0000
0010
0000
,  // measure 34
1000
0000
0010
0000
,  // measure 35
0001
0000
0010
0000
,  // measure 36
1000
0000
0100
0000
,  // measure 37
0001
0000
0100
0000
,  // measure 38
1000
0000
0100
0000
,  // measure 39
0001
0000
0100
0000
,  // measure 40
1000
0000
1000
0000
,  // measure 41
1000
1000
0100
0000
,  // measure 42
0001
0000
0001
0000
,  // measure 43
0001
0001
0100
0000
,  // measure 44
0100
0000
0100
0000
,  // measure 45
0010
0010
1000
0000
,  // measure 46
0100
0000
0100
0000
,  // measure 47
0010
0010
0001
0000
;

//---------------dance-single - ----------------
#NOTEDATA:;
#CHARTNAME:;
#CHARTHASH:279023406;
#STEPSTYPE:dance-single;
#BANNER:;
#DESCRIPTION:;
#CHARTSTYLE:;
#DIFFICULTY:Medium;
#METER:4;
#METERF:4.000000;
#LASTSECONDHINT:103.371552;
#RADARVALUES:0.252719,0.290510,0.112320,0.149759,0.000000,189.000000,177.000000,12.000000,16.000000,0.000000,0.000000,0.000000,0.000000,0.000000,0.252719,0.290510,0.112320,0.149759,0.000000,189.000000,177.000000,12.000000,16.000000,0.000000,0.000000,0.000000,0.000000,0.000000;
#CREDIT:;
#NOTES:
// measure 0
0000
0000
0000
0000
,  // measure 1
0000
0000
0000
0000
,  // measure 2
0000
0000
0000
0000
,  // measure 3
0000
0000
0000
0000
,  // measure 4
1000
0100
0001
0100
,  // measure 5
1000
1000
0010
0010
0100
0100
0001
0001
,  // measure 6
0100
0010
0100
0001
,  // measure 7
0010
0010
0100
0100
1000
1000
0001
0001
,  // measure 8
0010
0100
0010
0001
,  // measure 9
0100
0010
0100
0001
,  // measure 10
0100
0010
1000
0100
,  // measure 11
0010
0100
1000
0001
,  // measure 12
0101
0000
0000
0001
0000
0000
0100
0000
,  // measure 13
0000
0001
0000
0000
0100
0000
0010
0000
,  // measure 14
0110
0000
0000
0010
0000
0000
0100
0000
,  // measure 15
0000
0010
0000
0000
1000
0000
0100
0000
,  // measure 16
1100
0000
0000
0100
0000
0000
1000
0000
,  // measure 17
0000
0100
0000
0000
1000
0000
0100
0000
,  // measure 18
0110
0000
0000
0010
0000
0000
0100
0000
,  // measure 19
0010
0001
0100
0001
,  // measure 20
0002
0103
2000
3100
,  // measure 21
0002
0103
2000
3100
,  // measure 22
0002
0013
2000
3010
,  // measure 23
0002
0013
2000
3010
,  // measure 24
0020
0130
0200
0301
,  // measure 25
0002
0013
0020
0130
,  // measure 26
0200
1300
2000
3100
,  // measure 27
0200
0310
0020
0130
,  // measure 28
0110
0100
1000
0001
,  // measure 29
1001
0001
1000
0010
,  // measure 30
1010
0100
0001
0100
,  // measure 31
0101
0001
0100
0000
,  // measure 32
0001
0100
1000
0100
,  // measure 33
0001
0001
0010
0010
0100
0100
1000
1000
,  // measure 34
0100
0010
0100
1000
,  // measure 35
0010
0010
0100
0100
0001
0001
1000
1000
,  // measure 36
0010
0100
0010
1000
,  // measure 37
0100
0010
0100
0001
,  // measure 38
0100
0010
0001
0100
,  // measure 39
0010
0100
0001
1000
,  // measure 40
1100
0000
0000
1000
0000
0000
0100
0000
,  // measure 41
0000
1000
0000
0000
0100
0000
0010
0000
,  // measure 42
0110
0000
0000
0010
0000
0000
0100
0000
,  // measure 43
0000
0010
0000
0000
0001
0000
0010
0000
,  // measure 44
0011
0000
0000
0010
0000
0000
0001
0000
,  // measure 45
0000
0010
0000
0000
0001
0000
0100
0000
,  // measure 46
0110
0000
0000
0010
0000
0000
0100
0000
,  // measure 47
0010
1000
0100
0001
;

//---------------dance-single - ----------------
#NOTEDATA:;
#CHARTNAME:;
#CHARTHASH:3993911180;
#STEPSTYPE:dance-single;
#BANNER:;
#DESCRIPTION:;
#CHARTSTYLE:;
#DIFFICULTY:Hard;
#METER:7;
#METERF:7.000000;
#LASTSECONDHINT:103.371552;
#RADARVALUES:0.422536,0.379898,0.121680,0.000000,0.112320,316.000000,303.000000,13.000000,0.000000,0.000000,0.000000,0.000000,0.000000,0.000000,0.422536,0.379898,0.121680,0.000000,0.112320,316.000000,303.000000,13.000000,0.000000,0.000000,0.000000,0.000000,0.000000,0.000000;
#CREDIT:;
#NOTES:
// measure 0
0000
0000
0000
0000
,  // measure 1
0000
0000
0000
0000
,  // measure 2
0000
0000
0000
0000
,  // measure 3
0000
0000
0000
0000
0000
0000
1000
0001
,  // measure 4
0100
0000
0000
0100
0010
0000
1000
0000
1000
0000
0010
0000
0000
0010
0000
0000
,  // measure 5
0100
0001
1000
0010
1000
0100
0010
0100
,  // measure 6
0100
0000
0000
0100
0010
0000
0001
0000
0001
0000
0100
0000
0000
0100
0000
0000
,  // measure 7
0100
0001
1000
0010
1000
0100
0010
0100
,  // measure 8
1000
0000
0000
1000
0000
0000
0001
0000
0011
0000
0000
0000
1010
0000
0000
0000
,  // measure 9
0000
0000
1000
0010
0000
1000
0001
0000
0010
0000
0100
0000
1000
0000
0001
0000
,  // measure 10
0100
0000
0000
0100
0010
0000
1000
0000
1000
0000
0010
0000
0000
0010
0000
0000
,  // measure 11
0100
0001
1000
0010
1000
0100
0010
0000
,  // measure 12
0010
0010
0000
0100
0100
0000
1000
0001
,  // measure 13
0000
1001
0000
0001
1000
0010
0100
0001
,  // measure 14
0100
0100
0000
0010
0010
0000
1000
0001
,  // measure 15
0000
1001
0000
0010
0100
1000
0001
0010
,  // measure 16
0100
0100
0000
0010
0010
0000
0001
1000
,  // measure 17
0000
1001
0000
0001
1000
0010
0001
0010
,  // measure 18
1000
1000
0000
0001
0001
0000
0100
0010
,  // measure 19
0100
0001
1000
0001
1000
0100
0010
0000
,  // measure 20
0110
0000
0100
1000
0100
0001
0100
1000
,  // measure 21
0010
0100
0100
0010
0100
0001
1000
1000
,  // measure 22
0000
0010
0100
0000
0101
0000
0011
0000
,  // measure 23
0001
0100
0010
1000
0001
0100
0001
0001
,  // measure 24
0000
0000
0100
0010
1000
0100
1000
1000
,  // measure 25
0000
0100
0010
0001
0100
0001
0010
0010
,  // measure 26
0100
1000
0001
0100
0010
0100
0001
0001
,  // measure 27
1000
0100
1000
0100
0010
0100
0010
0100
,  // measure 28
0010
0000
0000
0000
0100
0000
1000
0000
0010
0000
1000
0100
0000
1000
0100
0000
,  // measure 29
0010
0000
0000
0000
0001
0000
0010
0000
0100
0000
1000
0001
0000
1000
0001
0000
,  // measure 30
0100
0000
0000
0000
0010
0000
1000
0000
0001
0000
0100
0001
0000
0100
0001
0000
,  // measure 31
0100
0000
0010
1000
0001
0010
0100
0100
,  // measure 32
0100
0000
0000
0100
0010
0000
0001
0000
0001
0000
0010
0000
0000
0010
0000
0000
,  // measure 33
0100
1000
0001
0010
0100
1000
0010
0100
,  // measure 34
0100
0000
0000
0100
0010
0000
1000
0000
1000
0000
0100
0000
0000
0100
0000
0000
,  // measure 35
0100
1000
0001
0010
0001
0100
0010
0100
,  // measure 36
0001
0000
0000
0001
0000
0000
1000
0000
1010
0000
0000
0000
0011
0000
0000
0000
,  // measure 37
0000
0000
0001
0010
0000
0001
1000
0000
0010
0000
0100
0000
0001
0000
0001
0000
,  // measure 38
0100
0000
0000
0100
0010
0000
1000
0000
1000
0000
0010
0000
0000
0010
0000
0000
,  // measure 39
0100
0001
1000
0010
1000
0100
0010
0000
,  // measure 40
0100
0100
0000
0010
0010
0000
0001
1000
,  // measure 41
0000
1001
0000
0001
1000
0010
0100
0001
,  // measure 42
0100
0010
0100
0100
0100
0000
0001
0010
,  // measure 43
0000
1001
0000
0010
0100
1000
0001
0010
,  // measure 44
0100
0100
0000
0010
0010
0000
0001
1000
,  // measure 45
0000
1001
0000
0001
1000
0100
0001
0100
,  // measure 46
1000
1000
0000
0010
0010
0010
0010
0100
,  // measure 47
0001
0001
1000
1000
0100
0100
0010
0000
;
