#TITLE:Chocolate;
#SUBTITLE:;
#ARTIST:μΈ„;
#TITLETRANSLIT:;
#SUBTITLETRANSLIT:;
#ARTISTTRANSLIT:CHUU;
#GENRE:;
#CREDIT:;
#BANNER:;
#BACKGROUND:Chocolate-bg.png;
#LYRICSPATH:;
#CDTITLE:cdtitle.png;
#MUSIC:Chocolate.ogg;
#OFFSET:-0.496000;
#SAMPLESTART:40.495998;
#SAMPLELENGTH:10.000000;
#SELECTABLE:YES;
#BPMS:0.000000=120.000000
;
#STOPS:
;
#BGCHANGES:-0.496=Chocolate.mp4=1.000=1=0=0=StretchNoLoop==CrossFade==,
99999=-nosongbg-=1.000=0=0=0 // don't automatically add -songbackground-
;
#KEYSOUNDS:;
#ATTACKS:;

//---------------dance-single - ----------------
#NOTES:
     dance-single:
     :
     Beginner:
     1:
     0.120444,0.146463,0.000000,0.057649,0.000000,117.000000,117.000000,0.000000,8.000000,0.000000,0.000000,0.120444,0.146463,0.000000,0.057649,0.000000,117.000000,117.000000,0.000000,8.000000,0.000000,0.000000:
// measure 0
0000
0000
0000
0000
,  // measure 1
0000
0000
0000
0000
,  // measure 2
0000
0000
0000
0000
,  // measure 3
0000
0000
0000
0000
,  // measure 4
1000
0000
0000
0000
,  // measure 5
0100
0100
0100
0000
,  // measure 6
0001
0000
0000
0000
,  // measure 7
0100
0100
0100
0000
,  // measure 8
0100
0000
0010
0000
,  // measure 9
1000
0000
1000
0000
,  // measure 10
0001
0000
0010
0000
,  // measure 11
0100
0000
0100
0000
,  // measure 12
1000
0000
1000
0000
,  // measure 13
1000
1000
1000
0000
,  // measure 14
0001
0000
0001
0000
,  // measure 15
0001
0001
0001
0000
,  // measure 16
0100
0000
0100
0000
,  // measure 17
0100
0100
0100
0000
,  // measure 18
0010
0000
0010
0000
,  // measure 19
0010
0000
0000
0000
,  // measure 20
1000
0000
0001
0000
,  // measure 21
0100
0000
0100
0000
,  // measure 22
0001
0000
1000
0000
,  // measure 23
0100
0000
0100
0000
,  // measure 24
0001
0000
1000
0000
,  // measure 25
0010
0000
0010
0000
,  // measure 26
1000
0000
0001
0000
,  // measure 27
0010
0000
0010
0000
,  // measure 28
0020
0000
0000
0030
,  // measure 29
0010
0000
0000
0000
,  // measure 30
0200
0000
0000
0300
,  // measure 31
0100
0000
0000
0000
,  // measure 32
0002
0000
0000
0003
,  // measure 33
0001
0000
0000
0000
,  // measure 34
2000
0000
0000
3000
,  // measure 35
1000
0000
0000
1000
,  // measure 36
0000
1000
0000
1000
,  // measure 37
1000
1000
1000
0000
,  // measure 38
0001
0000
0001
0000
,  // measure 39
0001
0001
0001
0000
,  // measure 40
0100
0000
0100
0000
,  // measure 41
0100
0000
0000
0000
,  // measure 42
0010
0000
0010
0000
,  // measure 43
0010
0000
0000
0000
,  // measure 44
0010
0010
0010
0000
,  // measure 45
0010
0000
0100
0000
,  // measure 46
0001
0000
1000
0000
,  // measure 47
0001
0000
0000
0000
,  // measure 48
1000
1000
1000
0000
,  // measure 49
0001
0000
1000
0000
,  // measure 50
0100
0000
0010
0000
,  // measure 51
0001
0000
0000
0000
,  // measure 52
1000
0000
0001
0000
,  // measure 53
0100
0000
0100
0000
,  // measure 54
0001
0000
1000
0000
,  // measure 55
0100
0000
0100
0000
,  // measure 56
0001
0000
1000
0000
,  // measure 57
0010
0000
0010
0000
,  // measure 58
1000
0000
0001
0000
,  // measure 59
0010
0000
0010
0000
,  // measure 60
0020
0000
0000
0030
,  // measure 61
0010
0000
0000
0000
,  // measure 62
0200
0000
0000
0300
,  // measure 63
0100
0000
0000
0000
,  // measure 64
0002
0000
0000
0003
,  // measure 65
0001
0000
0000
0000
,  // measure 66
2000
0000
0000
3000
,  // measure 67
1000
0000
1000
1000
;

//---------------dance-single - ----------------
#NOTES:
     dance-single:
     :
     Easy:
     3:
     0.000000,0.000000,0.000000,0.000000,0.000000,0.000000,0.000000,0.000000,0.000000,0.000000,0.000000,0.000000,0.000000,0.000000,0.000000,0.000000,0.000000,0.000000,0.000000,0.000000,0.000000,0.000000:
0000
0000
0000
0000
,
0000
0000
0000
0000
,
0000
0000
0000
0000
,
0000
0000
0000
0000
,
1000
0010
0001
0000
,
0001
0100
1000
0000
,
1000
0100
0001
0000
,
0001
0010
1000
0000
,
1000
0010
1000
0000
,
0010
0100
0010
0000
,
0100
0001
0100
0000
,
0001
0100
0001
0000
,
0002
0000
1003
0000
,
0001
1000
0100
0000
,
0200
0000
0310
0000
,
0110
0000
0000
0000
,
0020
0000
0031
0000
,
0010
0100
1000
0000
,
0001
1000
0100
0010
,
0220
0000
0000
0330
,
2002
3003
0200
0300
,
0001
0100
0001
0000
,
2002
3003
0200
0300
,
1000
0100
1000
0000
,
2002
3003
0020
0030
,
1000
0010
1000
0000
,
2002
3003
0020
0030
,
0001
0010
0001
0000
,
0002
0000
0100
0000
,
0010
0010
0013
0000
,
2000
0000
0100
0000
,
0010
0010
3010
0000
,
0020
0000
0100
0000
,
1000
1000
1030
0000
,
2000
0000
0001
0000
,
0100
0100
3100
0000
,
0000
1000
0001
1000
,
0000
0001
1000
0001
,
0000
0100
0010
0100
,
0000
0010
0100
0010
,
0010
0000
1000
0000
,
0100
0000
0001
0000
,
0010
0000
0001
0000
,
0100
0000
1000
0000
,
2000
0000
3001
0000
,
1000
0001
0010
0000
,
0020
0000
0130
0000
,
0110
0000
0000
0000
,
0200
0000
1300
0000
,
0100
0010
0001
0000
,
1000
0001
0010
0100
,
0220
0000
0000
0330
,
2002
3003
0020
0030
,
1000
0010
1000
0000
,
2002
3003
0020
0030
,
0001
0010
0001
0000
,
2002
3003
0200
0300
,
0001
0100
0001
0000
,
2002
3003
0200
0300
,
1000
0100
1000
0000
,
2000
0000
0010
0000
,
0100
0100
3100
0000
,
0002
0000
0010
0000
,
0100
0100
0103
0000
,
0200
0000
0010
0000
,
0001
0001
0301
0000
,
0002
0000
1000
0000
,
0010
0010
0013
0000
;

//---------------dance-single - ----------------
#NOTES:
     dance-single:
     :
     Medium:
     5:
     0.000000,0.000000,0.000000,0.000000,0.000000,0.000000,0.000000,0.000000,0.000000,0.000000,0.000000,0.000000,0.000000,0.000000,0.000000,0.000000,0.000000,0.000000,0.000000,0.000000,0.000000,0.000000:
0000
0000
0000
0000
,
0000
0000
0000
0000
,
0000
0000
0000
0000
,
0000
0000
0000
0000
,
1000
0100
1000
0100
,
0001
0100
0001
0100
,
1000
0100
0001
0100
,
1000
0010
0001
0010
,
1000
0010
0100
0100
,
0001
0010
0100
0100
,
1000
0001
1000
1000
,
0001
1000
0001
0001
,
0100
0001
0101
0000
,
1100
0000
0101
0000
,
0100
0000
0010
0000
1000
0000
0000
0001
,
0000
1000
0000
0000
0000
0000
0000
0000
,
1000
0001
0011
0000
,
1010
0000
0011
0000
,
1000
0010
0001
0100
,
0000
0000
0000
0000
,
1000
0010
0100
0010
,
1000
0100
0001
0010
,
1000
0000
0100
0000
0001
0100
0000
1000
,
0000
0001
0000
0000
0100
0000
0100
0000
,
0001
0100
0010
0100
,
0001
0010
1000
0100
,
0001
0000
0010
0000
0010
0100
0000
1000
,
0000
0001
0000
0000
1000
0000
0001
0000
,
0202
0000
0303
0100
,
0220
0000
0330
0010
,
1000
0000
0100
0000
0010
0001
0000
0010
,
0000
0100
0000
0000
0001
0000
0100
0000
,
0220
0000
0330
0010
,
2002
0000
3003
0010
,
0001
0000
0010
0000
0100
1000
0000
0100
,
0000
0010
0001
0000
0001
0000
0001
0000
,
0000
1000
0001
0100
,
1000
0000
0100
0000
0001
0001
0001
0000
,
1000
0000
0100
0000
0001
0001
0001
0000
,
0010
0100
0001
1000
,
1000
0000
0000
1000
0001
0000
0000
0001
,
0100
0000
0000
0100
0010
0000
0100
0000
,
0010
0010
1000
0100
,
0010
0010
0001
0100
,
0010
0001
0011
0000
,
1010
0000
0011
0000
,
0010
0000
0100
0000
0001
0000
0000
1000
,
0000
0001
0000
0000
0000
0000
0000
0000
,
1000
0001
0101
0000
,
1100
0000
0101
0000
,
1000
0100
0001
0010
,
0000
0000
0000
0000
,
1000
0100
0010
0100
,
1000
0010
0001
0100
,
1000
0000
0010
0000
0001
0010
0000
1000
,
0000
0001
0000
0000
0010
0000
0010
0000
,
0001
0010
0100
0010
,
0001
0100
1000
0010
,
0001
0000
0100
0000
0100
0010
0000
1000
,
0000
0001
0000
0000
1000
0000
0001
0000
,
0022
0000
0033
0010
,
0220
0000
0330
0100
,
1000
0000
0010
0000
0100
0001
0000
0100
,
0000
0010
0000
0000
0001
0000
0010
0000
,
0220
0000
0330
0100
,
2002
0000
3003
0100
,
0001
0000
0100
0000
0010
1000
0000
0010
,
0000
0100
0001
0000
0001
0000
0001
0000
;

//---------------dance-single - ----------------
#NOTES:
     dance-single:
     :
     Hard:
     7:
     0.000000,0.000000,0.000000,0.000000,0.000000,0.000000,0.000000,0.000000,0.000000,0.000000,0.000000,0.000000,0.000000,0.000000,0.000000,0.000000,0.000000,0.000000,0.000000,0.000000,0.000000,0.000000:
0000
0000
0000
0000
,
0000
0000
0000
0000
,
0000
0000
0000
0000
,
0000
0000
0000
0000
,
1000
0100
1000
0100
0000
0010
0010
0000
,
0001
0100
0001
0100
1000
0100
1000
0100
,
0001
0010
0001
0010
0000
0100
0100
0000
,
1000
0010
1000
0010
0001
0010
0001
0010
,
0001
0010
0100
0000
0001
0000
0101
0000
,
0001
1000
0010
0000
0010
1000
0001
0000
,
0100
0010
0001
0000
0010
0000
0110
0000
,
0010
0100
1000
0000
0010
0100
0001
0000
,
0010
0001
0100
0001
0020
0000
0130
1000
,
0020
0000
0130
0001
0020
0000
0230
0000
,
2300
0000
3001
0000
0010
0100
0000
1100
,
0000
0202
0000
0000
0000
0000
0303
0000
,
0001
0010
0100
1000
0200
0000
0310
0001
,
0200
0000
0310
1000
0200
0000
0310
0000
,
0001
1000
0001
1000
0002
0000
1000
2000
,
0000
0000
0000
0000
0000
0000
3003
0000
0000
1000
0001
0000
1000
0001
1000
0000
,
1000
0000
0100
0000
0010
0001
1000
0100
,
0000
1000
0000
0010
0100
0100
0010
0000
,
0100
0000
0001
0000
1000
0010
0000
1001
,
0000
0110
0000
0000
0010
0010
0010
0000
,
0001
0000
0100
0000
0010
1000
0001
0100
,
0000
0001
0000
0010
0100
0100
0010
0000
,
0100
0000
1000
0000
0001
0010
0000
1001
,
0000
0110
0000
0000
0000
0010
1000
0100
,
0001
0000
0000
0000
0000
0010
1000
0100
,
0001
0000
0000
0000
0000
0010
1000
0100
,
0001
0000
0000
0010
0100
0010
0000
0100
,
0000
0010
0000
0000
0000
0100
0001
0010
,
1000
0000
0000
0000
0000
0100
0001
0010
,
1000
0000
0000
0000
0000
0100
0001
0010
,
1000
0000
0000
0100
0010
0100
0000
0010
,
0000
0100
0001
1000
0010
1000
0001
1000
,
0000
0000
0000
0010
0100
0010
0100
0000
,
0001
0000
0000
0001
0000
0000
0001
0000
1000
0000
0001
0000
1000
0000
0000
0000
,
1000
0100
0010
0100
1000
0010
0100
0000
,
0001
0100
0001
0100
1000
0000
1000
0000
,
0100
0010
1000
0010
2000
0000
3100
0100
,
2000
0000
3100
0001
0100
1000
2000
0000
,
3100
0001
0100
0010
0100
0000
0010
0001
,
1000
0001
1000
0100
,
0100
1000
0010
1000
0200
0000
0310
0001
,
0200
0000
0310
1000
0200
0000
0320
0000
,
0032
0000
1003
0000
0100
0010
0000
0011
,
0000
2020
0000
0000
0000
0000
3030
0000
,
1000
0100
0010
0001
0020
0000
0130
1000
,
0020
0000
0130
0001
0020
0000
0130
0000
,
1000
0001
1000
0001
2000
0000
0001
0002
,
0000
0000
0000
0000
0000
0000
3003
0000
0000
0001
1000
0000
0001
1000
0001
0000
,
0001
0000
0010
0000
0100
1000
0001
0010
,
0000
0001
0000
0100
0010
0010
0100
0000
,
0010
0000
1000
0000
0001
0100
0000
1001
,
0000
0110
0000
0000
0100
0100
0100
0000
,
0001
0000
0010
0000
0100
1000
0001
0010
,
0000
1000
0000
0010
0001
0001
0010
0000
,
0001
0000
0100
0000
1000
0100
0000
1001
,
0000
0110
0000
0000
0000
0010
0001
0100
,
1000
0000
0000
0000
0000
0010
0001
0100
,
1000
0000
0000
0000
0000
0010
0001
0100
,
1000
0000
0000
0010
0100
0010
0000
0100
,
0000
0010
0000
0000
0000
0100
1000
0010
,
0001
0000
0000
0000
0000
0100
1000
0010
,
0001
0000
0000
0000
0000
0100
1000
0010
,
0001
0000
0000
0100
0010
0100
0000
1000
,
0000
0000
0001
0000
1000
0000
0000
0000
0001
1000
0001
0000
1000
0001
1000
0000
;
