#VERSION:0.83;
#TITLE:Check;
#SUBTITLE:;
#ARTIST:FLO;
#TITLETRANSLIT:;
#SUBTITLETRANSLIT:;
#ARTISTTRANSLIT:;
#GENRE:Atlanta Bass;
#ORIGIN:;
#TAGS:;
#CREDIT:chewi;
#BANNER:Check.png;
#BACKGROUND:Check-bg.png;
#PREVIEWVID:;
#JACKET:Check-jacket.png;
#CDIMAGE:;
#DISCIMAGE:;
#LYRICSPATH:;
#CDTITLE:cdtitle.png;
#MUSIC:Check.ogg;
#OFFSET:0.001000;
#SAMPLESTART:40.424999;
#SAMPLELENGTH:12.000000;
#SELECTABLE:YES;
#BPMS:0.000000=70.500000
,16.000000=141.000000
,175.000000=70.500000
,191.000000=141.000000
;
#STOPS:106.000000=0.423000
;
#DELAYS:;
#WARPS:;
#TIMESIGNATURES:0.000000=4=4
;
#TICKCOUNTS:0.000000=4
;
#COMBOS:0.000000=1
;
#SPEEDS:0.000000=1.000000=0.000000=0
;
#SCROLLS:0.000000=1.000000
;
#FAKES:;
#LABELS:0.000000=Song Start
;
#BGCHANGES:0.000=Check.mp4=1.000=1=0=1===CrossFade==,
223.000=Check-bg.png=1.000=1=0=1===CrossFade==,
99999=-nosongbg-=1.000=0=0=0 // don't automatically add -songbackground-
;
#KEYSOUNDS:;
#ATTACKS:
;

//---------------dance-single - chewi----------------
#NOTEDATA:;
#CHARTNAME:chewi;
#CHARTHASH:2609091703;
#STEPSTYPE:dance-single;
#BANNER:;
#DESCRIPTION:chewi;
#CHARTSTYLE:;
#DIFFICULTY:Beginner;
#METER:1;
#METERF:0.000000;
#LASTSECONDHINT:108.507111;
#RADARVALUES:0.137431,0.228822,0.109944,0.146593,0.000000,105.000000,93.000000,12.000000,16.000000,0.000000,0.000000,0.000000,0.000000,0.000000,0.137431,0.228822,0.109944,0.146593,0.000000,105.000000,93.000000,12.000000,16.000000,0.000000,0.000000,0.000000,0.000000,0.000000;
#CREDIT:chewi;
#NOTES:
// measure 0
0000
0000
0000
0000
,  // measure 1
0000
0000
0000
0000
,  // measure 2
2000
0000
0000
3000
1000
0000
0000
0000
,  // measure 3
0002
0000
0000
0003
0001
0000
0000
0000
,  // measure 4
0000
0001
0000
0001
,  // measure 5
0000
1000
0000
1000
,  // measure 6
0000
0100
0000
0100
,  // measure 7
0000
0010
0000
0010
,  // measure 8
0000
1000
0000
1000
,  // measure 9
0000
0001
0000
0001
,  // measure 10
0000
0010
0000
0010
,  // measure 11
0000
0100
0000
0100
,  // measure 12
0200
0000
0000
0300
,  // measure 13
0100
0000
0000
0000
,  // measure 14
0020
0000
0000
0030
,  // measure 15
0010
0000
0000
0000
,  // measure 16
0002
0000
0000
0003
,  // measure 17
0001
0000
0000
0000
,  // measure 18
2000
0000
0000
3000
,  // measure 19
1000
0000
0000
0000
,  // measure 20
0010
0000
1001
0000
,  // measure 21
0010
0000
1001
0000
,  // measure 22
0010
0000
1001
0000
,  // measure 23
0010
0000
0010
0000
,  // measure 24
0100
0000
1001
0000
,  // measure 25
0100
0000
1001
0000
,  // measure 26
0100
0000
1001
0100
,  // measure 27
0100
0100
0100
0100
,  // measure 28
0000
0010
0000
1000
,  // measure 29
0000
0001
0000
2000
,  // measure 30
0000
0000
3000
0002
,  // measure 31
0000
0000
0003
0001
,  // measure 32
0000
0010
0000
0100
,  // measure 33
0000
1000
0000
0200
,  // measure 34
0000
0000
0300
0020
,  // measure 35
0000
0000
0030
0100
,  // measure 36
0000
1000
0000
0001
,  // measure 37
0000
1000
0000
0002
,  // measure 38
0000
0000
0003
2000
,  // measure 39
0000
0000
3000
0001
,  // measure 40
0000
0100
0000
0010
,  // measure 41
0000
0100
0000
0001
,  // measure 42
0001
0001
0000
1000
,  // measure 43
1000
1000
0000
1000
,  // measure 44
1001
0000
1001
0000
,  // measure 45
1001
0000
0000
0000
,  // measure 46
0110
0000
0110
0000
,  // measure 47
0110
0000
0000
0200
,  // measure 48
0000
0000
0300
0020
,  // measure 49
0000
0000
0030
0002
,  // measure 50
0000
0000
0003
2000
,  // measure 51
0000
0000
0000
3000
,  // measure 52
0001
0000
0001
0000
,  // measure 53
1000
0000
1000
0000
,  // measure 54
0010
0000
0010
0000
,  // measure 55
0100
0000
0100
0000
;

//---------------dance-single - chewi----------------
#NOTEDATA:;
#CHARTNAME:chewi;
#CHARTHASH:430471332;
#STEPSTYPE:dance-single;
#BANNER:;
#DESCRIPTION:chewi;
#CHARTSTYLE:;
#DIFFICULTY:Easy;
#METER:3;
#METERF:0.000000;
#LASTSECONDHINT:108.507111;
#RADARVALUES:0.191094,0.330521,0.109944,0.036648,0.000000,146.000000,134.000000,12.000000,4.000000,0.000000,0.000000,0.000000,0.000000,0.000000,0.191094,0.330521,0.109944,0.036648,0.000000,146.000000,134.000000,12.000000,4.000000,0.000000,0.000000,0.000000,0.000000,0.000000;
#CREDIT:chewi;
#NOTES:
0000
0000
0000
0000
,
0000
0000
0000
0000
,
0002
0000
0203
0000
,
2300
0000
3020
0000
,
0031
0000
0001
0000
,
0100
0000
0100
0000
,
0010
0000
0010
0000
,
0100
0000
0100
0000
,
0001
0000
0001
0000
,
1000
0000
1000
0000
,
0100
0000
0100
0000
,
0010
0000
0010
0000
,
0010
0100
0010
0000
,
0010
0000
0100
0000
,
0001
1000
0001
0000
,
1000
0000
0001
0000
,
0100
0010
0100
0000
,
0010
0000
0100
0000
,
0001
0100
0001
0000
,
0100
0000
0001
0000
,
0100
0000
0101
0000
,
0100
0000
0101
0000
,
0001
0000
0101
0000
,
0001
1000
0100
0000
,
1000
0000
1100
0000
,
1000
0000
1100
0000
,
0100
0000
1100
0100
,
0000
1000
0000
1000
,
0000
0100
0000
0010
,
0000
0100
0000
1000
,
0100
1000
0000
0001
,
0100
0001
0000
0100
,
0000
0010
0000
1000
,
0000
0010
0000
1000
,
0010
1000
0000
0001
,
0010
0001
0000
0001
,
0000
0010
0000
0100
,
0000
0010
0000
0001
,
0010
0001
0000
1000
,
0010
1000
0000
0010
,
0000
0100
0000
0001
,
0000
0100
0000
0001
,
0100
0001
0000
1000
,
0100
1000
0000
1000
,
1010
1000
1010
0010
,
1010
0010
0100
0100
,
0101
0100
0101
0001
,
0101
0001
0001
0001
,
0001
0001
0000
1000
,
1000
1000
0000
0100
,
0100
0100
0000
0010
,
0010
0010
0000
0100
,
0000
0010
0000
0001
,
0000
1000
0000
0010
,
0000
0100
0000
0001
,
0000
1000
1000
0000
;

//---------------dance-single - chewi----------------
#NOTEDATA:;
#CHARTNAME:chewi;
#CHARTHASH:640278377;
#STEPSTYPE:dance-single;
#BANNER:;
#DESCRIPTION:chewi;
#CHARTSTYLE:;
#DIFFICULTY:Medium;
#METER:5;
#METERF:0.000000;
#LASTSECONDHINT:108.507111;
#RADARVALUES:0.277479,0.432219,0.119107,0.018324,0.000000,212.000000,199.000000,13.000000,2.000000,0.000000,0.000000,0.000000,0.000000,0.000000,0.277479,0.432219,0.119107,0.018324,0.000000,212.000000,199.000000,13.000000,2.000000,0.000000,0.000000,0.000000,0.000000,0.000000;
#CREDIT:chewi;
#NOTES:
0000
0000
0000
0000
,
0000
0000
0000
0000
,
0002
0000
0103
0000
0001
0100
0001
0000
,
2000
0000
3010
0000
1000
0010
1000
0000
,
0001
0100
0001
0010
,
0100
1000
0010
1000
,
0010
0100
0010
0000
,
1000
0001
1000
0000
,
1000
0010
1000
0100
,
0010
0001
0100
0001
,
0100
0010
0100
0000
,
0001
1000
0001
0000
,
1000
0000
0000
1000
0000
0000
1000
0000
,
0001
0000
0000
0001
0000
0000
0001
0000
,
0010
0100
1000
0000
,
0100
1000
0010
0000
,
0010
0000
0000
0010
0000
0000
0010
0000
,
0100
0000
0000
0100
0000
0000
0100
0000
,
0001
0100
0010
0000
,
0100
0010
1000
0000
,
1000
0010
1010
0000
,
0010
0001
0011
0000
,
0001
0100
0101
0000
,
0100
1000
0100
1000
,
0010
0001
0011
0000
,
0010
0100
1100
0000
,
0010
0100
0101
0100
,
0001
1000
0100
0100
,
0001
0010
1000
0100
,
0001
0010
1000
0100
,
0001
0001
0000
0010
,
1000
1000
0000
0100
,
0001
0010
1000
0100
,
0001
0010
1000
0100
,
0001
0001
0000
0100
,
1000
1000
0010
0010
,
1000
0100
0001
0010
,
1000
0100
0001
0010
,
1000
1000
0000
0100
,
0001
0001
0000
0010
,
1000
0100
0001
0010
,
1000
0100
0001
0010
,
1000
1000
0000
0010
,
0001
0000
0001
0000
0010
0000
0001
0100
,
0101
0000
0100
1000
1100
0000
1000
0010
,
1010
0000
0010
0001
0100
0000
0100
0001
,
0011
0000
0010
1000
1010
0000
1000
0100
,
1100
0000
0100
0001
1000
0100
0001
0000
,
0000
0100
0000
0000
0100
0000
1000
0000
,
0000
0010
0000
0000
0100
0000
0001
0000
,
0000
0100
0000
0000
0100
0000
0010
0000
,
0000
0100
0000
0000
0001
0000
0010
0000
,
0100
1000
0001
1000
,
0000
0001
0001
0000
1000
0000
0010
0000
,
0000
0100
0100
0000
0010
0000
1000
0000
,
0000
0001
0001
0000
1001
0000
0000
0000
;

//---------------dance-single - chewi----------------
#NOTEDATA:;
#CHARTNAME:chewi;
#CHARTHASH:2968544553;
#STEPSTYPE:dance-single;
#BANNER:;
#DESCRIPTION:chewi;
#CHARTSTYLE:;
#DIFFICULTY:Hard;
#METER:7;
#METERF:0.000000;
#LASTSECONDHINT:108.507111;
#RADARVALUES:0.395277,0.432219,0.164917,0.238213,0.000000,302.000000,284.000000,18.000000,26.000000,0.000000,0.000000,0.000000,0.000000,0.000000,0.395277,0.432219,0.164917,0.238213,0.000000,302.000000,284.000000,18.000000,26.000000,0.000000,0.000000,0.000000,0.000000,0.000000;
#CREDIT:chewi;
#NOTES:
0000
0000
0000
0000
,
0000
0000
0000
0000
,
2000
0000
3100
0000
0001
0100
1000
0000
,
0020
0000
0130
0000
0001
1000
0100
0000
,
0010
0000
0001
0010
0000
0010
0001
0000
,
0100
0000
0010
1000
0000
1000
0010
0000
,
0100
0000
0001
1000
0000
1000
0100
0000
,
0010
0000
0001
0010
0000
0010
0100
0000
,
0100
0000
1000
0100
0000
0100
1000
0000
,
0010
0000
0100
0001
0000
0001
0100
0000
,
0010
0000
1000
0001
0000
0001
0010
0000
,
0100
0000
1000
0000
1000
0010
0100
0001
,
0010
0001
0100
0001
0000
0100
0100
0000
,
0010
1000
0100
1000
0000
0010
0010
0000
,
0100
0000
0100
0001
0000
0100
0010
0000
,
1000
0000
0100
0010
0000
0100
1000
0000
,
0100
1000
0010
1000
0000
0010
0010
0000
,
0100
0001
0010
0001
0000
0100
0100
0000
,
0010
0000
0010
1000
0000
0010
0100
0000
,
0001
0000
1000
0001
1000
0000
0001
0001
,
1000
0001
0010
0000
0220
0000
0330
0000
,
0010
0100
0010
0000
0011
0000
0101
0000
,
1000
0010
0100
0000
0202
0000
0303
0000
,
0100
0001
0100
0001
0010
0001
0010
0001
,
0010
0100
0100
0000
2200
0000
3300
0000
,
1000
0010
0100
0000
0101
0000
1010
0000
,
0001
0100
0010
0000
1010
0000
0110
0000
,
0110
0000
1001
0000
1001
0000
1000
0010
,
1000
0000
0100
1000
0010
0000
1000
0010
,
0001
0000
0010
0001
0100
0000
1000
0100
,
1000
0200
2000
0000
3300
0000
0001
0010
,
0001
0020
0001
0000
0031
0000
0001
0100
,
0001
0000
0010
0001
0100
0000
0001
0100
,
1000
0000
0100
1000
0010
0000
0010
1000
,
0010
2000
0020
0000
3030
0000
0001
0010
,
0001
0020
0001
0000
0031
0000
0010
0000
,
0100
0000
0010
0001
1000
0000
0010
0000
,
0100
0000
0001
0100
0010
0000
1000
0100
,
1000
0200
2000
0000
3300
0000
0001
0100
,
0001
0200
0001
0000
0301
0000
0100
0000
,
0010
0000
1000
0100
0010
0000
0100
0000
,
1000
0000
0010
0100
0001
0000
0001
0100
,
0001
0200
0002
0000
0303
0000
1000
0010
,
1000
0020
1000
0000
1030
0000
2000
0000
,
3100
0000
0001
0100
1000
0000
0020
0000
,
0130
0000
0001
1000
0100
1000
0002
0010
,
0013
0000
2000
0010
3010
0000
0020
0100
,
0130
0000
0200
0001
0010
0301
0001
0000
,
1000
0000
0001
0100
0001
0000
1000
0000
,
0001
0000
1000
0010
1000
0000
0001
0000
,
1000
0000
0100
0010
0100
0000
0010
0000
,
0001
0000
0100
0010
0100
0000
0110
0000
,
1000
0110
0001
1001
,
1000
0000
1001
0000
0001
0000
1000
0100
,
0000
0100
1000
0000
1100
0000
0001
0100
,
0000
0100
0001
0000
0101
0000
0000
0000
;
