#VERSION:0.83;
#TITLE:Can I Get A Bump;
#SUBTITLE:;
#ARTIST:Ayesha Erotica;
#TITLETRANSLIT:;
#SUBTITLETRANSLIT:;
#ARTISTTRANSLIT:;
#GENRE:Ballroom;
#ORIGIN:;
#TAGS:;
#CREDIT:chewi;
#BANNER:Can I Get A Bump.png;
#BACKGROUND:Can I Get A Bump-bg.png;
#PREVIEWVID:;
#JACKET:Can I Get A Bump-jacket.png;
#CDIMAGE:;
#DISCIMAGE:;
#LYRICSPATH:;
#CDTITLE:cdtitle.png;
#MUSIC:Can I Get A Bump.ogg;
#OFFSET:0.000000;
#SAMPLESTART:43.636002;
#SAMPLELENGTH:12.730000;
#SELECTABLE:YES;
#BPMS:0.000000=132.000000
;
#STOPS:30.000000=0.455000
;
#DELAYS:;
#WARPS:;
#TIMESIGNATURES:0.000000=4=4
;
#TICKCOUNTS:0.000000=4
;
#COMBOS:0.000000=1
;
#SPEEDS:0.000000=1.000000=0.000000=0
;
#SCROLLS:0.000000=1.000000
;
#FAKES:;
#LABELS:0.000000=Song Start
;
#BGCHANGES:;
#KEYSOUNDS:;
#ATTACKS:
;

//---------------dance-single - ----------------
#NOTEDATA:;
#CHARTNAME:;
#CHARTHASH:537850911;
#STEPSTYPE:dance-single;
#BANNER:;
#DESCRIPTION:;
#CHARTSTYLE:;
#DIFFICULTY:Easy;
#METER:3;
#METERF:3.000000;
#LASTSECONDHINT:87.273178;
#RADARVALUES:0.218743,0.270796,0.090738,0.000000,0.000000,135.000000,127.000000,8.000000,0.000000,0.000000,0.000000,0.000000,0.000000,0.000000,0.218743,0.270796,0.090738,0.000000,0.000000,135.000000,127.000000,8.000000,0.000000,0.000000,0.000000,0.000000,0.000000,0.000000;
#CREDIT:chewi;
#NOTES:
// measure 0
0000
0000
0000
0000
,  // measure 1
0000
0000
0000
0000
,  // measure 2
0000
0000
0000
0000
,  // measure 3
0000
0000
0000
0000
,  // measure 4
1001
0000
0000
0000
,  // measure 5
0110
0000
0000
0000
,  // measure 6
0010
0010
0100
0100
,  // measure 7
0001
0001
0000
0001
,  // measure 8
0000
1000
0000
0001
,  // measure 9
1000
0100
0000
0010
,  // measure 10
0000
0100
0000
1000
,  // measure 11
0001
0100
0000
0010
,  // measure 12
0000
0100
0000
0001
,  // measure 13
0100
0001
0000
0100
,  // measure 14
0000
0010
0000
1000
,  // measure 15
0100
1000
0000
0100
,  // measure 16
0000
0100
0000
0010
,  // measure 17
0000
0010
0000
0100
,  // measure 18
0100
1000
0000
0010
,  // measure 19
0010
0100
0000
0100
,  // measure 20
0000
0100
0000
0001
,  // measure 21
0000
0001
0000
0001
,  // measure 22
0001
1000
0000
1000
,  // measure 23
1000
1001
0001
1000
,  // measure 24
0001
1000
0001
1000
,  // measure 25
0000
0001
1000
0001
,  // measure 26
0000
1000
0001
1000
,  // measure 27
0000
1000
1001
0001
,  // measure 28
1000
0001
1000
0001
,  // measure 29
0000
1000
0001
1000
,  // measure 30
0000
0001
1000
0001
,  // measure 31
0000
0001
1001
1000
,  // measure 32
1000
0010
0000
0001
,  // measure 33
0001
0100
0000
1000
,  // measure 34
1000
0010
0000
0001
,  // measure 35
0001
0010
0000
1000
,  // measure 36
1000
0100
0000
0001
,  // measure 37
0001
0100
0000
1000
,  // measure 38
1000
0010
0000
0001
,  // measure 39
0001
0010
0110
0100
,  // measure 40
0010
0100
0010
0100
,  // measure 41
0000
0010
0100
0010
,  // measure 42
0000
0100
0010
0100
,  // measure 43
0000
0100
0110
0010
,  // measure 44
0100
0010
0100
0010
,  // measure 45
0000
0100
0010
0100
,  // measure 46
0000
0010
0100
0010
,  // measure 47
0000
0100
0110
0010
;

//---------------dance-single - ----------------
#NOTEDATA:;
#CHARTNAME:;
#CHARTHASH:2812206872;
#STEPSTYPE:dance-single;
#BANNER:;
#DESCRIPTION:;
#CHARTSTYLE:;
#DIFFICULTY:Medium;
#METER:5;
#METERF:5.000000;
#LASTSECONDHINT:87.273178;
#RADARVALUES:0.278695,0.352035,0.045369,0.181476,0.022684,172.000000,168.000000,4.000000,16.000000,0.000000,0.000000,0.000000,0.000000,0.000000,0.278695,0.352035,0.045369,0.181476,0.022684,172.000000,168.000000,4.000000,16.000000,0.000000,0.000000,0.000000,0.000000,0.000000;
#CREDIT:chewi;
#NOTES:
// measure 0
0000
0000
0000
0000
,  // measure 1
0000
0000
0000
0000
,  // measure 2
0000
0000
0000
0000
,  // measure 3
0000
0000
0000
0000
,  // measure 4
0010
0000
0000
0000
0000
0000
0000
0000
0100
0000
0000
0100
0000
0000
0100
0000
,  // measure 5
0001
0000
0000
0000
0000
0000
0000
0000
1000
0000
0000
1000
0000
0000
1000
0000
,  // measure 6
0001
0010
0100
1000
,  // measure 7
1000
0100
0000
1000
,  // measure 8
0001
0000
0100
0100
0100
0000
0010
0000
,  // measure 9
1000
0001
1000
0001
,  // measure 10
0010
0000
0100
0100
0100
0000
0010
0000
,  // measure 11
0001
0100
0001
1000
,  // measure 12
0010
0010
0010
0000
0100
0000
0001
0000
,  // measure 13
1000
0001
1000
0100
,  // measure 14
0010
0010
0010
0000
0100
0000
1000
0000
,  // measure 15
0010
0100
0100
0001
,  // measure 16
1000
0200
0300
0010
,  // measure 17
0001
2000
3000
0001
,  // measure 18
1000
0000
0000
0000
0010
0000
0000
0010
0000
0000
0000
0000
0100
0000
0000
0000
,  // measure 19
0001
0000
0000
0000
1000
0000
0000
1000
0000
0000
0000
0000
0002
0000
0000
0000
,  // measure 20
0103
2000
3100
0002
,  // measure 21
0013
0000
2000
0000
3010
0000
0010
0100
,  // measure 22
0010
0000
1000
0000
0001
0000
0010
0100
,  // measure 23
0010
0110
0110
0010
,  // measure 24
0001
0100
1000
0010
,  // measure 25
0000
0001
0100
1000
,  // measure 26
0000
0010
0001
0100
,  // measure 27
1000
0010
0001
0100
,  // measure 28
0001
0010
1000
0100
,  // measure 29
0000
0001
0010
1000
,  // measure 30
0000
0100
0001
0010
,  // measure 31
1000
0100
0001
0020
,  // measure 32
0000
0230
0000
0310
,  // measure 33
1000
0000
0100
0100
0100
0000
0020
0000
,  // measure 34
0000
0000
0032
0000
0000
0000
0103
0001
,  // measure 35
0100
0001
0100
0000
0101
0000
0002
0000
,  // measure 36
0000
0203
0000
0301
,  // measure 37
0010
0000
0100
0100
0100
0000
0020
0000
,  // measure 38
0000
0000
0230
0000
0000
0000
1300
0100
,  // measure 39
1000
0100
1000
0000
1100
0000
0100
0000
,  // measure 40
1000
0010
0001
0100
,  // measure 41
0000
1000
0010
0001
,  // measure 42
0000
0100
1000
0010
,  // measure 43
0001
0100
1000
0010
,  // measure 44
1000
0100
0001
0010
,  // measure 45
0000
1000
0100
0001
,  // measure 46
0000
0010
1000
0100
,  // measure 47
0001
0020
2000
3030
;

//---------------dance-single - chewi----------------
#NOTEDATA:;
#CHARTNAME:;
#CHARTHASH:3665635335;
#STEPSTYPE:dance-single;
#BANNER:;
#DESCRIPTION:chewi;
#CHARTSTYLE:;
#DIFFICULTY:Hard;
#METER:8;
#METERF:0.000000;
#LASTSECONDHINT:86.818634;
#RADARVALUES:0.554150,0.565694,0.204160,0.000000,0.238187,342.000000,324.000000,18.000000,0.000000,0.000000,0.000000,0.000000,0.000000,0.000000,0.554150,0.565694,0.204160,0.000000,0.238187,342.000000,324.000000,18.000000,0.000000,0.000000,0.000000,0.000000,0.000000,0.000000;
#CREDIT:chewi;
#NOTES:
// measure 0
0000
0000
0000
0000
,  // measure 1
0000
0000
0000
0000
,  // measure 2
0000
0000
0000
0000
,  // measure 3
0000
0000
0000
0000
,  // measure 4
1001
0000
0000
0000
0000
0000
0000
0000
0100
0000
0000
0010
0000
0000
0100
0000
,  // measure 5
0110
0000
0000
0000
0000
0000
0000
0000
0010
0000
0000
1000
0000
0000
0010
0000
,  // measure 6
1010
0010
1000
1000
0100
0100
0010
0010
,  // measure 7
0001
0000
0001
0000
1000
0000
1000
0000
0000
0000
0000
0000
1000
0000
0001
1000
,  // measure 8
0001
0000
1000
0000
0100
0000
0000
0100
0010
0000
0001
0000
1000
0000
0001
1000
,  // measure 9
0001
0000
1000
0000
0010
0000
0000
0010
0100
0000
0001
0000
0100
0000
0010
0100
,  // measure 10
0010
0000
1000
0000
0100
0000
0000
0100
1000
0000
0010
0000
0100
0000
0001
1000
,  // measure 11
0001
0000
0100
0000
0010
0000
0000
0010
1000
0000
0001
0000
0001
0000
1000
0001
,  // measure 12
1000
0000
0001
0000
0010
0000
0000
0010
0100
0000
1000
0000
0001
0000
1000
0001
,  // measure 13
1000
0000
0001
0000
0100
0000
0000
0100
0010
0000
1000
0000
0010
0000
0100
0010
,  // measure 14
0100
0000
0001
0000
0010
0000
0000
0010
0001
0000
0100
0000
0010
0000
1000
0001
,  // measure 15
1000
0000
0010
0000
0100
0000
0000
0100
0001
0000
1000
0000
0001
0000
1000
0001
,  // measure 16
1000
0000
1000
0000
0001
0000
0000
1000
0001
0000
1000
0000
0100
0000
0010
0100
,  // measure 17
0010
0000
0100
0000
0010
0000
0000
0010
0100
0000
1000
0000
0001
0000
1000
0001
,  // measure 18
1000
0000
0001
0000
1000
0000
0000
0010
0000
0000
0100
0000
0001
0000
0010
0001
,  // measure 19
0010
0000
0100
0000
1000
0000
0000
0010
0000
0000
1000
0000
0010
0000
1000
0010
,  // measure 20
1000
0000
0100
0000
0010
0000
0000
0010
0001
0000
0010
0000
0100
0000
1000
0001
,  // measure 21
0010
0000
0001
0000
1000
0000
0000
1000
0010
0000
1010
0000
1000
0000
0001
1000
,  // measure 22
0001
0000
1000
0000
0100
0000
0000
0100
0010
0000
0001
0000
0010
0000
0100
0010
,  // measure 23
0100
1000
1001
0000
1001
0000
1000
0010
,  // measure 24
0001
1000
0100
0001
1000
0001
0100
0100
,  // measure 25
0000
0001
0010
1000
0001
0100
1000
1000
,  // measure 26
0000
0100
0001
1000
0010
0001
1000
1000
,  // measure 27
0000
0001
0100
0001
0101
0000
0001
0010
,  // measure 28
1000
0001
0100
1000
0001
1000
0100
0100
,  // measure 29
0000
1000
0010
0001
1000
0100
0001
0001
,  // measure 30
0000
0100
1000
0001
0010
1000
0001
0001
,  // measure 31
0000
0000
1000
0000
0100
0000
1000
0000
1100
0000
0000
0000
1000
0100
1000
0000
,  // measure 32
0100
0000
0000
0000
0010
0001
0000
0000
0010
0000
0000
0000
0001
1000
0001
0000
,  // measure 33
0100
0000
0100
0000
0010
1000
0010
0000
1000
0000
1000
0000
0010
0100
0010
0000
,  // measure 34
0100
0000
0000
0000
0010
0100
0000
0000
0001
0000
0000
0000
1000
0000
1000
0000
,  // measure 35
0001
0000
0001
0000
0010
0000
0000
0000
0110
0000
0000
0000
0100
0000
0010
0001
,  // measure 36
1000
0000
0000
0000
0100
0000
0000
0000
0010
0000
0000
0000
0100
0000
1000
0010
,  // measure 37
0100
0000
0000
0000
0001
0000
0000
0000
0101
0000
0000
0000
0100
0000
0010
1000
,  // measure 38
0001
0000
1000
0000
0001
0000
1000
1000
,  // measure 39
0001
0001
0010
0010
0100
0100
1000
0010
,  // measure 40
0001
1000
0100
0001
1000
0001
0100
0100
,  // measure 41
0000
0001
0011
0000
0011
0100
1000
1000
,  // measure 42
0000
0100
0001
1000
0010
0001
1000
1000
,  // measure 43
0000
0001
0101
0000
0101
0000
0001
0010
,  // measure 44
1000
0001
0100
1000
0001
1000
0100
0100
,  // measure 45
0000
1000
1010
0000
1010
0100
0001
0001
,  // measure 46
0000
0100
1000
0001
0010
1000
0001
0001
,  // measure 47
0000
1000
1100
0000
1100
0000
0000
0000
;

//---------------dance-single - ----------------
#NOTEDATA:;
#CHARTNAME:;
#CHARTHASH:3088804847;
#STEPSTYPE:dance-single;
#BANNER:;
#DESCRIPTION:;
#CHARTSTYLE:;
#DIFFICULTY:Beginner;
#METER:1;
#METERF:0.000000;
#LASTSECONDHINT:87.273178;
#RADARVALUES:0.123144,0.135398,0.022684,0.000000,0.000000,76.000000,74.000000,2.000000,0.000000,0.000000,0.000000,0.000000,0.000000,0.000000,0.123144,0.135398,0.022684,0.000000,0.000000,76.000000,74.000000,2.000000,0.000000,0.000000,0.000000,0.000000,0.000000,0.000000;
#CREDIT:chewi;
#NOTES:
// measure 0
0000
0000
0000
0000
,  // measure 1
0000
0000
0000
0000
,  // measure 2
0000
0000
0000
0000
,  // measure 3
0000
0000
0000
0000
,  // measure 4
1001
0000
0000
0000
,  // measure 5
0110
0000
0000
0000
,  // measure 6
0010
0000
0100
0000
,  // measure 7
0001
0000
0000
0001
,  // measure 8
0000
0000
0000
1000
,  // measure 9
0000
0000
0000
0100
,  // measure 10
0000
0000
0000
0010
,  // measure 11
0000
0000
0000
0100
,  // measure 12
0000
0000
0000
1000
,  // measure 13
0000
0000
0000
0001
,  // measure 14
0000
0000
0000
0100
,  // measure 15
0000
0000
0000
0100
,  // measure 16
0000
0100
0000
0010
,  // measure 17
0000
0010
0000
0100
,  // measure 18
0000
0000
0000
0010
,  // measure 19
0000
0000
0000
0100
,  // measure 20
0000
0100
0000
0001
,  // measure 21
0000
0001
0000
0001
,  // measure 22
0000
0000
0000
1000
,  // measure 23
0000
0000
0000
1000
,  // measure 24
0000
1000
0000
1000
,  // measure 25
0000
0001
0000
0001
,  // measure 26
0000
1000
0000
1000
,  // measure 27
0000
1000
0000
0001
,  // measure 28
0000
0001
0000
0001
,  // measure 29
0000
1000
0000
1000
,  // measure 30
0000
0001
0000
0001
,  // measure 31
0000
0001
0000
1000
,  // measure 32
0000
0010
0000
0001
,  // measure 33
0000
0100
0000
1000
,  // measure 34
0000
0010
0000
0001
,  // measure 35
0000
0010
0000
1000
,  // measure 36
0000
0100
0000
0001
,  // measure 37
0000
0100
0000
1000
,  // measure 38
0000
0010
0000
0001
,  // measure 39
0000
0010
0000
0100
,  // measure 40
0000
0100
0000
0100
,  // measure 41
0000
0010
0000
0010
,  // measure 42
0000
0100
0000
0100
,  // measure 43
0000
0100
0000
0010
,  // measure 44
0000
0010
0000
0010
,  // measure 45
0000
0100
0000
0100
,  // measure 46
0000
0010
0000
0010
,  // measure 47
0000
0100
0000
0010
;
