#VERSION:0.83;
#TITLE:CALL ME;
#SUBTITLE:;
#ARTIST:DEEE-LITE;
#TITLETRANSLIT:;
#SUBTITLETRANSLIT:;
#ARTISTTRANSLIT:;
#GENRE:;
#ORIGIN:;
#TAGS:;
#CREDIT:;
#BANNER:CALL ME.png;
#BACKGROUND:CALL ME-bg.png;
#PREVIEWVID:;
#JACKET:CALL ME-jacket.png;
#CDIMAGE:;
#DISCIMAGE:;
#LYRICSPATH:;
#CDTITLE:cdtitle.png;
#MUSIC:CALL ME.ogg;
#OFFSET:-0.001000;
#SAMPLESTART:45.000999;
#SAMPLELENGTH:12.000000;
#SELECTABLE:YES;
#BPMS:0.000000=128.000000
;
#STOPS:;
#DELAYS:;
#WARPS:;
#TIMESIGNATURES:0.000000=4=4
;
#TICKCOUNTS:0.000000=4
;
#COMBOS:0.000000=1
;
#SPEEDS:0.000000=1.000000=0.000000=0
;
#SCROLLS:0.000000=1.000000
;
#LABELS:0.000000=Song Start
;
#BGCHANGES:0.000=CALL ME.mp4=1.000=0=0=1=====,
224.000=CALL ME-bg.png=1.000=1=0=1===CrossFade==,
99999=-nosongbg-=1.000=0=0=0 // don't automatically add -songbackground-
;
#KEYSOUNDS:;
#ATTACKS:
;

//---------------dance-single - ----------------
#NOTEDATA:;
#CHARTNAME:;
#CHARTHASH:1692410137;
#STEPSTYPE:dance-single;
#BANNER:;
#DESCRIPTION:;
#CHARTSTYLE:;
#DIFFICULTY:Beginner;
#METER:1;
#METERF:0.000000;
#LASTSECONDHINT:105.000992;
#RADARVALUES:0.093500,0.150625,0.017932,0.071726,0.000000,73.000000,71.000000,2.000000,8.000000,0.000000,0.000000,0.000000,0.000000,0.000000,0.093500,0.150625,0.017932,0.071726,0.000000,73.000000,71.000000,2.000000,8.000000,0.000000,0.000000,0.000000,0.000000,0.000000;
#CREDIT:;
#NOTES:
// measure 0
0000
0000
0000
0000
,  // measure 1
0000
0000
0000
0000
,  // measure 2
0000
0000
0000
0000
,  // measure 3
0000
0000
0000
0000
,  // measure 4
0000
1000
0000
1000
,  // measure 5
0000
1000
1000
0000
,  // measure 6
0000
0001
0000
0001
,  // measure 7
0000
0001
0001
0000
,  // measure 8
1001
0000
0000
0000
,  // measure 9
0100
0000
0000
0000
,  // measure 10
0010
0000
0000
0000
,  // measure 11
0100
0000
0000
0000
,  // measure 12
0001
0000
0000
0000
,  // measure 13
1000
0000
0000
0000
,  // measure 14
0001
0000
0000
0000
,  // measure 15
1000
0000
0000
0000
,  // measure 16
2000
0000
0000
3000
,  // measure 17
1000
0000
0000
0000
,  // measure 18
0002
0000
0000
0003
,  // measure 19
0001
0000
0000
0000
,  // measure 20
0200
0000
0000
0300
,  // measure 21
0100
0000
0000
0000
,  // measure 22
0020
0000
0000
0030
,  // measure 23
0010
0000
0000
0000
,  // measure 24
0010
0000
0010
0000
,  // measure 25
1000
0000
0000
0000
,  // measure 26
0010
0000
0010
0000
,  // measure 27
0001
0000
0000
0000
,  // measure 28
0010
0000
1000
0000
,  // measure 29
0010
0000
0001
0000
,  // measure 30
0010
0000
1000
0000
,  // measure 31
0010
0000
0001
0000
,  // measure 32
0001
0000
0000
0000
,  // measure 33
0100
0000
0000
0000
,  // measure 34
1000
0000
0000
0000
,  // measure 35
0010
0000
0000
0000
,  // measure 36
0001
0000
0000
0000
,  // measure 37
0010
0000
0000
0000
,  // measure 38
1000
0000
0000
0000
,  // measure 39
0100
0000
0000
0000
,  // measure 40
0002
0000
0000
0003
,  // measure 41
0001
0000
0000
0000
,  // measure 42
2000
0000
0000
3000
,  // measure 43
1000
0000
0000
0000
,  // measure 44
0200
0000
0000
0300
,  // measure 45
0100
0000
0000
0000
,  // measure 46
0020
0000
0000
0030
,  // measure 47
0010
0000
0000
0000
,  // measure 48
0100
0000
0100
0000
,  // measure 49
0001
0000
0001
0000
,  // measure 50
0100
0000
0100
0000
,  // measure 51
1000
0000
1000
0000
,  // measure 52
0100
0000
0100
0000
,  // measure 53
0001
0000
0001
0000
,  // measure 54
0100
0000
0100
0000
,  // measure 55
1000
0000
1000
0000
,  // measure 56
1001
0000
0000
0000
;

//---------------dance-single - ----------------
#NOTEDATA:;
#CHARTNAME:;
#CHARTHASH:2147483647;
#STEPSTYPE:dance-single;
#BANNER:;
#DESCRIPTION:;
#CHARTSTYLE:;
#DIFFICULTY:Easy;
#METER:3;
#METERF:3.000000;
#LASTSECONDHINT:105.000992;
#RADARVALUES:0.180597,0.200834,0.017932,0.125521,0.000000,141.000000,139.000000,2.000000,14.000000,0.000000,0.000000,0.000000,0.000000,0.000000,0.180597,0.200834,0.017932,0.125521,0.000000,141.000000,139.000000,2.000000,14.000000,0.000000,0.000000,0.000000,0.000000,0.000000;
#CREDIT:;
#NOTES:
0000
0000
0000
0000
,
0000
0000
0000
0000
,
0000
0000
0000
0000
,
0000
0000
0000
0000
,
0000
1000
0000
0001
,
0000
1000
0001
0000
,
0000
0001
0000
1000
,
0000
0001
1000
0000
,
2000
0000
3100
0000
,
0002
0000
0103
0000
,
2000
0000
3010
0000
,
0002
0000
0013
0000
,
0010
0010
0100
0000
,
0100
0100
0010
0000
,
0001
0001
1000
0000
,
1000
1000
0001
0000
,
1002
0000
0010
0000
,
0100
0000
1003
0000
,
2001
0000
0001
0000
,
0010
0000
3100
0000
,
1000
0100
0010
0000
,
0001
0010
0100
0000
,
1000
0010
0100
0000
,
0001
0100
0010
0000
,
0100
0100
0001
0001
,
0100
0000
0010
0000
,
1000
1000
0100
0100
,
1000
0000
0100
0000
,
0010
0010
0001
0001
,
0010
0000
0001
0000
,
1000
1000
0001
0001
,
0100
0000
0001
0000
,
0100
0001
0100
0100
,
0001
0100
0001
0000
,
1000
0100
1000
1000
,
0100
1000
0100
0000
,
1000
0001
1000
1000
,
0001
1000
0001
0000
,
0100
0010
0100
0100
,
0010
0100
0010
0000
,
0020
0000
2030
0000
,
3020
0000
2030
0000
,
3002
0000
0203
0000
,
0302
0000
0203
0000
,
0301
0001
0000
1000
,
0000
0100
0000
0100
,
0000
1000
0000
0001
,
0000
0100
0100
0100
,
0100
0010
0000
0010
,
0000
0100
0000
0100
,
0000
0001
0000
0001
,
0000
1000
1000
1000
,
1000
0100
0000
0100
,
0000
0010
0000
0010
,
0000
0100
0000
0100
,
0000
1000
1000
1000
,
1000
0000
0000
0000
;

//---------------dance-single - ----------------
#NOTEDATA:;
#CHARTNAME:;
#CHARTHASH:2147483647;
#STEPSTYPE:dance-single;
#BANNER:;
#DESCRIPTION:;
#CHARTSTYLE:;
#DIFFICULTY:Medium;
#METER:5;
#METERF:5.000000;
#LASTSECONDHINT:105.000992;
#RADARVALUES:0.279220,0.351459,0.197247,0.035863,0.062761,218.000000,196.000000,22.000000,4.000000,0.000000,0.000000,0.000000,0.000000,0.000000,0.279220,0.351459,0.197247,0.035863,0.062761,218.000000,196.000000,22.000000,4.000000,0.000000,0.000000,0.000000,0.000000,0.000000;
#CREDIT:;
#NOTES:
0000
0000
0000
0000
,
0000
0000
0000
0000
,
0000
0000
0000
0000
,
0000
0000
0000
0000
,
0000
0010
0100
0000
0000
0010
0100
0000
,
0000
0010
0100
0000
0101
0000
0000
0000
,
0000
0010
0100
0000
0000
0010
0100
0000
,
0000
0010
0100
0000
1100
0000
0000
0000
,
0001
0010
0100
0010
,
0001
0100
0010
0100
,
0001
0010
0100
1000
,
1000
0100
0010
0001
,
1000
0000
0000
1000
0000
0000
1000
0000
0000
1000
0000
0000
1000
0000
0000
0000
,
0001
0000
0000
0001
0000
0000
0001
0000
0000
0001
0000
0000
0001
0000
0000
0000
,
0100
0000
0000
0100
0000
0000
0100
0000
0000
0100
0000
0000
0100
0000
0000
0000
,
0010
0000
0000
0010
0000
0000
0010
0000
0000
0010
0000
0000
0010
0000
0000
0000
,
0010
0000
0010
0000
0010
0100
0001
0000
,
0001
0011
1000
1010
,
0100
0000
0100
0000
0010
1000
0001
0000
,
0100
0110
1000
1001
,
0001
0010
1000
0010
,
0001
0100
1000
0100
,
1000
0001
0010
0100
,
1000
0010
0100
0001
,
1000
0100
0110
0000
,
0001
0100
0110
0000
,
1000
0001
0101
0000
,
0001
1000
1100
0000
,
1000
0100
1100
0000
,
0010
0001
0011
0000
,
0001
0100
0101
0000
,
0100
0010
0110
0000
,
1000
0010
0100
1000
,
0100
0010
1000
0100
,
0001
0010
1000
0100
,
0001
0010
0100
0001
,
0010
0001
0100
0001
,
0010
0100
0001
0010
,
1000
0100
0001
0010
,
1000
0100
0001
0100
,
0200
0000
0000
0000
,
2300
0000
0000
0000
,
3002
0000
0000
0000
,
0203
0000
0000
0000
,
0300
0101
0000
0101
,
0000
1010
0000
1010
,
0000
1001
0000
1001
,
0000
0001
0001
0001
,
1000
0000
0000
0000
0100
0000
0000
0000
0010
0000
0000
0010
0001
0000
0000
0000
,
0001
0000
0000
0000
0010
0000
0000
0000
0100
0000
0000
0100
1000
0000
0000
0000
,
1000
0000
0000
0000
0010
0000
0000
0000
0100
0000
0000
0100
0001
0000
0000
0000
,
0001
0100
0110
1001
,
0001
0000
0000
0000
0100
0000
0000
0000
0010
0000
0000
0010
1000
0000
0000
0000
,
0001
0000
0000
0000
0010
0000
0000
0000
0100
0000
0000
0100
1000
0000
0000
0000
,
1000
0000
0000
0000
0010
0000
0000
0000
0100
0000
0000
0100
0001
0000
0000
0000
,
0001
1000
0001
1000
0001
1000
0001
1000
,
0001
0000
0000
0000
;

//---------------dance-single - ----------------
#NOTEDATA:;
#CHARTNAME:;
#CHARTHASH:2147483647;
#STEPSTYPE:dance-single;
#BANNER:;
#DESCRIPTION:;
#CHARTSTYLE:;
#DIFFICULTY:Hard;
#METER:7;
#METERF:7.000000;
#LASTSECONDHINT:105.000992;
#RADARVALUES:0.422673,0.426772,0.116555,0.000000,0.116555,330.000000,317.000000,13.000000,0.000000,0.000000,0.000000,0.000000,0.000000,0.000000,0.422673,0.426772,0.116555,0.000000,0.116555,330.000000,317.000000,13.000000,0.000000,0.000000,0.000000,0.000000,0.000000,0.000000;
#CREDIT:;
#NOTES:
0000
0000
0000
0000
,
0000
0000
0000
0000
,
0000
0000
0000
0000
,
0000
0000
0000
0000
,
0000
1000
0001
0000
0000
1000
0001
0000
,
0000
1000
0001
1000
0100
0000
0000
0000
,
0000
0001
1000
0000
0000
0001
1000
0000
,
0000
0000
0001
0000
1000
0000
0001
0000
0100
0000
0000
0010
0000
0000
1000
0000
,
1001
0000
1000
0000
0100
0010
0001
0000
,
0010
0000
0100
0000
1000
0001
0100
0000
,
0010
0000
1000
0000
0001
0100
0010
0000
,
1000
0000
0001
0000
0010
0100
1000
1000
,
1000
0000
0000
1000
0000
0000
1000
0000
0000
1000
0000
0000
1000
0000
0000
0001
,
0000
0000
0001
0000
0000
0001
0000
0000
0001
0000
0000
0001
0000
0000
0001
0000
,
0100
0000
0000
0100
0000
0000
0100
0000
0000
0100
0000
0000
0100
0000
0000
0010
,
0000
0000
0010
0000
0000
0010
0000
0000
0010
0000
0000
0010
0000
0000
0010
0000
,
0100
0000
0001
0000
0010
0100
1000
0010
,
1000
0000
0100
0000
0010
0001
0100
0001
,
0010
0000
0100
0000
1000
0001
0100
1000
,
0100
0000
0010
0000
1000
0100
0001
0100
,
1000
0001
0010
0100
1000
0001
0100
0010
,
1000
0001
0100
0010
0000
0000
1000
1000
,
0000
0000
0001
0001
0000
0000
1001
0000
,
0000
0110
1001
0000
,
1000
1000
0001
0000
0010
0001
1000
0010
,
0100
0100
0001
0000
0100
0001
1000
0100
,
0010
0010
0100
0000
0010
0001
1000
0010
,
0100
0001
0001
0000
0100
0001
1000
0100
,
1000
1000
0001
0000
0010
0001
1000
0010
,
0100
0100
0001
0000
0100
0001
1000
0100
,
0010
0010
0100
0000
0010
0001
1000
0010
,
0100
0001
0001
0000
0100
0001
1000
0100
,
1000
0100
0001
0100
1000
0100
0001
0000
,
0001
0100
1000
0100
0001
0100
1000
0000
,
0001
0100
1000
0100
0001
0100
1000
0000
,
1000
0100
0001
0100
1000
0100
0001
0000
,
0010
0100
0001
0100
0010
0100
0001
0000
,
0100
0010
1000
0010
0100
0010
1000
0000
,
0010
0100
1000
0010
0100
1000
0100
0000
,
0010
0100
0001
0100
0010
0100
0001
0100
,
0100
0000
0000
0000
0100
0000
0000
0010
0000
0000
1000
0000
0100
0000
0010
0000
,
0001
0000
0000
0000
0001
0000
0000
1000
0000
0000
0010
0000
0100
0000
0001
0000
,
1000
0000
0000
0000
1000
0000
0000
0001
0000
0000
1000
0000
0100
0000
0010
0000
,
0001
0000
0000
0000
0001
0000
0000
1000
0000
0000
0010
0000
1000
0000
0001
0000
,
0100
0010
0110
0000
1000
0000
0110
0000
,
0001
0000
0010
0000
0011
0000
0000
0000
0100
0000
0000
1000
0100
0000
1000
0000
,
0010
0000
1010
0000
0100
0001
0101
0000
,
0110
1001
0110
1001
,
1000
0000
0001
0000
0100
0000
0000
0000
0010
0000
0000
0010
1000
0000
0000
0000
,
0001
0000
0010
0000
0100
0000
0000
0000
1000
0000
0000
1000
0001
0000
0000
0000
,
0010
0000
0100
0000
1000
0000
0000
0000
0001
0000
0000
0001
1000
0000
0000
0000
,
0001
0000
0100
0000
0010
0000
1000
0000
0001
0100
0000
0001
0100
0000
0001
0000
,
1000
0000
0001
0000
0100
0000
0000
0000
0010
0000
0000
0010
1000
0000
0000
0000
,
0001
0000
0010
0000
0100
0000
0000
0000
1000
0000
0000
1000
0001
0000
0000
0000
,
0010
0000
0100
0000
1000
0000
0000
0000
0001
0000
0000
0001
1000
0000
0000
0000
,
0001
0000
0100
0000
0010
0000
1000
0000
0001
0100
0000
0001
0100
0000
0001
0000
,
0001
0000
0000
0000
;
