#VERSION:0.83;
#TITLE:Boy's a Liar Pt. 2;
#SUBTITLE:;
#ARTIST:PinkPantheress & Ice Spice;
#TITLETRANSLIT:;
#SUBTITLETRANSLIT:;
#ARTISTTRANSLIT:;
#GENRE:;
#ORIGIN:;
#TAGS:;
#CREDIT:;
#BANNER:Boy's a liar Pt. 2.png;
#BACKGROUND:Boy's a liar Pt. 2-bg.png;
#PREVIEWVID:;
#JACKET:Boy's a liar Pt. 2-jacket.png;
#CDIMAGE:;
#DISCIMAGE:;
#LYRICSPATH:;
#CDTITLE:cdtitle.png;
#MUSIC:Boy's a liar Pt. 2.ogg;
#OFFSET:0.001000;
#SAMPLESTART:28.871000;
#SAMPLELENGTH:12.000000;
#SELECTABLE:YES;
#BPMS:0.000000=133.000000
;
#STOPS:;
#DELAYS:;
#WARPS:;
#TIMESIGNATURES:0.000000=4=4
;
#TICKCOUNTS:0.000000=4
;
#COMBOS:0.000000=1
;
#SPEEDS:0.000000=1.000000=0.000000=0
;
#SCROLLS:0.000000=1.000000
;
#FAKES:;
#LABELS:0.000000=Song Start
;
#BGCHANGES:0.000=Boy's a liar Pt. 2.mp4=1.000=1=0=1===CrossFade==,
288.000=Boy's a liar Pt. 2-bg.png=1.000=1=0=1===CrossFade==,
99999=-nosongbg-=1.000=0=0=0 // don't automatically add -songbackground-
;
#KEYSOUNDS:;
#ATTACKS:
;

//---------------dance-single - ----------------
#NOTEDATA:;
#CHARTNAME:;
#CHARTHASH:790171260;
#STEPSTYPE:dance-single;
#BANNER:;
#DESCRIPTION:;
#CHARTSTYLE:;
#DIFFICULTY:Beginner;
#METER:1;
#METERF:0.000000;
#LASTSECONDHINT:129.472672;
#RADARVALUES:0.088907,0.137820,0.000000,0.107567,0.000000,81.000000,81.000000,0.000000,14.000000,0.000000,0.000000,0.000000,0.000000,0.000000,0.088907,0.137820,0.000000,0.107567,0.000000,81.000000,81.000000,0.000000,14.000000,0.000000,0.000000,0.000000,0.000000,0.000000;
#CREDIT:;
#NOTES:
// measure 0
0000
0000
0000
0000
,  // measure 1
0000
0000
0000
0000
,  // measure 2
0000
0000
0000
0000
,  // measure 3
0000
0000
0000
0000
,  // measure 4
0100
0000
0000
0000
,  // measure 5
0010
0000
0000
0000
,  // measure 6
1000
0000
0000
0000
,  // measure 7
0001
0000
0000
0000
,  // measure 8
1000
0000
0000
0000
,  // measure 9
0100
0000
0000
0000
,  // measure 10
0010
0000
0000
0000
,  // measure 11
0001
0000
0000
0000
,  // measure 12
0001
0000
0000
0000
,  // measure 13
0100
0000
0000
0000
,  // measure 14
0010
0000
0000
0000
,  // measure 15
1000
0000
0000
0000
,  // measure 16
2000
0000
0000
3000
,  // measure 17
1000
0000
0000
0000
,  // measure 18
0002
0000
0000
0003
,  // measure 19
0001
0000
0000
0000
,  // measure 20
0020
0000
0000
0030
,  // measure 21
0010
0000
0000
0000
,  // measure 22
0200
0000
0000
0300
,  // measure 23
0100
0000
0000
0000
,  // measure 24
0100
0000
0000
0000
,  // measure 25
0001
0000
0000
0000
,  // measure 26
0010
0000
0000
0000
,  // measure 27
1000
0000
0000
0000
,  // measure 28
0100
0000
0000
0000
,  // measure 29
0001
0000
0000
0000
,  // measure 30
0010
0000
0000
0000
,  // measure 31
1000
0000
0000
0000
,  // measure 32
0100
0000
0100
0000
,  // measure 33
0100
0000
0000
0000
,  // measure 34
0010
0000
0010
0000
,  // measure 35
0010
0000
0000
0000
,  // measure 36
0001
0000
0001
0000
,  // measure 37
0001
0000
0000
0000
,  // measure 38
1000
0000
1000
0000
,  // measure 39
1000
0000
0000
0000
,  // measure 40
0020
0000
0000
0030
,  // measure 41
0010
0000
0000
0000
,  // measure 42
0200
0000
0000
0300
,  // measure 43
0100
0000
0000
0000
,  // measure 44
0002
0000
0000
0003
,  // measure 45
0001
0000
0000
0000
,  // measure 46
2000
0000
0000
3000
,  // measure 47
1000
0000
0000
0000
,  // measure 48
1000
0000
1000
0000
,  // measure 49
0001
0000
0001
0000
,  // measure 50
1000
0000
1000
0000
,  // measure 51
0002
0000
0000
0003
,  // measure 52
0001
0000
0001
0000
,  // measure 53
1000
0000
1000
0000
,  // measure 54
0001
0000
0001
0000
,  // measure 55
2000
0000
0000
3000
,  // measure 56
1000
0000
1000
0000
,  // measure 57
1000
0000
0000
0000
,  // measure 58
0010
0000
0000
0000
,  // measure 59
0001
0000
0000
0000
,  // measure 60
0100
0000
0000
0000
,  // measure 61
1000
0000
0000
0000
,  // measure 62
0010
0000
0000
0000
,  // measure 63
0001
0000
0000
0000
,  // measure 64
0200
0000
0000
0300
,  // measure 65
0100
0000
0000
0000
,  // measure 66
0020
0000
0000
0030
,  // measure 67
0010
0000
0000
0000
,  // measure 68
2000
0000
0000
3000
,  // measure 69
1000
0000
0000
0000
,  // measure 70
0002
0000
0000
0003
,  // measure 71
0001
0000
0001
0001
;

//---------------dance-single - ----------------
#NOTEDATA:;
#CHARTNAME:;
#CHARTHASH:2771777101;
#STEPSTYPE:dance-single;
#BANNER:;
#DESCRIPTION:;
#CHARTSTYLE:;
#DIFFICULTY:Easy;
#METER:4;
#METERF:4.000000;
#LASTSECONDHINT:129.472672;
#RADARVALUES:0.223914,0.303203,0.046100,0.192083,0.000000,204.000000,198.000000,6.000000,25.000000,0.000000,0.000000,0.000000,0.000000,0.000000,0.223914,0.303203,0.046100,0.192083,0.000000,204.000000,198.000000,6.000000,25.000000,0.000000,0.000000,0.000000,0.000000,0.000000;
#CREDIT:;
#NOTES:
0000
0000
0000
0000
,
0000
0000
0000
0000
,
0000
0000
0000
0000
,
0000
0000
0000
0000
,
2000
0000
0000
3000
,
0200
0000
0000
0300
,
0020
0000
0000
0030
,
0002
0000
0000
0003
,
0001
0000
0001
0000
,
0100
0100
0100
0000
,
0010
0000
0010
0000
,
1000
1000
1000
0000
,
0001
0000
1000
0000
,
0001
1000
0001
0000
,
1000
0000
0001
0000
,
1000
0001
1000
0000
,
0001
0100
0001
0100
,
0010
1000
0010
0000
,
1000
0010
1000
0010
,
0100
0001
0100
0000
,
0001
0010
0100
1000
,
0100
0000
1000
0000
,
1000
0010
0100
0001
,
0100
0000
0001
0000
,
0002
1000
1003
0000
,
2000
0001
3001
0000
,
0020
0100
0130
0000
,
0200
0010
0310
0000
,
0200
0300
0020
0030
,
0001
1000
1001
0000
,
2000
3000
0002
0003
,
1000
0001
1001
0000
,
0000
0100
0100
0100
,
0010
0100
0100
0100
,
0000
0001
1000
0001
,
1000
0000
0100
0100
,
0000
0010
0001
1000
,
0010
1000
0001
1001
,
1000
0001
1000
0001
,
0100
1000
0100
0110
,
0010
1000
1000
0100
,
0001
0010
0010
0100
,
1000
0001
0001
0100
,
0010
1000
1000
0001
,
2000
0000
0000
0000
,
0020
3000
0200
0030
,
0002
0000
0000
0300
,
2000
0000
0000
3003
,
1000
0010
1000
0010
,
0100
0001
0100
0000
,
0001
0100
0001
0100
,
0010
1000
0010
0000
,
1000
0100
0010
0001
,
0010
0000
0001
0000
,
0001
0100
0010
1000
,
0010
0000
1000
0000
,
2000
0001
3001
0000
,
0002
1000
1003
0000
,
0200
0010
0310
0000
,
0020
0100
0130
0000
,
0020
0030
0200
0300
,
1000
0001
1001
0000
,
0002
0003
2000
3000
,
0001
1000
1001
0000
,
1000
1000
0010
0010
,
0001
0001
0100
0000
,
1000
1000
0010
0010
,
0001
0001
0100
0000
,
1000
1000
0100
0100
,
0001
0001
0010
0000
,
1000
1000
0100
0100
,
0001
0001
0010
0010
;

//---------------dance-single - ----------------
#NOTEDATA:;
#CHARTNAME:;
#CHARTHASH:54134310;
#STEPSTYPE:dance-single;
#BANNER:;
#DESCRIPTION:;
#CHARTSTYLE:;
#DIFFICULTY:Medium;
#METER:6;
#METERF:6.000000;
#LASTSECONDHINT:129.472672;
#RADARVALUES:0.343554,0.358331,0.115250,0.268916,0.061467,313.000000,298.000000,15.000000,35.000000,0.000000,0.000000,0.000000,0.000000,0.000000,0.343554,0.358331,0.115250,0.268916,0.061467,313.000000,298.000000,15.000000,35.000000,0.000000,0.000000,0.000000,0.000000,0.000000;
#CREDIT:;
#NOTES:
0000
0000
0000
0000
,
0000
0000
0000
0000
,
0000
0000
0000
0000
,
0000
0000
0000
0000
,
2000
0000
0000
0000
3020
0000
0000
0000
0130
0000
0000
0100
0000
0000
0100
0000
,
0002
0000
0000
0000
0023
0000
0000
0000
0130
0000
0000
0100
0000
0000
0100
0000
,
2000
0000
0000
0000
3002
0000
0000
0000
1003
0000
0000
1000
0000
0000
1000
0000
,
0002
0000
0000
0000
2003
0000
0000
0000
3001
0000
0000
0001
0000
0000
0001
0000
,
1000
0000
1100
0000
0010
0001
0100
0000
,
0010
0100
0220
0330
,
0010
0000
1010
0000
1000
0100
0010
0000
,
0001
0100
0010
0110
,
1000
0100
0001
0010
,
1000
0001
0020
0030
,
0100
1000
0010
0001
,
0100
1000
0020
0030
,
1000
0000
0000
0000
0100
0000
0000
0000
0010
0000
0000
0010
0000
0000
0010
0000
,
0001
0000
0000
0000
0100
0000
0000
0000
0010
0000
0000
0010
0000
0000
0010
0000
,
0100
0000
0000
0000
0001
0000
0000
0000
0010
0000
0000
0010
0000
0000
0010
0000
,
0100
1000
1100
0101
,
1001
0000
0000
0000
0010
0000
0000
0000
0100
0000
0000
0100
0000
0000
0100
0000
,
0001
0000
0000
0000
0010
0000
0000
0000
0100
0000
0000
0100
0000
0000
0100
0000
,
0010
0000
0000
0000
0001
0000
0000
0000
0100
0000
0000
0100
0000
0000
0100
0000
,
0010
1000
1010
0011
,
0010
0100
0010
0100
0000
0100
0000
1000
,
0000
1000
0010
0100
0000
0100
0000
0001
,
0000
0001
0010
0100
0000
0100
0000
1000
,
0000
0010
0100
0001
0000
0001
0000
1000
,
0000
1000
0100
1000
0000
0100
0000
0001
,
0000
0001
0100
0001
0000
0100
0000
1000
,
0000
0010
1000
0100
0000
0100
0000
0010
,
0000
0001
0100
0010
0000
0100
0000
0100
,
0010
0100
0001
0100
,
0010
1000
0100
1000
,
0000
1000
0010
1000
,
0100
0000
1000
0100
,
0000
0010
0001
1000
,
0010
0100
0001
0100
,
0000
0010
1000
0001
,
1000
0100
0010
0001
,
1000
0000
0000
0000
0000
0000
0000
0100
,
0010
0000
0000
0010
0001
0000
0000
0001
,
1000
0000
0001
0000
0100
0000
1000
0001
,
1000
0100
0001
0010
,
0100
0000
0000
0000
0000
0000
0000
0100
,
1000
0000
0000
1000
0010
0000
0000
0010
,
0100
0000
0000
0100
0001
0000
1000
0000
,
0001
1000
0001
1001
,
0001
0000
0000
0000
0010
0000
0000
0000
0100
0000
0000
0100
0000
0000
0100
0000
,
1000
0000
0000
0000
0010
0000
0000
0000
0100
0000
0000
0100
0000
0000
0100
0000
,
0010
0000
0000
0000
1000
0000
0000
0000
0100
0000
0000
0100
0000
0000
0100
0000
,
0010
0001
0011
1010
,
1001
0000
0000
0000
0100
0000
0000
0000
0010
0000
0000
0010
0000
0000
0010
0000
,
1000
0000
0000
0000
0100
0000
0000
0000
0010
0000
0000
0010
0000
0000
0010
0000
,
0100
0000
0000
0000
1000
0000
0000
0000
0010
0000
0000
0010
0000
0000
0010
0000
,
0100
0001
0101
1100
,
0100
0010
0100
0010
0000
0001
0000
0001
,
0000
0001
0100
0010
0000
0010
0000
1000
,
0000
1000
0100
0010
0000
0010
0000
0001
,
0000
0100
0010
1000
0000
1000
0000
0001
,
0000
0001
0010
0001
0000
0010
0000
1000
,
0000
1000
0010
1000
0000
0010
0000
0001
,
0000
0100
0001
0010
0000
0010
0000
0100
,
0000
0100
1000
0010
0000
0010
0000
0100
,
0200
0302
0103
0010
,
0020
2030
3002
1003
,
2000
3200
0320
0031
,
0002
0023
0230
1300
,
0020
2030
3020
0130
,
0200
0302
2003
3001
,
0002
0023
0230
1300
,
2000
3200
0320
0031
;

//---------------dance-single - ----------------
#NOTEDATA:;
#CHARTNAME:;
#CHARTHASH:2076162374;
#STEPSTYPE:dance-single;
#BANNER:;
#DESCRIPTION:;
#CHARTSTYLE:;
#DIFFICULTY:Hard;
#METER:8;
#METERF:8.000000;
#LASTSECONDHINT:129.698242;
#RADARVALUES:0.523564,0.552239,0.307333,0.000000,0.138300,477.000000,437.000000,40.000000,0.000000,0.000000,0.000000,0.000000,0.000000,0.000000,0.523564,0.552239,0.307333,0.000000,0.138300,477.000000,437.000000,40.000000,0.000000,0.000000,0.000000,0.000000,0.000000,0.000000;
#CREDIT:;
#NOTES:
0000
0000
0000
0000
,
0000
0000
0000
0000
,
0000
0000
0000
0000
,
0000
0000
0000
0000
,
0001
0000
0100
0000
0001
0000
0000
0000
1000
0000
0000
0100
0000
0000
1000
0000
,
0100
0000
0010
0000
0001
0000
0000
0000
1000
0000
0000
0001
0000
0000
0100
0000
,
0001
0000
0010
0000
0001
0000
0000
0000
1000
0000
0000
0010
0000
0000
1000
0000
,
0010
0000
0100
0000
0001
0000
0000
0000
1000
0000
0000
0001
0000
0000
0010
0000
,
0001
0000
0000
0000
0011
0000
0010
0001
0010
0000
0100
0000
1000
0000
1000
0000
,
0010
0000
1000
0000
0100
0000
0000
0000
0010
0000
0000
0001
0100
0000
0001
0000
,
1000
0000
0000
0000
1010
0000
0010
1000
0010
0000
0100
0000
0001
0000
0001
0000
,
0010
0000
0001
0000
0100
0000
0000
0000
0010
0000
0000
1000
0100
0000
1000
0000
,
0001
0000
1000
0000
0010
0000
1000
0100
1000
0000
0010
0000
0001
0000
0010
0000
,
1000
0100
0001
0100
1000
0000
1100
0000
,
0001
0000
1000
0000
0100
0000
1000
0010
1000
0000
0100
0000
0001
0000
0100
0000
,
1000
0010
0001
0010
1000
0000
1010
0000
,
1000
0000
0010
0000
0100
0000
0010
0000
1000
0000
0000
0001
0000
0000
0010
0000
,
0100
0000
0010
0000
0100
0000
1000
0000
0010
0000
0000
0100
0000
0000
0010
0000
,
1000
0000
0100
0000
0010
0000
0001
0000
0010
0000
0000
0001
0000
0000
0100
0000
,
0001
0010
0100
0010
0001
0100
0010
1000
,
0001
0000
0010
0000
0100
0000
0010
0000
0001
0000
0000
1000
0000
0000
0010
0000
,
0100
0000
0010
0000
0100
0000
0001
0000
0010
0000
0000
0100
0000
0000
0010
0000
,
0001
0000
0100
0000
0010
0000
1000
0000
0010
0000
0000
1000
0000
0000
0100
0000
,
1000
0010
0100
0010
1000
0100
0010
0001
,
1000
0100
1000
0010
0000
0110
0000
0101
,
0000
0001
0010
0001
0000
0011
0000
0110
,
0000
0100
1000
0100
0000
1100
0000
1010
,
0000
0010
0100
0010
0000
0110
0000
1001
,
0001
0100
0001
0010
0000
0110
0000
1100
,
0000
1000
0010
1000
0000
1010
0000
0110
,
0000
0100
0001
0100
0000
0101
0000
0011
,
0000
0010
0100
0010
0000
0110
0000
1001
,
0000
0001
1000
0001
0100
0100
1000
0001
,
0100
0000
0100
0000
1000
0010
1000
0000
0001
0010
0001
0000
1000
0010
1000
0000
,
0000
0010
0100
0001
0010
0010
0100
0001
,
0010
0000
0010
0000
0000
0000
1000
0000
0010
0000
1000
0000
0100
1000
0100
0000
,
1000
0001
0101
0100
0001
0000
1000
0100
,
0001
1000
0010
0001
0100
0000
0101
0000
,
0000
0100
1000
0001
0010
0000
1000
0100
,
0010
0001
0100
0001
0100
0000
0110
0000
,
1000
0001
0010
0100
1000
0000
0010
0100
,
0001
1000
0100
0010
0001
0000
0100
0010
,
1000
0010
0100
0001
0010
0000
0100
0010
,
0001
0000
0010
0000
0100
0000
1000
0000
0010
0000
0000
0000
0010
1000
0010
0000
,
0100
0000
0000
0100
0000
0000
0001
0000
0001
0000
0000
0000
1000
0000
0100
0000
,
0010
0000
0000
0010
0000
0000
0100
0000
0100
0000
0000
0000
0100
0010
0100
0000
,
1000
0000
0000
1000
0000
0000
0010
0000
0010
0000
0000
0000
0100
0000
0001
0000
,
0100
0000
0000
0100
0000
0000
0010
0000
0010
0000
0000
0000
1001
0000
0000
0000
,
0001
0000
0100
0000
0010
0000
0100
0000
0001
0000
0000
1000
0000
0000
0100
0000
,
0010
0000
0100
0000
0010
0000
0001
0000
0100
0000
0000
0010
0000
0000
0100
0000
,
0001
0000
0010
0000
0100
0000
1000
0000
0100
0000
0000
1000
0000
0000
0010
0000
,
1000
0100
0010
0100
1000
0010
0100
0001
,
1000
0000
0100
0000
0010
0000
0100
0000
1000
0000
0000
0001
0000
0000
0100
0000
,
0010
0000
0100
0000
0010
0000
1000
0000
0100
0000
0000
0010
0000
0000
0100
0000
,
1000
0000
0010
0000
0100
0000
0001
0000
0100
0000
0000
0001
0000
0000
0010
0000
,
0001
0100
0010
0100
0001
0010
0100
1000
,
0001
0010
0001
0100
0000
0110
0000
1010
,
0000
1000
0100
1000
0000
1100
0000
0110
,
0000
0010
0001
0010
0000
0011
0000
0101
,
0000
0100
0010
0100
0000
0110
0000
1001
,
1000
0010
1000
0100
0000
0110
0000
0011
,
0000
0001
0100
0001
0000
0101
0000
0110
,
0000
0010
1000
0010
0000
1010
0000
1100
,
0000
0100
0010
0100
0000
0110
0000
1001
,
0001
0000
1000
0000
0001
0100
1000
0000
,
0001
0000
0010
0100
0010
0000
0100
0100
,
0010
0000
0010
0000
1000
0100
0001
0000
,
0100
0000
0100
0010
0001
0000
0100
0010
,
1000
0000
0000
0000
1000
0000
0000
0000
1000
0000
0000
0100
0000
0000
1000
0000
,
0010
0000
0000
0000
0100
0000
0000
0000
0001
0000
0000
1000
0000
0000
0001
0000
,
0001
0000
0000
0000
0001
0000
0000
0000
0001
0000
0000
0001
0000
0000
0001
0000
,
1000
0000
0000
0000
1000
0000
0000
0000
1000
0000
0000
1000
0000
0000
1000
0000
;
