#VERSION:0.83;
#TITLE:Boom;
#SUBTITLE:;
#ARTIST:Prima J;
#TITLETRANSLIT:;
#SUBTITLETRANSLIT:;
#ARTISTTRANSLIT:;
#GENRE:Pop Rap;
#ORIGIN:;
#TAGS:;
#CREDIT:chewi;
#BANNER:Boom.png;
#BACKGROUND:Boom-bg.png;
#PREVIEWVID:;
#JACKET:Boom-jacket.png;
#CDIMAGE:;
#DISCIMAGE:;
#LYRICSPATH:;
#CDTITLE:cdtitle.png;
#MUSIC:Boom.ogg;
#OFFSET:2.016000;
#SAMPLESTART:52.430000;
#SAMPLELENGTH:12.000000;
#SELECTABLE:YES;
#BPMS:0.000000=119.017998
;
#STOPS:;
#DELAYS:;
#WARPS:;
#TIMESIGNATURES:0.000000=4=4
;
#TICKCOUNTS:0.000000=4
;
#COMBOS:0.000000=1
;
#SPEEDS:0.000000=1.000000=0.000000=0
;
#SCROLLS:0.000000=1.000000
;
#FAKES:;
#LABELS:0.000000=Song Start
;
#BGCHANGES:;
#KEYSOUNDS:;
#ATTACKS:
;

//---------------dance-single - chewi----------------
#NOTEDATA:;
#CHARTNAME:chewi;
#CHARTHASH:942865426;
#STEPSTYPE:dance-single;
#BANNER:;
#DESCRIPTION:chewi;
#CHARTSTYLE:;
#DIFFICULTY:Beginner;
#METER:1;
#METERF:0.000000;
#LASTSECONDHINT:92.759583;
#RADARVALUES:0.097978,0.148777,0.042206,0.000000,0.000000,65.000000,61.000000,4.000000,0.000000,0.000000,0.000000,0.000000,0.000000,0.000000,0.097978,0.148777,0.042206,0.000000,0.000000,65.000000,61.000000,4.000000,0.000000,0.000000,0.000000,0.000000,0.000000,0.000000;
#CREDIT:chewi;
#NOTES:
// measure 0
0000
0000
0000
0000
,  // measure 1
0000
0000
0000
0000
,  // measure 2
0000
0000
0000
0000
,  // measure 3
0001
0000
0000
0000
,  // measure 4
1000
0000
0000
0000
,  // measure 5
0001
0000
0000
0000
,  // measure 6
1000
0000
0000
0000
,  // measure 7
0010
0000
0000
0000
,  // measure 8
0100
0000
0000
0000
,  // measure 9
0010
0000
0000
0000
,  // measure 10
0100
0000
0000
0000
,  // measure 11
0001
0000
0001
0000
,  // measure 12
0001
0000
0000
0000
,  // measure 13
1000
0000
1000
0000
,  // measure 14
1000
0000
0000
0000
,  // measure 15
0100
0000
0100
0000
,  // measure 16
0100
0000
0000
0000
,  // measure 17
0010
0000
0010
0000
,  // measure 18
0010
0000
0000
0000
,  // measure 19
0110
0000
0000
0000
,  // measure 20
1001
0000
0000
0000
,  // measure 21
0110
0000
0000
0000
,  // measure 22
1001
0000
0000
0000
,  // measure 23
1000
1000
1000
0000
,  // measure 24
1000
0000
0000
0000
,  // measure 25
0001
0001
0001
0000
,  // measure 26
0001
0000
0000
0000
,  // measure 27
0100
0000
0100
0000
,  // measure 28
0100
0000
0100
0000
,  // measure 29
0010
0000
0010
0000
,  // measure 30
0010
0000
0010
0000
,  // measure 31
0100
0000
0100
0000
,  // measure 32
0100
0000
0000
0000
,  // measure 33
0010
0000
0010
0000
,  // measure 34
0010
0000
0000
0000
,  // measure 35
1000
0000
0000
0000
,  // measure 36
0001
0000
0000
0000
,  // measure 37
0010
0000
0000
0000
,  // measure 38
0100
0000
0000
0000
,  // measure 39
0010
0000
0000
0000
,  // measure 40
0100
0000
0000
0000
,  // measure 41
1000
0000
0000
0000
,  // measure 42
0001
0000
0000
0000
,  // measure 43
0100
0000
0100
0000
,  // measure 44
0100
0000
0000
0000
,  // measure 45
0010
0000
0010
0000
,  // measure 46
0010
0000
0000
0000
,  // measure 47
1000
0000
0000
0000
;

//---------------dance-single - chewi----------------
#NOTEDATA:;
#CHARTNAME:chewi;
#CHARTHASH:4273209005;
#STEPSTYPE:dance-single;
#BANNER:;
#DESCRIPTION:chewi;
#CHARTSTYLE:;
#DIFFICULTY:Easy;
#METER:3;
#METERF:4.000000;
#LASTSECONDHINT:92.759583;
#RADARVALUES:0.149229,0.173573,0.042206,0.031655,0.000000,99.000000,95.000000,4.000000,3.000000,0.000000,0.000000,0.000000,0.000000,0.000000,0.149229,0.173573,0.042206,0.031655,0.000000,99.000000,95.000000,4.000000,3.000000,0.000000,0.000000,0.000000,0.000000,0.000000;
#CREDIT:chewi;
#NOTES:
0000
0000
0000
0000
,
0000
0000
0000
0000
,
0000
0000
0000
0000
,
0000
1000
0000
1000
,
0000
0001
0000
0001
,
0000
0100
0000
0100
,
0100
0000
0000
0000
,
0110
0000
0000
0000
,
1001
0000
0000
0000
,
1001
0000
0000
0000
,
0110
0000
0000
0000
,
0100
0000
0010
0000
,
0100
0010
0100
0000
,
0001
0000
1000
0000
,
0001
1000
0001
0000
,
1000
0000
0100
0000
,
1000
0100
1000
0000
,
0100
0000
0010
0000
,
0100
0010
0100
0000
,
0010
0000
0100
0000
,
1000
0000
0001
0000
,
0100
0000
0010
0000
,
0100
0000
0001
0000
,
0001
0001
0001
0000
,
1000
1000
1000
0000
,
0001
0000
1000
0000
,
0001
1000
0001
0000
,
0100
0100
0100
0000
,
0010
0010
0010
0000
,
0100
0000
0010
0000
,
0100
0010
0100
0000
,
0100
0000
0100
0000
,
0001
0000
0001
0000
,
0010
0000
0010
0000
,
0100
0000
0100
0000
,
1000
1000
1000
1000
,
0000
1000
1000
1000
,
0000
0001
0001
0001
,
0000
0001
0001
0001
,
0100
0000
0100
0000
,
0010
0000
0010
0000
,
0100
0000
0100
0000
,
0001
0001
0001
0001
,
0002
0000
0000
0000
,
0000
0000
2003
0000
,
3200
0000
0000
0000
,
0000
0000
0000
0000
,
0300
0000
0000
0000
;

//---------------dance-single - chewi----------------
#NOTEDATA:;
#CHARTNAME:chewi;
#CHARTHASH:96082098;
#STEPSTYPE:dance-single;
#BANNER:;
#DESCRIPTION:chewi;
#CHARTSTYLE:;
#DIFFICULTY:Medium;
#METER:5;
#METERF:0.000000;
#LASTSECONDHINT:92.759583;
#RADARVALUES:0.287906,0.297553,0.052758,0.000000,0.100240,191.000000,186.000000,5.000000,0.000000,0.000000,0.000000,0.000000,0.000000,0.000000,0.287906,0.297553,0.052758,0.000000,0.100240,191.000000,186.000000,5.000000,0.000000,0.000000,0.000000,0.000000,0.000000,0.000000;
#CREDIT:chewi;
#NOTES:
0000
0000
0000
0000
,
0000
0000
0000
0000
,
0000
0000
0000
0000
,
1000
0100
0000
0100
,
0001
0100
0000
0100
,
0010
1000
0001
1000
,
1001
0000
0000
1000
0000
0001
1000
0000
,
1000
0000
0000
0000
0100
0000
0000
0000
0000
0000
0100
0000
0000
0100
0000
0000
,
0100
0000
0000
0000
0010
0000
0000
0000
0000
0000
0001
0000
0000
0001
0000
0000
,
0001
0000
0000
0000
1000
0000
0000
0000
0000
0000
0010
0000
0000
0010
0000
0000
,
0010
0100
0010
0100
,
0010
1000
0010
1000
,
0001
0100
0001
0100
,
0010
0100
0001
1000
,
0001
0010
0100
1000
,
0100
0001
0100
0001
,
1000
0010
1000
0010
,
0100
0010
1000
0001
,
1000
0100
0010
0001
,
1000
0100
0001
0100
,
0010
0100
1000
0001
,
0101
0000
1010
0000
,
1001
0000
0001
0000
1000
1000
1000
0000
,
0100
0010
0000
0010
0100
0000
0000
0100
,
1000
0100
1000
0000
0100
0000
1000
0000
,
0010
0010
0000
0000
0100
0100
0000
0000
,
0001
0001
1000
1000
,
0010
0100
0000
0100
0010
0000
0000
0010
,
1000
0010
1000
0000
0010
0000
1000
0000
,
0100
0100
0000
0000
0010
0010
0000
0000
,
0001
0001
1000
1000
,
0010
0100
0001
0100
,
0010
1000
0100
0010
,
0100
1000
0100
1000
,
0010
0100
0010
0100
,
0000
0000
0100
0000
0000
0100
0000
0000
0100
0000
0000
0100
0000
0000
0100
0000
,
0000
0000
0010
0000
0000
0010
0000
0000
0010
0000
0000
0010
0000
0000
0010
0000
,
0000
0000
1000
0000
0000
1000
0000
0000
1000
0000
0000
1000
0000
0000
1000
0000
,
0000
0000
0001
0000
0000
0001
0000
0000
0001
0000
0000
0001
0000
0000
0001
0000
,
0000
0000
0100
0000
0000
0100
0000
0000
0100
0000
0000
0100
0000
0000
0100
0000
,
0000
0000
0010
0000
0000
0010
0000
0000
0010
0000
0000
0010
0000
0000
0010
0000
,
0000
0000
1000
0000
0000
1000
0000
0000
1000
0000
0000
1000
0000
0000
1000
0000
,
0000
0000
0001
0000
0000
0001
0000
0000
0001
0000
0000
0001
0000
0000
0001
0000
,
0001
0100
0001
0100
,
0010
1000
0010
1000
,
0001
1000
0001
1000
,
0100
0010
0100
0010
,
0110
0000
0000
0000
;

//---------------dance-single - chewi----------------
#NOTEDATA:;
#CHARTNAME:chewi;
#CHARTHASH:3755250770;
#STEPSTYPE:dance-single;
#BANNER:;
#DESCRIPTION:chewi;
#CHARTSTYLE:;
#DIFFICULTY:Hard;
#METER:8;
#METERF:0.000000;
#LASTSECONDHINT:92.759583;
#RADARVALUES:0.495922,0.495922,0.147721,0.000000,0.184652,329.000000,315.000000,14.000000,0.000000,0.000000,0.000000,0.000000,0.000000,0.000000,0.495922,0.495922,0.147721,0.000000,0.184652,329.000000,315.000000,14.000000,0.000000,0.000000,0.000000,0.000000,0.000000,0.000000;
#CREDIT:chewi;
#NOTES:
0000
0000
0000
0000
,
0000
0000
0000
0000
,
0000
0000
0000
0000
,
1000
0000
0000
0000
0000
0000
0100
0000
0000
0000
0010
0000
0000
0100
0000
0000
,
1000
0000
0000
0000
0000
0000
0010
0000
0000
0000
0100
0000
0000
0001
0000
0000
,
0010
0000
0000
0001
0010
0100
0010
0000
,
0011
0000
0000
0000
0000
0000
1001
0000
0000
0000
0001
1000
0001
0000
0000
0000
,
1000
0000
0001
0000
0100
0000
0010
0000
0000
0000
0100
0000
0000
0100
0000
0000
,
0100
0000
0010
0000
1000
0000
0001
0000
0000
0000
1000
0000
0000
1000
0000
0000
,
1000
0000
0100
0000
1000
0000
0100
0000
0000
0000
0010
0000
0000
0010
0000
0000
,
0010
0000
0001
0000
0100
0000
0001
0000
1000
0001
1000
0001
1000
0000
0001
1000
,
0001
1000
0100
1000
0010
0100
0010
0000
,
0100
0001
0010
0001
0100
0010
1000
1000
,
0000
0001
1000
1000
0010
0100
0010
0000
,
0100
0000
0001
0000
0010
0000
1000
0000
0010
0001
0010
0001
0010
0000
0100
1000
,
0001
1000
0010
1000
0100
0010
0100
0000
,
0010
0001
0100
0001
0010
0100
1000
0010
,
0000
0100
1000
0100
0001
0010
0100
0010
,
0000
0010
0001
0010
0100
0100
0100
0000
,
1000
0100
0001
0100
0010
0100
1000
0000
,
0001
0100
1000
0100
0010
0100
0001
0000
,
0101
0101
1010
1010
,
1001
0000
0001
0000
1000
0000
1000
0000
0100
0010
0100
0010
0100
0000
0000
0000
,
0100
1000
0000
1000
0001
0000
0000
0100
,
0001
0100
0001
0000
0101
0000
0110
0000
,
1010
1000
0000
0010
0100
0001
1000
0001
,
1000
0000
0001
0000
0010
0000
0100
0000
0010
0100
0010
0100
0010
0000
0100
0010
,
0100
0010
0001
0010
0100
0010
0001
0010
,
0100
1000
0100
0000
1100
0000
1001
0000
,
0100
0100
0000
0010
0010
0010
0100
0010
,
0100
0000
0001
0000
1000
0000
0010
0000
1000
0010
1000
0010
1000
0000
0010
1000
,
0010
0100
1000
0100
0010
0100
1000
0100
,
0010
1000
0100
0000
0110
0000
1001
0000
,
0010
0010
0000
0100
0100
0100
0010
0100
,
0010
0001
1000
0100
1000
1000
1000
0100
,
0000
0000
0100
0000
0000
1000
0000
0000
0100
0000
0000
1000
0000
0000
0100
0000
,
0000
0000
0010
0000
0000
0001
0000
0000
0100
0000
0000
0010
0000
0000
0100
0000
,
0000
0000
0010
0000
0000
0100
0000
0000
0001
0000
0000
1000
0000
0000
0100
0000
,
0010
0000
0100
0000
1000
0000
0001
0000
0100
0010
0100
0010
0100
0000
0100
0001
,
1000
0001
0010
0001
0100
0010
0100
0000
,
0010
1000
0100
1000
0010
0100
0001
0001
,
0000
1000
0001
0001
0100
0010
0100
0000
,
0010
0000
1000
0000
0100
0000
0001
0000
0100
1000
0100
1000
0100
0000
0010
0001
,
1000
0010
1000
0100
1000
0010
0100
0001
,
0100
0001
0010
0001
0100
0010
0100
0010
,
0100
0001
0010
0001
0100
0010
1000
0100
,
0010
0000
0001
0000
1000
0000
0100
0000
1000
0100
1000
0100
1000
0000
0100
1000
,
0100
0000
0000
0000
;
