#VERSION:0.83;
#TITLE:Big Guy;
#SUBTITLE:;
#ARTIST:Ice Spice;
#TITLETRANSLIT:;
#SUBTITLETRANSLIT:;
#ARTISTTRANSLIT:;
#GENRE:Jersey Club Rap;
#CREDIT:chewi;
#ORIGIN:;
#MUSIC:Big Guy.ogg;
#BANNER:;
#BACKGROUND:;
#JACKET:;
#DISCIMAGE:;
#CDIMAGE:;
#SELECTABLE:YES;
#LYRICSPATH:;
#CDTITLE:;
#SAMPLESTART:33.389999;
#SAMPLELENGTH:12.000000;
#OFFSET:2.088;
#BPMS:0.000000=115.000000;
#STOPS:;
#WARPS:;
#DELAYS:;
#SPEEDS:;
#SCROLLS:;
#TICKCOUNTS:;
#TIMESIGNATURES:;
#LABELS:;
#COMBOS:;
#FAKES:;
#BGCHANGES:;
#FGCHANGES:;
#ATTACKS:;
#KEYSOUNDS:;

//---------------dance-single - ---------------
#NOTEDATA:;
#CHARTNAME:;
#CHARTSTYLE:;
#CREDIT:chewi;
#STEPSTYPE:dance-single;
#DESCRIPTION:;
#DIFFICULTY:Beginner;
#METER:1;
#METERF:1;
#RADARVALUES:0.096721,0.167271,0.079653,0.000000,0.000000,68.000000,60.000000,8.000000,0.000000,0.000000,0.000000,0.096721,0.167271,0.079653,0.000000,0.000000,68.000000,60.000000,8.000000,0.000000,0.000000,0.000000;
#NOTES:
// measure 0
0000
0000
0000
0000
,  // measure 1
0000
0000
0000
0000
,  // measure 2
0000
0000
0000
0000
,  // measure 3
0000
0000
0000
0000
,  // measure 4
0000
0000
0000
0000
,  // measure 5
1000
0000
0000
0000
,  // measure 6
0100
0000
0000
0000
,  // measure 7
0010
0000
0000
0000
,  // measure 8
0001
0000
0000
0000
,  // measure 9
0001
0000
0000
0000
,  // measure 10
1000
0000
0000
0000
,  // measure 11
1000
0000
0000
0000
,  // measure 12
0001
0000
0000
0000
,  // measure 13
0100
0000
0000
0000
,  // measure 14
0010
0000
0000
0000
,  // measure 15
0010
0000
0000
0000
,  // measure 16
0100
0000
0000
0000
,  // measure 17
0001
0000
0001
0000
,  // measure 18
1000
0000
1000
0000
,  // measure 19
0001
0000
1001
0000
,  // measure 20
1000
0000
1001
0000
,  // measure 21
1000
0000
1000
0000
,  // measure 22
0001
0000
0001
0000
,  // measure 23
1000
0000
1001
0000
,  // measure 24
0001
0000
1001
0000
,  // measure 25
1000
0000
0000
0000
,  // measure 26
0010
0000
0000
0000
,  // measure 27
0100
0000
0000
0000
,  // measure 28
0001
0000
0000
0000
,  // measure 29
0001
0000
0000
0000
,  // measure 30
0010
0000
0000
0000
,  // measure 31
0100
0000
0000
0000
,  // measure 32
1000
0000
0000
0000
,  // measure 33
0001
0000
0001
0000
,  // measure 34
1000
0000
1000
0000
,  // measure 35
0001
0000
1001
0000
,  // measure 36
1000
0000
1001
0000
,  // measure 37
1000
0000
1000
0000
,  // measure 38
0001
0000
0001
0000
,  // measure 39
1000
0000
1001
0000
,  // measure 40
0001
0000
1001
0000
,  // measure 41
0100
0000
0000
0000
,  // measure 42
0010
0000
0000
0000
,  // measure 43
1000
0000
0000
0000
,  // measure 44
0001
0000
0000
0000
,  // measure 45
1000
0000
0000
0000
,  // measure 46
0001
0000
0000
0000
,  // measure 47
0010
0000
0000
0000
,  // measure 48
0100
0000
0000
0000
;

//---------------dance-single - ---------------
#NOTEDATA:;
#CHARTNAME:;
#CHARTSTYLE:;
#CREDIT:chewi;
#STEPSTYPE:dance-single;
#DESCRIPTION:;
#DIFFICULTY:Hard;
#METER:8;
#METERF:1;
#RADARVALUES:0.425289,0.533922,0.238958,0.000000,0.243936,299.000000,275.000000,24.000000,0.000000,0.000000,0.000000,0.425289,0.533922,0.238958,0.000000,0.243936,299.000000,275.000000,24.000000,0.000000,0.000000,0.000000;
#NOTES:
// measure 0
0000
0000
0000
0000
,  // measure 1
0000
0000
0000
0000
,  // measure 2
0000
0000
0000
0000
,  // measure 3
0000
0000
0000
0000
,  // measure 4
0000
0000
0000
0000
,  // measure 5
0010
0000
0000
0000
1000
0000
0000
0000
0100
0000
0000
0100
0000
0000
0100
0000
,  // measure 6
0010
0000
0000
0000
0001
0000
0000
0000
0100
0000
0000
0100
0000
0000
0100
0000
,  // measure 7
0001
0001
1000
1000
0001
1000
1001
0000
,  // measure 8
1000
1000
0001
0001
1000
0001
1001
0000
,  // measure 9
0000
1000
0010
1000
0010
0100
0001
0100
0001
1000
0000
0000
,  // measure 10
0000
0001
0010
0001
0010
0100
1000
0100
1000
0001
0000
0000
,  // measure 11
1000
0001
1000
0100
1000
0001
1000
0010
1000
0001
0000
0000
,  // measure 12
0001
0000
0000
1000
0000
0000
0001
0000
0000
0000
0000
0000
0100
0000
0000
0000
0001
0000
0000
0000
1000
0000
0000
0000
0001
0000
0000
0000
0010
0000
0000
0000
0001
0000
0000
0000
1000
0000
0000
0000
0000
0000
0000
0000
0000
0000
0000
0000
,  // measure 13
1010
0000
0000
0000
1010
0000
0000
0000
0110
0000
0000
0110
0000
0000
0110
0000
,  // measure 14
0101
0000
0000
0000
0101
0000
0000
0000
1001
0000
0000
1001
0000
0000
1001
0000
,  // measure 15
1000
0001
1000
0000
0001
0000
0000
0000
0010
0000
0000
0010
0000
0000
0010
0000
,  // measure 16
0100
1000
1000
0100
0001
0100
1000
0010
,  // measure 17
1000
0010
1000
0000
0010
0000
0010
0000
0010
1000
0010
0000
1000
0000
1000
0000
,  // measure 18
1000
0100
1000
0000
0100
0000
0100
0000
0100
0010
0100
0000
0010
0000
0010
0000
,  // measure 19
0010
0001
0100
0001
0100
0010
0110
0000
,  // measure 20
0010
1000
0001
0100
0001
0100
0101
0001
,  // measure 21
0001
0100
0001
0000
0100
0000
0100
0000
0100
0001
0100
0000
0001
0000
0001
0000
,  // measure 22
0001
0010
0001
0000
0010
0000
0010
0000
0010
0100
0010
0000
0100
0000
0100
0000
,  // measure 23
0100
1000
0010
1000
0010
0100
0110
0000
,  // measure 24
0100
0001
1000
0010
1000
0010
1010
0000
,  // measure 25
0001
0000
0000
1000
0000
0000
0010
0000
0100
0000
1000
0000
0100
0000
0001
0000
1000
0000
0100
0000
0000
0000
0000
0000
,  // measure 26
1000
0000
0100
0000
1000
0000
0100
0000
0010
0000
0001
0000
0010
0000
0000
0010
0000
0000
0010
0000
0000
0000
0000
0000
,  // measure 27
0001
0000
1000
0000
0010
0000
0001
0000
0010
0000
1000
0000
0100
0000
0000
0100
0000
0000
0100
0000
0000
0000
0000
0000
,  // measure 28
1100
1100
1010
1010
0110
0110
1001
0000
,  // measure 29
0000
0000
0000
0001
0000
0000
0010
0000
0000
0100
0000
0000
0001
0000
0000
0000
0000
0000
0100
0000
1000
0000
0100
0000
,  // measure 30
1000
0001
0100
0100
0010
0000
1000
0100
,  // measure 31
1000
0001
0010
1000
0010
0000
0001
1000
,  // measure 32
0001
0100
0001
0010
0001
1000
1100
0000
,  // measure 33
1000
0100
1000
0000
0100
0000
0100
0000
0100
1000
0100
0000
1000
0000
1000
0000
,  // measure 34
1000
0010
1000
0000
0010
0000
0010
0000
0010
0100
0010
0000
0100
0000
0100
0000
,  // measure 35
0100
0001
0010
0001
0010
0100
0110
0000
,  // measure 36
0100
1000
0001
0010
0001
0010
0011
0001
,  // measure 37
0001
0010
0001
0000
0010
0000
0010
0000
0010
0001
0010
0000
0001
0000
0001
0000
,  // measure 38
0001
0100
0001
0000
0100
0000
0100
0000
0100
0010
0100
0000
0010
0000
0010
0000
,  // measure 39
0010
1000
0100
1000
0100
0010
0110
0000
,  // measure 40
0010
0001
1000
0100
1000
0100
1100
0000
,  // measure 41
0001
0000
0000
1000
0001
0000
0000
0100
0010
0000
0000
0010
0000
0000
0010
0000
,  // measure 42
0100
0000
0000
0001
1000
0000
0000
0100
0010
0000
0000
0010
0000
0000
0010
0000
,  // measure 43
0100
0010
0100
0000
0010
0000
0000
0000
0100
0000
0000
1000
0000
0000
0001
0000
,  // measure 44
1000
0000
0000
1000
0010
0000
0000
0010
0100
0000
0000
0100
0001
0000
0000
0000
,  // measure 45
1000
0000
0000
0001
1000
0000
0000
0010
0100
0000
0000
0100
0000
0000
0100
0000
,  // measure 46
0010
0000
0000
1000
0001
0000
0000
0010
0100
0000
0000
0100
0000
0000
0100
0000
,  // measure 47
0010
0100
0010
0000
0100
0000
0000
0000
0010
0000
0000
0001
0000
0000
1000
0000
,  // measure 48
0001
0000
0000
0001
0100
0000
0000
0100
0010
0000
0000
0010
1000
0000
0010
0000
;
