#VERSION:0.83;
#TITLE:Better;
#SUBTITLE:;
#ARTIST:SG Lewis & Clairo;
#TITLETRANSLIT:;
#SUBTITLETRANSLIT:;
#ARTISTTRANSLIT:;
#GENRE:Funktronica;
#ORIGIN:;
#TAGS:;
#CREDIT:chewi;
#BANNER:Better.png;
#BACKGROUND:Better-bg.png;
#PREVIEWVID:;
#JACKET:Better-jacket.png;
#CDIMAGE:;
#DISCIMAGE:;
#LYRICSPATH:;
#CDTITLE:cdtitle.png;
#MUSIC:Better.ogg;
#OFFSET:2.177000;
#SAMPLESTART:61.659000;
#SAMPLELENGTH:12.000000;
#SELECTABLE:YES;
#BPMS:0.000000=109.028000
;
#STOPS:;
#DELAYS:;
#WARPS:;
#TIMESIGNATURES:0.000000=4=4
;
#TICKCOUNTS:0.000000=4
;
#COMBOS:0.000000=1
;
#SPEEDS:0.000000=1.000000=0.000000=0
;
#SCROLLS:0.000000=1.000000
;
#FAKES:;
#LABELS:0.000000=Song Start
;
#BGCHANGES:4.000=Better.mp4=1.000=1=0=1===CrossFade==,
160.000=Better-bg.png=1.000=1=0=1===CrossFade==,
99999=-nosongbg-=1.000=0=0=0 // don't automatically add -songbackground-
;
#KEYSOUNDS:;
#ATTACKS:
;

//---------------dance-single - chewi----------------
#NOTEDATA:;
#CHARTNAME:chewi;
#CHARTHASH:2790997190;
#STEPSTYPE:dance-single;
#BANNER:;
#DESCRIPTION:chewi;
#CHARTSTYLE:;
#DIFFICULTY:Beginner;
#METER:1;
#METERF:0.000000;
#LASTSECONDHINT:85.873772;
#RADARVALUES:0.000000,0.000000,0.000000,0.000000,0.000000,0.000000,0.000000,0.000000,0.000000,0.000000,0.000000,0.000000,0.000000,0.000000,0.000000,0.000000,0.000000,0.000000,0.000000,0.000000,0.000000,0.000000,0.000000,0.000000,0.000000,0.000000,0.000000,0.000000;
#CREDIT:chewi;
#NOTES:
0000
0000
0000
0000
,
0000
0000
0000
0000
,
0000
0000
0000
0000
,
0000
0000
0000
0000
,
0000
0000
0000
0000
,
1000
0000
1000
0000
,
0001
0000
0001
0000
,
0100
0000
0100
0000
,
0010
0000
0010
0000
,
0100
0000
0100
0000
,
0001
0000
0001
0000
,
0010
0000
0010
0000
,
0100
0000
0100
0000
,
1000
0000
0100
0000
,
0001
0000
0100
0000
,
1000
0000
0010
0000
,
0001
0000
0010
0000
,
0010
0000
0100
0000
,
0100
0000
0010
0000
,
0001
0000
1000
0000
,
1000
0000
0001
0000
,
1000
1000
0000
1000
,
0000
0001
0000
0001
,
0001
0001
0000
0001
,
0000
1000
0000
1000
,
1000
1000
0000
0100
,
0000
0010
0000
0001
,
0001
0001
0000
0010
,
0000
0100
0000
1000
,
1000
0000
0100
0000
,
0001
0000
0100
0000
,
1000
0000
0010
0000
,
0001
0000
0010
0000
,
0001
0000
0010
0000
,
1000
0000
0010
0000
,
0001
0000
0010
0000
,
0100
0000
0001
0000
,
0200
0000
0000
0300
,
0100
0000
0000
0000
,
0020
0000
0000
0030
,
0010
0000
0000
0000
;

//---------------dance-single - chewi----------------
#NOTEDATA:;
#CHARTNAME:chewi;
#CHARTHASH:2480614744;
#STEPSTYPE:dance-single;
#BANNER:;
#DESCRIPTION:chewi;
#CHARTSTYLE:;
#DIFFICULTY:Easy;
#METER:2;
#METERF:0.000000;
#LASTSECONDHINT:86.974411;
#RADARVALUES:0.000000,0.000000,0.000000,0.000000,0.000000,0.000000,0.000000,0.000000,0.000000,0.000000,0.000000,0.000000,0.000000,0.000000,0.000000,0.000000,0.000000,0.000000,0.000000,0.000000,0.000000,0.000000,0.000000,0.000000,0.000000,0.000000,0.000000,0.000000;
#CREDIT:chewi;
#NOTES:
0000
0000
0000
0000
,
0000
0000
0000
0000
,
0000
0000
0000
0000
,
0000
0000
0000
0000
,
0000
0000
0000
0000
,
1000
0001
1000
0000
,
0001
1000
0001
0000
,
0100
0010
0100
0000
,
0010
0100
0010
0000
,
0100
0001
0100
0000
,
0001
0010
0001
0000
,
0010
0100
0010
0000
,
0100
1000
0100
0000
,
1000
1000
0100
0000
,
0001
0001
0100
0000
,
1000
1000
0010
0000
,
0001
0001
0010
0000
,
0010
0010
0100
0000
,
0100
0100
0010
0000
,
0001
0001
1000
0000
,
1000
1000
0001
0000
,
1000
1000
0000
0100
,
0000
0001
0000
0010
,
0010
0001
0000
0100
,
0000
1000
0000
0010
,
0100
0010
0000
0100
,
0000
0001
0000
1000
,
1000
0100
0000
0010
,
0000
0001
0000
1000
,
0010
0010
0100
0000
,
0001
0100
0001
0000
,
0100
0100
0010
0000
,
0010
1000
0010
0000
,
1000
0100
0010
0000
,
0010
0010
0010
0000
,
0001
0100
0010
0000
,
0100
0100
0100
0000
,
0100
0000
0010
0000
,
0100
0000
0001
0001
,
0001
0000
1000
0000
,
0001
0000
1000
0000
;

//---------------dance-single - chewi----------------
#NOTEDATA:;
#CHARTNAME:chewi;
#CHARTHASH:2600881600;
#STEPSTYPE:dance-single;
#BANNER:;
#DESCRIPTION:chewi;
#CHARTSTYLE:;
#DIFFICULTY:Medium;
#METER:6;
#METERF:0.000000;
#LASTSECONDHINT:86.974411;
#RADARVALUES:0.000000,0.000000,0.000000,0.000000,0.000000,0.000000,0.000000,0.000000,0.000000,0.000000,0.000000,0.000000,0.000000,0.000000,0.000000,0.000000,0.000000,0.000000,0.000000,0.000000,0.000000,0.000000,0.000000,0.000000,0.000000,0.000000,0.000000,0.000000;
#CREDIT:chewi;
#NOTES:
0000
0000
0000
0000
,
0000
0000
0000
0000
,
0000
0000
0000
0000
,
0000
0000
0000
0000
,
0000
0000
0000
0000
,
2001
0000
3010
0000
0100
0100
0001
0000
,
2001
3100
0011
1010
,
1000
0010
1000
0000
0100
0010
0001
0000
,
1000
0001
1000
0000
0010
0100
0010
0000
,
0210
0000
0301
0000
0100
0100
0010
0000
,
0120
1030
1100
0101
,
0001
0100
0001
0000
0100
0010
1000
0000
,
0001
1000
0001
0000
0010
0100
0010
0000
,
1002
0000
0103
0000
0010
0010
1000
0000
,
1002
0013
1100
0101
,
0001
0100
0001
0000
0010
0100
1000
0000
,
0001
1000
0001
0000
0100
0010
0100
0000
,
0120
0000
1030
0000
0010
0010
0100
0000
,
0210
0301
0011
1010
,
1000
0010
1000
0000
0010
0100
0001
0000
,
1000
0001
1000
0000
0100
0010
0001
1000
,
0002
1000
0000
0010
,
0000
0000
1000
0000
0000
0000
0103
0100
,
0200
1000
0000
0010
,
0000
0000
1000
0000
0000
0000
0310
0010
,
2000
0001
0000
0010
,
0000
0000
0001
0000
0000
0000
3100
0100
,
0200
0001
0000
0010
,
0000
0000
0000
0000
0001
0000
0000
0000
0000
0000
0000
0010
0310
0000
0000
0000
,
0010
0001
0100
0000
0010
1000
0100
0000
,
0010
0000
0001
1000
0010
0100
0010
1000
,
0100
1000
0010
0000
0100
0001
0010
0000
,
0100
0000
1000
0001
0100
0010
0100
0010
,
1000
0001
0010
0000
0001
1000
0010
0000
,
0100
0000
0001
1000
0010
0100
0010
1000
,
0100
0010
0001
0000
1000
0100
0010
0000
,
0010
0000
0000
0000
0001
0000
1000
0000
0010
1000
0000
0000
1010
0000
0000
0000
,
0020
0001
0200
0330
,
0200
1000
0020
0330
,
0010
0010
0010
0000
0100
0100
0100
0000
,
1000
0001
1001
0000
;

//---------------dance-single - chewi----------------
#NOTEDATA:;
#CHARTNAME:chewi;
#CHARTHASH:1068308490;
#STEPSTYPE:dance-single;
#BANNER:;
#DESCRIPTION:chewi;
#CHARTSTYLE:;
#DIFFICULTY:Hard;
#METER:8;
#METERF:0.000000;
#LASTSECONDHINT:88.075043;
#RADARVALUES:0.436326,0.488799,0.204376,0.022708,0.289533,269.000000,251.000000,18.000000,2.000000,0.000000,0.000000,0.000000,0.000000,0.000000,0.436326,0.488799,0.204376,0.022708,0.289533,269.000000,251.000000,18.000000,2.000000,0.000000,0.000000,0.000000,0.000000,0.000000;
#CREDIT:chewi;
#NOTES:
// measure 0
0000
0000
0000
0000
,  // measure 1
0000
0000
0000
0000
,  // measure 2
0000
0000
0000
0000
,  // measure 3
0000
0000
0000
0000
,  // measure 4
0000
0000
0000
0000
,  // measure 5
1000
0000
0000
1000
0100
0000
0000
0000
0010
0000
0000
0010
0001
0000
0000
0000
,  // measure 6
1000
0000
0000
1000
0010
0000
0000
0000
0110
0000
0000
0000
1001
0000
0000
0000
,  // measure 7
0010
0000
0000
0010
0100
0000
0000
0000
1000
0000
0000
1000
0001
0000
0000
0000
,  // measure 8
0100
0000
0000
0100
0010
0000
0000
0000
0110
0000
0000
0000
1010
0000
0000
0000
,  // measure 9
1000
0000
0000
1000
0001
0000
1000
0000
0100
0000
0000
0100
0010
0000
0001
0000
,  // measure 10
0010
0000
0000
0010
0100
0000
1000
0000
1010
0000
0000
0000
0101
0000
0000
0000
,  // measure 11
0001
0000
0000
0001
1000
0000
0001
0000
0100
0000
0000
0100
0010
0000
1000
0000
,  // measure 12
0010
0000
0000
0010
0100
0000
0001
0000
0011
0000
0000
0000
1100
0000
0000
0000
,  // measure 13
1000
0000
0000
0000
1001
0000
0000
1000
0100
0000
0100
0000
1000
0000
0000
0000
,  // measure 14
0010
0000
0000
0010
0100
0000
0000
0000
0001
0000
0000
0001
1000
0000
0000
0000
,  // measure 15
0001
0000
0000
0001
0010
0000
0000
0000
0100
0000
1000
0000
0010
0000
0100
0000
,  // measure 16
0001
0000
0000
0001
0100
0000
0000
0000
0110
0000
0000
0000
1001
0000
0000
0000
,  // measure 17
0001
0000
0000
0000
1001
0000
0000
0001
0010
0000
0001
0000
0001
0000
0000
0000
,  // measure 18
0100
0000
0000
0100
0010
0000
0000
0000
1000
0000
0000
1000
0001
0000
0000
0000
,  // measure 19
1000
0000
0000
1000
0100
0000
0000
0000
0010
0000
0001
0000
0100
0000
0000
0000
,  // measure 20
0010
0000
0000
0010
1000
0000
0000
1000
0001
0000
0000
0001
0010
0000
0010
0000
,  // measure 21
0001
0010
0001
0000
1000
1000
1100
0000
,  // measure 22
0001
0100
0010
0000
1000
0001
1001
0000
,  // measure 23
0001
1000
0100
0000
0010
0100
1100
0000
,  // measure 24
0001
0010
0001
0000
0100
0001
0101
0000
,  // measure 25
0100
0010
0100
0010
1000
0001
1000
0001
,  // measure 26
0010
0001
0100
0000
0001
0100
0001
0000
,  // measure 27
0100
0010
0100
0010
1000
0001
1000
0001
,  // measure 28
1000
0000
0100
0000
1000
0000
0010
0000
0100
0000
0000
0100
0001
0000
0000
0000
,  // measure 29
0100
0000
0001
0100
0010
0000
0000
0000
1000
0100
0000
1000
0100
0000
1000
0000
,  // measure 30
0010
0000
0100
0010
0000
0100
0010
0000
0100
0001
0000
0100
0001
0000
0100
0000
,  // measure 31
0010
0000
1000
0010
0100
0000
0000
0000
0001
0010
0000
0001
0010
0000
0001
0000
,  // measure 32
0100
0000
0010
1000
0000
0010
1000
0000
1010
0000
0000
0000
0101
0000
0000
0000
,  // measure 33
0010
0000
1000
0010
0100
0000
0000
0000
0001
0010
0000
0001
0010
0000
0001
0000
,  // measure 34
0100
0000
0010
0100
0000
0010
0100
0000
0010
1000
0000
0010
1000
0000
0010
0000
,  // measure 35
0100
0000
0001
0100
0010
0000
0000
0000
1000
0100
0000
1000
0100
0000
1000
0000
,  // measure 36
0010
0000
0100
0001
0000
0100
0001
0000
0100
0001
0000
0001
0100
0000
0001
0000
,  // measure 37
0010
0001
0010
0100
0010
0001
0100
0000
,  // measure 38
0001
0100
1000
0100
0001
0100
1000
0000
,  // measure 39
0100
0010
1000
0100
1000
0010
1000
0000
,  // measure 40
0010
0100
0002
0000
0200
0000
0000
0000
,  // measure 41
0303
0000
0000
0000
;
