#VERSION:0.83;
#TITLE:Baby-Baby-Baby;
#SUBTITLE:;
#ARTIST:TLC;
#TITLETRANSLIT:;
#SUBTITLETRANSLIT:;
#ARTISTTRANSLIT:;
#GENRE:New Jack Swing;
#ORIGIN:;
#TAGS:;
#CREDIT:chewi;
#BANNER:Baby-Baby-Baby.png;
#BACKGROUND:Baby-Baby-Baby-bg.png;
#PREVIEWVID:;
#JACKET:Baby-Baby-Baby-jacket.png;
#CDIMAGE:;
#DISCIMAGE:;
#LYRICSPATH:;
#CDTITLE:cdtitle.png;
#MUSIC:Baby-Baby-Baby.ogg;
#OFFSET:2.609000;
#SAMPLESTART:62.525002;
#SAMPLELENGTH:10.421000;
#SELECTABLE:YES;
#BPMS:0.000000=92.117996
;
#STOPS:;
#DELAYS:;
#WARPS:;
#TIMESIGNATURES:0.000000=4=4
;
#TICKCOUNTS:0.000000=4
;
#COMBOS:0.000000=1
;
#SPEEDS:0.000000=1.000000=0.000000=0
;
#SCROLLS:0.000000=1.000000
;
#FAKES:;
#LABELS:0.000000=Song Start
;
#BGCHANGES:4.000=Baby-Baby-Baby.mp4=1.000=1=0=1===CrossFade==,
164.000=Baby-Baby-Baby-bg.png=1.000=1=0=1===CrossFade==,
99999=-nosongbg-=1.000=0=0=0 // don't automatically add -songbackground-
;
#KEYSOUNDS:;
#ATTACKS:
;

//---------------dance-single - ----------------
#NOTEDATA:;
#CHARTNAME:;
#CHARTHASH:1844958137;
#STEPSTYPE:dance-single;
#BANNER:;
#DESCRIPTION:;
#CHARTSTYLE:;
#DIFFICULTY:Beginner;
#METER:1;
#METERF:0.000000;
#LASTSECONDHINT:104.210518;
#RADARVALUES:0.060053,0.093670,0.009139,0.000000,0.000000,46.000000,45.000000,1.000000,0.000000,0.000000,0.000000,0.000000,0.000000,0.000000,0.060053,0.093670,0.009139,0.000000,0.000000,46.000000,45.000000,1.000000,0.000000,0.000000,0.000000,0.000000,0.000000,0.000000;
#CREDIT:chewi;
#NOTES:
// measure 0
0000
0000
0000
0000
,  // measure 1
0000
0000
0000
0000
,  // measure 2
0000
0000
0000
0000
,  // measure 3
0000
0000
0000
0000
,  // measure 4
0000
0000
0000
0000
,  // measure 5
1000
0000
0000
0000
,  // measure 6
0100
0000
0000
0000
,  // measure 7
0010
0000
0000
0000
,  // measure 8
0001
0000
0000
0000
,  // measure 9
0001
0000
0000
0000
,  // measure 10
0100
0000
0000
0000
,  // measure 11
0001
0000
0000
0000
,  // measure 12
0010
0000
0000
0000
,  // measure 13
0100
0000
0000
0000
,  // measure 14
1000
0000
0000
0000
,  // measure 15
0010
0000
0000
0000
,  // measure 16
1000
0000
0000
0000
,  // measure 17
1000
0000
0000
0000
,  // measure 18
0100
0000
0000
0000
,  // measure 19
0001
0000
0000
0000
,  // measure 20
0100
0000
0000
0000
,  // measure 21
1000
0000
0000
0000
,  // measure 22
0010
0000
0000
0000
,  // measure 23
0001
0000
0000
0000
,  // measure 24
0010
0000
0000
0000
,  // measure 25
0010
0010
0010
0000
,  // measure 26
0010
0000
0000
0000
,  // measure 27
0100
0000
0000
0000
,  // measure 28
1000
0000
0000
0000
,  // measure 29
1000
1000
1000
0000
,  // measure 30
1000
0000
0000
0000
,  // measure 31
0001
0000
0000
0000
,  // measure 32
0100
0000
0000
0000
,  // measure 33
0100
0100
0100
0000
,  // measure 34
0100
0000
0000
0000
,  // measure 35
0001
0000
0000
0000
,  // measure 36
0010
0000
0000
0000
,  // measure 37
0100
0100
0100
0000
,  // measure 38
0100
0000
0000
0000
,  // measure 39
1000
0000
0000
0000
,  // measure 40
0001
0000
0000
0000
,  // measure 41
1001
0000
0000
0000
;

//---------------dance-single - ----------------
#NOTEDATA:;
#CHARTNAME:;
#CHARTHASH:2760204450;
#STEPSTYPE:dance-single;
#BANNER:;
#DESCRIPTION:;
#CHARTSTYLE:;
#DIFFICULTY:Easy;
#METER:2;
#METERF:2.000000;
#LASTSECONDHINT:104.210518;
#RADARVALUES:0.118801,0.131138,0.009139,0.000000,0.000000,91.000000,90.000000,1.000000,0.000000,0.000000,0.000000,0.000000,0.000000,0.000000,0.118801,0.131138,0.009139,0.000000,0.000000,91.000000,90.000000,1.000000,0.000000,0.000000,0.000000,0.000000,0.000000,0.000000;
#CREDIT:chewi;
#NOTES:
// measure 0
0000
0000
0000
0000
,  // measure 1
0000
0000
0000
0000
,  // measure 2
0000
0000
0000
0000
,  // measure 3
0000
0000
0000
0000
,  // measure 4
0000
0000
0000
0000
,  // measure 5
1000
1000
0001
0001
,  // measure 6
1000
0000
0010
0000
,  // measure 7
0100
0000
0001
0000
,  // measure 8
0010
0000
0100
0000
,  // measure 9
1000
0000
1000
0000
,  // measure 10
0010
0010
0100
0000
,  // measure 11
0001
0000
0001
0000
,  // measure 12
0010
0010
0100
0000
,  // measure 13
1000
0000
0001
0000
,  // measure 14
0100
0100
0010
0000
,  // measure 15
1000
0000
0001
0000
,  // measure 16
0010
0010
0100
0000
,  // measure 17
0010
0000
0100
0000
,  // measure 18
0010
0000
0001
0000
,  // measure 19
1000
0000
0001
0000
,  // measure 20
0100
0000
0010
0000
,  // measure 21
0100
0000
0001
0000
,  // measure 22
1000
0000
0001
0000
,  // measure 23
1000
0000
0001
0000
,  // measure 24
1000
0001
1000
0000
,  // measure 25
0001
0001
0001
0000
,  // measure 26
0001
0010
0100
0000
,  // measure 27
0010
0000
0100
0000
,  // measure 28
0010
0100
1000
0000
,  // measure 29
1000
1000
1000
0000
,  // measure 30
1000
0010
1000
0000
,  // measure 31
0010
0000
0100
0000
,  // measure 32
0001
0000
1000
0000
,  // measure 33
0100
0100
0100
0000
,  // measure 34
0010
0001
1000
0000
,  // measure 35
0010
0000
0100
0000
,  // measure 36
0001
0100
0001
0000
,  // measure 37
0100
0100
0100
0000
,  // measure 38
0010
1000
0001
0000
,  // measure 39
0010
0000
0100
0000
,  // measure 40
1000
0000
0001
0000
,  // measure 41
1001
0000
0000
0000
;

//---------------dance-single - chewi----------------
#NOTEDATA:;
#CHARTNAME:chewi;
#CHARTHASH:1936068793;
#STEPSTYPE:dance-single;
#BANNER:;
#DESCRIPTION:chewi;
#CHARTSTYLE:;
#DIFFICULTY:Hard;
#METER:5;
#METERF:0.000000;
#LASTSECONDHINT:104.210518;
#RADARVALUES:0.301571,0.337211,0.228463,0.000000,0.036554,231.000000,206.000000,25.000000,0.000000,0.000000,0.000000,0.000000,0.000000,0.000000,0.301571,0.337211,0.228463,0.000000,0.036554,231.000000,206.000000,25.000000,0.000000,0.000000,0.000000,0.000000,0.000000,0.000000;
#CREDIT:chewi;
#NOTES:
// measure 0
0000
0000
0000
0000
,  // measure 1
0000
0000
0000
0000
,  // measure 2
0000
0000
0000
0000
,  // measure 3
0000
0000
0000
0000
,  // measure 4
0000
0000
0000
0000
,  // measure 5
0010
1000
0100
0010
,  // measure 6
0001
0000
0000
1000
0000
0000
1001
0000
0000
0000
1000
0000
1000
0000
0000
0000
,  // measure 7
0100
0000
0000
0100
0000
0000
0100
0000
0000
0000
0010
0000
0010
0000
0000
0000
,  // measure 8
0001
0000
0000
1000
0000
0000
1001
0000
0000
0000
0001
0000
0001
0000
1000
0000
,  // measure 9
1000
0000
0100
0000
0001
0010
1000
0000
,  // measure 10
0100
0000
0001
0000
0010
1000
0100
0000
,  // measure 11
0001
0010
1000
0000
1000
0001
0100
0000
,  // measure 12
0001
0100
1000
0000
0100
0010
1000
0001
,  // measure 13
0001
0000
0010
0000
1000
0100
0001
0000
,  // measure 14
0010
0000
1000
0000
0100
0001
0010
0000
,  // measure 15
1000
0100
0001
0000
0001
1000
0010
0000
,  // measure 16
1000
0010
0001
0000
0010
0100
0001
1000
,  // measure 17
0100
0000
1100
0000
1000
0100
1000
0000
,  // measure 18
0010
0000
0101
0000
0001
0100
0001
0100
,  // measure 19
0001
0000
1000
0000
0100
0010
0100
0010
,  // measure 20
0001
0000
0010
0000
0100
0100
0100
0000
,  // measure 21
0010
0000
0011
0000
0001
0010
0001
0000
,  // measure 22
0100
0000
1010
0000
1000
0010
1000
0010
,  // measure 23
1000
0000
0001
0000
0010
0100
0010
0100
,  // measure 24
1000
0000
0100
0000
0010
0001
0010
0000
,  // measure 25
0011
0000
0110
0000
1100
1000
0100
1000
,  // measure 26
0001
0000
0000
0001
0000
0000
0001
0000
0000
0000
0100
0000
0100
0000
0000
0000
,  // measure 27
0010
1000
0010
1000
0010
0000
1000
1000
,  // measure 28
1000
0100
0010
1000
0100
0010
0100
0100
,  // measure 29
1100
0000
0110
0000
0011
0001
0010
0001
,  // measure 30
1000
0000
0000
1000
0000
0000
1000
0000
0100
0000
0000
0000
0110
0000
0000
0000
,  // measure 31
0010
0001
1000
0010
1000
0000
1010
0000
,  // measure 32
0010
0100
0001
1000
0100
0000
0110
0000
,  // measure 33
1010
0000
0110
0000
0101
0001
0100
0001
,  // measure 34
1000
0000
0000
1000
0000
0000
1000
0000
0000
1000
0000
0000
1000
0000
0000
0000
,  // measure 35
0100
0010
0100
0010
0100
0000
0010
0010
,  // measure 36
0001
0000
0100
0000
0010
0000
1000
0001
,  // measure 37
0101
0000
0110
0000
1010
1000
0010
1000
,  // measure 38
0001
0000
0000
0001
0000
0000
0001
0000
0100
0000
0000
0000
0110
0000
0000
0000
,  // measure 39
0010
1000
0001
0010
0001
0000
0011
0000
,  // measure 40
0010
0100
1000
0001
0100
0000
0110
0000
,  // measure 41
1001
0000
0000
0000
;

//---------------dance-single - ----------------
#NOTEDATA:;
#CHARTNAME:;
#CHARTHASH:3585131178;
#STEPSTYPE:dance-single;
#BANNER:;
#DESCRIPTION:;
#CHARTSTYLE:;
#DIFFICULTY:Medium;
#METER:4;
#METERF:4.000000;
#RADARVALUES:0.182770,0.243541,0.073108,0.018277,0.050262,140.000000,132.000000,8.000000,2.000000,0.000000,0.000000,0.000000,0.000000,0.000000,0.182770,0.243541,0.073108,0.018277,0.050262,140.000000,132.000000,8.000000,2.000000,0.000000,0.000000,0.000000,0.000000,0.000000;
#CREDIT:chewi;
#NOTES:
// measure 0
0000
0000
0000
0000
,  // measure 1
0000
0000
0000
0000
,  // measure 2
0000
0000
0000
0000
,  // measure 3
0000
0000
0000
0000
,  // measure 4
0000
0000
0000
0000
,  // measure 5
2000
3010
0020
1030
,  // measure 6
1000
0000
0000
0010
0000
0000
1000
0000
0000
0000
0000
0000
1000
0000
0000
0000
,  // measure 7
0010
0000
0000
1000
0000
0000
0010
0000
0000
0000
0000
0000
0100
0000
0000
0000
,  // measure 8
0001
0000
0000
0100
0000
0000
0001
0000
0000
0000
0000
0000
0010
0000
0000
0000
,  // measure 9
0100
0001
0100
1000
,  // measure 10
1000
0010
0100
0001
,  // measure 11
1000
1100
0001
0101
,  // measure 12
1000
1010
0001
0011
,  // measure 13
0010
0100
1000
0001
,  // measure 14
0100
0010
1000
0001
,  // measure 15
1000
1100
0001
0101
,  // measure 16
1000
1010
0001
0011
,  // measure 17
0010
0001
0010
0100
,  // measure 18
0010
0001
0100
0010
,  // measure 19
0100
0010
1000
0001
,  // measure 20
1000
0100
0010
0001
,  // measure 21
0010
0100
1000
1000
,  // measure 22
0010
0100
0001
0001
,  // measure 23
0100
0010
1000
1000
,  // measure 24
0100
0010
0001
0001
,  // measure 25
0001
0001
0001
0000
,  // measure 26
0001
0000
0000
1000
0000
0000
0100
0000
0000
0000
0000
0000
0000
0000
0000
0000
,  // measure 27
0100
0010
0001
0000
,  // measure 28
0100
0010
1000
0000
,  // measure 29
0010
0010
0010
0000
,  // measure 30
0010
0000
0000
0100
0000
0000
0001
0000
0000
0000
0000
0000
0000
0000
0000
0000
,  // measure 31
0001
0000
0000
0001
0000
0000
0001
0000
0000
0000
0000
0000
0000
0000
0000
0000
,  // measure 32
1000
0000
0000
1000
0000
0000
1000
0000
0000
0000
0000
0000
0000
0000
0000
0000
,  // measure 33
1000
1000
1000
0000
,  // measure 34
1000
0000
0000
0001
0000
0000
0010
0000
0000
0000
0000
0000
0000
0000
0000
0000
,  // measure 35
0010
0100
1000
0000
,  // measure 36
0010
0100
0001
0000
,  // measure 37
0100
0100
0100
0000
,  // measure 38
0100
0000
0000
0010
0000
0000
1000
0000
0000
0000
0000
0000
0000
0000
0000
0000
,  // measure 39
1000
0000
0000
1000
0000
0000
1000
0000
0000
0000
0000
0000
0000
0000
0000
0000
,  // measure 40
0001
0000
0000
0001
0000
0000
0001
0000
0000
0000
1000
0000
0001
0000
1000
0000
,  // measure 41
0001
0000
0000
0000
;
