#TITLE:B.O.T.A.;
#SUBTITLE:(Baddest Of Them All);
#ARTIST:Eliza Rose & Interplanetary Criminal;
#TITLETRANSLIT:;
#SUBTITLETRANSLIT:;
#ARTISTTRANSLIT:;
#GENRE:;
#CREDIT:;
#BANNER:B.O.T.A. (Baddest Of Them All).png;
#BACKGROUND:B.O.T.A. (Baddest Of Them All)-bg.png;
#LYRICSPATH:;
#CDTITLE:cdtitle.png;
#MUSIC:B.O.T.A. (Baddest Of Them All).ogg;
#OFFSET:0.000000;
#SAMPLESTART:28.027000;
#SAMPLELENGTH:12.000000;
#SELECTABLE:YES;
#BPMS:0.000000=137.013000
;
#STOPS:
;
#BGCHANGES:0.000=B.O.T.A. (Baddest Of Them All).mp4=1.000=0=0=1=====,
197.500=B.O.T.A. (Baddest Of Them All)-bg.png=1.000=1=0=1===CrossFade==,
99999=-nosongbg-=1.000=0=0=0 // don't automatically add -songbackground-
;
#KEYSOUNDS:;
#ATTACKS:;

//---------------dance-single - ----------------
#NOTES:
     dance-single:
     :
     Beginner:
     1:
     0.109725,0.136361,0.000000,0.089052,0.000000,69.000000,69.000000,0.000000,8.000000,0.000000,0.000000,0.109725,0.136361,0.000000,0.089052,0.000000,69.000000,69.000000,0.000000,8.000000,0.000000,0.000000:
0000
0000
0000
0000
,
0000
0000
0000
0000
,
0000
0000
0000
0000
,
0000
0000
0000
0000
,
1000
0000
0001
0000
,
1000
0000
0000
0000
,
0001
0000
1000
0000
,
0001
0000
0000
0000
,
0100
0000
0010
0000
,
0100
0000
0000
0000
,
0010
0000
0100
0000
,
0010
0000
0000
0000
,
1000
0000
0100
0000
,
1000
0000
0000
0000
,
0001
0000
0100
0000
,
0001
0000
0000
0000
,
0000
0001
0000
0001
,
0000
0001
0000
0001
,
0000
1000
0000
1000
,
0000
1000
0000
1000
,
0000
0010
0000
0010
,
0000
0010
0000
0010
,
0000
0100
0000
0100
,
0000
0100
0000
0100
,
0200
0000
0000
0300
,
0100
0000
0000
0000
,
0020
0000
0000
0030
,
0010
0000
0000
0000
,
2000
0000
0000
3000
,
1000
0000
0000
0000
,
0002
0000
0000
0003
,
0001
0000
0000
0000
,
0001
0000
0010
0000
,
1000
0000
0100
0000
,
0001
0000
0010
0000
,
1000
0000
0100
0000
,
0001
0000
0100
0000
,
1000
0000
0010
0000
,
0001
0000
0100
0000
,
1000
0000
0010
0000
,
0020
0000
0000
0030
,
0010
0000
0000
0000
,
0200
0000
0000
0300
,
0100
0100
0000
0000
,
0002
0000
0000
0003
,
0001
0000
0000
0000
,
2000
0000
0000
3000
,
1000
0000
0000
0000
,
1000
0000
0000
0000
,
1000
0000
0000
0000
;

//---------------dance-single - ----------------
#NOTES:
     dance-single:
     :
     Easy:
     3:
     0.222630,0.247328,0.022263,0.155841,0.000000,140.000000,138.000000,2.000000,14.000000,0.000000,0.000000,0.222630,0.247328,0.022263,0.155841,0.000000,140.000000,138.000000,2.000000,14.000000,0.000000,0.000000:
0000
0000
0000
0000
,
0000
0000
0000
0000
,
0000
0000
0000
0000
,
0000
0000
0000
0000
,
2000
3100
0002
0103
,
2000
3010
0002
0013
,
2000
3100
0002
0103
,
2000
0100
0100
3100
,
0100
0010
0001
1000
,
0002
0000
0000
0003
,
0100
0010
1000
0001
,
2000
0000
0000
3000
,
0100
0010
0001
0010
,
0200
0000
0000
0300
,
1000
0010
0100
0001
,
0002
0000
0000
0003
,
0100
0001
0100
0000
,
0001
0100
0001
0000
,
0100
0000
0010
0000
,
1000
0000
0001
0000
,
1000
0100
1000
0000
,
0100
1000
0100
0000
,
1000
0000
0001
0000
,
0100
0000
0010
0010
,
1000
0010
0001
0010
,
1000
0010
0001
0010
,
1000
0100
0001
0100
,
1000
0100
0001
0100
,
1000
0010
0001
0010
,
1000
0010
0001
0010
,
1000
0010
0100
0001
,
2000
0000
0000
3000
,
0001
0001
0100
0000
,
0100
0100
1000
0000
,
0010
0010
0001
0000
,
0100
0100
1000
0000
,
0010
0010
0001
0000
,
0010
0010
1000
0000
,
0010
0010
0001
0000
,
0010
0010
0100
0100
,
0010
0100
0100
0000
,
1000
0001
0100
0000
,
0010
0100
0100
0000
,
0010
0100
0001
0000
,
1000
0001
1000
0000
,
0001
1000
0001
0000
,
1001
0000
1001
0000
,
0100
0000
0100
0100
,
0200
0010
0000
0010
,
0020
0000
0000
0330
0000
0000
0000
0000
;

//---------------dance-single - ----------------
#NOTES:
     dance-single:
     :
     Medium:
     6:
     0.370521,0.412214,0.055658,0.066789,0.089052,233.000000,228.000000,5.000000,6.000000,0.000000,0.000000,0.370521,0.412214,0.055658,0.066789,0.089052,233.000000,228.000000,5.000000,6.000000,0.000000,0.000000:
0000
0000
0000
0000
,
0000
0000
0000
0000
,
0000
0000
0000
0000
,
0000
0000
0000
0000
,
1000
0000
0000
0100
0000
0000
0010
0000
0000
0001
0000
0000
1000
0000
0000
0000
,
0001
0000
0000
0100
0000
0000
0010
0000
0000
1000
0000
0000
0100
0000
0000
0000
,
0100
0000
0000
0010
0000
0000
0001
0000
0000
1000
0000
0000
0010
0000
0000
0000
,
0010
0000
0000
0100
0000
0000
0001
0000
1001
0000
0000
0000
0110
0000
0000
0000
,
0010
1000
0010
0000
0100
0001
0100
0000
,
0010
1000
0100
0000
1000
0000
1100
0000
,
0010
0001
0010
0000
0100
1000
0100
0000
,
0010
0001
0100
0000
0001
0000
0101
0000
,
0100
0001
0100
0000
0010
1000
0010
0000
,
0100
0001
0010
0000
0001
0000
0011
0000
,
0100
1000
0100
0000
0010
0001
0010
0000
,
0100
1000
0010
1000
0100
0000
0000
0000
,
0000
0100
0000
0001
0000
0010
0000
0100
,
0000
1000
0000
0010
0000
0100
0000
0001
,
0000
1000
0000
0100
0000
1000
0000
0100
,
0000
0001
0000
0100
0000
0001
0000
0100
,
0000
0100
0000
1000
0000
0010
0000
0100
,
0000
0001
0000
0010
0000
0100
0000
1000
,
0000
0001
0000
0100
0000
0001
0000
0100
,
0000
1000
0000
0100
1000
0100
0010
0100
,
1000
0100
0001
0100
1000
0000
0001
0000
,
0001
0100
1000
0100
0001
0000
0010
0000
,
0100
0000
0100
0000
1000
0001
1000
0000
,
0010
0000
0010
0000
0100
0001
0100
0000
,
0001
0010
1000
0010
0001
0000
1000
0000
,
1000
0010
0001
0010
1000
0000
0100
0000
,
0010
0000
0010
0000
0001
1000
0001
0000
,
0100
0000
0000
0100
0000
0000
0100
0000
0000
0000
0010
0000
0010
0000
0010
0000
,
1000
0100
0001
0100
,
1000
0010
0100
0001
0000
1000
0001
0000
,
1000
0010
0001
0010
,
1000
0100
0010
0001
0000
1000
0100
0000
,
0001
0010
1000
0010
,
0001
0100
0010
1000
0000
0001
1000
0000
,
0001
0100
1000
0100
,
0001
0010
0100
1000
0010
1000
0100
1000
,
0001
0000
0000
0010
0000
0000
0100
0000
0000
1000
0000
0000
0001
0000
0000
0000
,
1000
0000
0000
0010
0000
0000
0100
0000
0000
0001
0000
0000
0010
0000
0000
0000
,
0010
0000
0000
0100
0000
0000
1000
0000
0000
0001
0000
0000
0100
0000
0000
0000
,
0100
0000
0000
0010
0000
0000
1000
0000
0001
0000
1000
0000
0100
0000
1000
0000
,
0200
0310
0002
1003
,
2000
0010
0001
3100
,
0002
1003
0200
0310
,
0200
0001
0010
1300
,
0010
0000
0000
0000
0000
0000
0000
0000
0000
0000
0100
0000
0000
0010
0000
0000
,
0100
0000
0000
0010
0000
0000
0000
0000
;

//---------------dance-single - ----------------
#NOTES:
     dance-single:
     :
     Hard:
     8:
     0.572478,0.604581,0.322814,0.189236,0.328380,360.000000,331.000000,29.000000,17.000000,0.000000,0.000000,0.572478,0.604581,0.322814,0.189236,0.328380,360.000000,331.000000,29.000000,17.000000,0.000000,0.000000:
// measure 0
0000
0000
0000
0000
,  // measure 1
0000
0000
0000
0000
,  // measure 2
0000
0000
0000
0000
,  // measure 3
0000
0000
0000
0000
,  // measure 4
0020
0000
0000
0032
0000
0000
2003
0000
0000
3020
0000
0000
1030
0000
0000
1000
,  // measure 5
0020
0000
0000
0230
0000
0000
0302
0000
0000
2003
0000
0000
3001
0000
0000
0001
,  // measure 6
0200
0000
0000
0302
0000
0000
2003
0000
0000
3200
0000
0000
0310
0000
0000
0010
,  // measure 7
0200
0000
0000
2300
0000
0000
3002
0000
1003
0001
0000
0001
1000
0000
0100
0000
,  // measure 8
1000
0100
1000
0010
1000
0100
1000
0010
,  // measure 9
1000
0000
0000
1100
0000
0000
0001
0000
0000
0101
0000
0000
0100
0000
0100
0000
,  // measure 10
0100
0010
0001
0010
0100
0010
0001
0010
,  // measure 11
1000
0000
0000
1010
0000
0000
0001
0000
0000
0001
0010
0000
0100
0000
0100
0000
,  // measure 12
0010
0001
0010
0100
0010
0001
0010
0100
,  // measure 13
1000
0000
0000
1010
0000
0000
0100
0000
0000
0101
0000
0000
0001
0000
0001
0000
,  // measure 14
0001
0010
1000
0001
0100
1000
0010
0100
,  // measure 15
2002
0000
0000
3003
,  // measure 16
1000
0010
0100
0010
1000
0100
1000
0010
,  // measure 17
0100
0010
1000
0100
1000
0010
0100
0010
,  // measure 18
1000
0100
0010
0001
0100
0010
0100
0001
,  // measure 19
0010
0001
0100
0010
0100
0001
1000
0000
,  // measure 20
0001
0010
0100
0010
0001
0100
0001
0010
,  // measure 21
0100
0010
0001
0100
0010
1000
0100
1000
,  // measure 22
0010
0100
1000
0100
0010
1000
0100
0010
,  // measure 23
0100
0000
1000
0000
0010
0000
0100
0000
0001
0000
1000
0001
1000
0000
0001
0000
,  // measure 24
0001
0000
0001
0010
0000
0000
0100
0000
0000
0010
0000
0000
0001
0000
1000
0000
,  // measure 25
0010
0000
0100
0001
0000
0001
0100
0000
0000
0010
0000
0000
1000
0100
0000
0100
,  // measure 26
1000
0000
0000
0100
1000
0100
0000
0000
1000
0000
0000
1000
0001
0000
0000
0000
,  // measure 27
0001
0100
0000
0100
0001
0100
0001
0000
0010
0000
0100
0000
1000
0000
0010
0000
,  // measure 28
0110
0000
0000
0101
0000
0000
1100
0000
0000
0101
0000
0000
1001
0000
0000
0000
,  // measure 29
0011
0000
0000
1010
0000
0000
0101
0000
0000
1010
0000
0000
1001
0000
0000
0000
,  // measure 30
0101
0000
0000
0110
0000
0000
1010
0000
0000
0110
0000
0000
1001
0000
0000
0000
,  // measure 31
0001
0000
0000
1000
0000
0000
0001
0000
0000
1000
0001
1000
0001
0000
1000
0000
,  // measure 32
1000
0000
0010
0000
0100
0000
0001
0000
0010
0000
0100
1000
0100
0000
0000
0000
,  // measure 33
1000
0000
0010
0000
0100
0000
1000
0000
0100
0000
0001
1000
0001
0000
0000
0000
,  // measure 34
0001
0000
0010
0000
0100
0000
1000
0000
0010
1000
0010
0000
0100
0000
0000
0000
,  // measure 35
0100
0000
0001
0000
0010
0000
0001
0000
0100
0001
0100
0000
0010
0000
0000
0000
,  // measure 36
0010
0000
0100
0000
0001
0000
1000
0000
0010
0100
0001
0000
1001
0000
0000
0000
,  // measure 37
0010
0000
0100
0000
1000
0000
0001
0000
0010
0100
1000
0000
1001
0000
0000
0000
,  // measure 38
0001
0000
0010
0000
0100
0000
0010
0000
0001
1000
0010
0000
0110
0000
0000
0000
,  // measure 39
0100
0010
1000
0001
0011
1000
1100
1000
,  // measure 40
0001
0000
0100
0000
0010
0000
1000
0000
0100
0000
0010
0001
0010
0000
0000
0000
,  // measure 41
0001
0000
0100
0000
0010
0000
0001
0000
0010
0000
1000
0001
1000
0000
0000
0000
,  // measure 42
1000
0000
0100
0000
0010
0000
0001
0000
0100
0001
0100
0000
0010
0000
0000
0000
,  // measure 43
0010
0000
1000
0000
0100
0000
1000
0000
0010
1000
0010
0000
0100
0000
0000
0000
,  // measure 44
0100
0000
0010
0000
1000
0000
0001
0000
0100
0010
1000
0000
1001
0000
0000
0000
,  // measure 45
0100
0000
0010
0000
0001
0000
1000
0000
0100
0010
0001
0000
1001
0000
0000
0000
,  // measure 46
1000
0000
0100
0000
0010
0000
0100
0000
1000
0001
0100
0000
0110
0000
0000
0000
,  // measure 47
0010
0000
0000
0100
0000
0000
0001
0000
0000
1000
0001
1000
0001
0000
0010
0000
,  // measure 48
0100
0000
0000
0000
0000
0000
0000
0000
0000
0000
1000
0000
0000
0010
0000
0000
,  // measure 49
0001
0000
0000
0100
0000
0000
0000
0000
;
