#VERSION:0.83;
#TITLE:Angel Of My Dreams;
#SUBTITLE:;
#ARTIST:JADE;
#TITLETRANSLIT:;
#SUBTITLETRANSLIT:;
#ARTISTTRANSLIT:;
#GENRE:Electropop;
#ORIGIN:;
#TAGS:;
#CREDIT:chewi;
#BANNER:Angel Of My Dreams.png;
#BACKGROUND:Angel Of My Dreams-bg.png;
#PREVIEWVID:;
#JACKET:Angel Of My Dreams-jacket.png;
#CDIMAGE:;
#DISCIMAGE:;
#LYRICSPATH:;
#CDTITLE:cdtitle.png;
#MUSIC:Angel Of My Dreams.ogg;
#OFFSET:0.899000;
#SAMPLESTART:67.773003;
#SAMPLELENGTH:12.000000;
#SELECTABLE:YES;
#BPMS:0.000000=128.000000
,140.000000=80.000000
;
#STOPS:;
#DELAYS:;
#WARPS:;
#TIMESIGNATURES:0.000000=4=4
;
#TICKCOUNTS:0.000000=4
;
#COMBOS:0.000000=1
;
#SPEEDS:0.000000=1.000000=0.000000=0
;
#SCROLLS:0.000000=1.000000
;
#FAKES:;
#LABELS:0.000000=Song Start
;
#BGCHANGES:2.000=Angel Of My Dreams.mp4=1.000=1=0=1===CrossFade==,
187.500=Angel Of My Dreams-bg.png=1.000=1=0=1===CrossFade==,
99999.000=-nosongbg-=1.000=0=0=0=StretchNoLoop====
;
#KEYSOUNDS:;
#ATTACKS:
;

//---------------dance-single - ----------------
#NOTEDATA:;
#CHARTNAME:;
#CHARTHASH:3331288162;
#STEPSTYPE:dance-single;
#BANNER:;
#DESCRIPTION:;
#CHARTSTYLE:;
#DIFFICULTY:Beginner;
#METER:1;
#METERF:0.000000;
#LASTSECONDHINT:99.225998;
#RADARVALUES:0.062117,0.114882,0.039529,0.088941,0.000000,44.000000,40.000000,4.000000,9.000000,0.000000,0.000000,0.000000,0.000000,0.000000,0.062117,0.114882,0.039529,0.088941,0.000000,44.000000,40.000000,4.000000,9.000000,0.000000,0.000000,0.000000,0.000000,0.000000;
#CREDIT:chewi;
#NOTES:
0000
0000
0000
0000
,
0000
0000
0000
0000
,
0000
0000
0000
0000
,
0000
0000
0000
0000
,
0000
0000
0000
0000
,
1000
0000
0000
0000
,
0001
0000
0000
0000
,
0100
0000
0000
0000
,
0010
0000
0000
0000
,
1000
0000
0000
0000
,
0001
0000
0000
0000
,
0010
0000
0000
0000
,
0100
0000
0000
0000
,
0200
0000
0000
0300
,
0100
0000
0000
0000
,
0020
0000
0000
0030
,
0010
0000
0000
0000
,
0002
0000
0000
0003
,
0001
0000
0000
0000
,
2000
0000
0000
3000
,
1000
0000
0000
0000
,
1001
0000
0000
0000
,
0100
0000
0000
0000
,
0010
0000
0000
0000
,
1000
0000
0000
0000
,
1001
0000
0000
0000
,
0010
0000
0000
0000
,
0100
0000
0000
0000
,
1000
0000
0000
0000
,
2000
0000
0000
3000
,
1000
0000
0000
0000
,
0002
0000
0000
0003
,
0001
0000
0000
0000
,
0200
0000
0000
0300
,
0100
0000
0000
0000
,
0020
0000
0000
0030
,
0010
0000
0000
0000
,
0100
0000
0000
0000
,
1001
0000
0000
0000
,
1001
0000
0000
0000
,
1000
0000
0000
0000
,
0100
0000
0000
0000
,
0010
0000
0000
0000
,
0001
0000
0000
0000
,
0002
0000
0000
0000
,
0000
0000
0000
0000
,
0000
0000
0003
0000
;

//---------------dance-single - ----------------
#NOTEDATA:;
#CHARTNAME:;
#CHARTHASH:2040764887;
#STEPSTYPE:dance-single;
#BANNER:;
#DESCRIPTION:;
#CHARTSTYLE:;
#DIFFICULTY:Easy;
#METER:3;
#METERF:3.000000;
#LASTSECONDHINT:99.225998;
#RADARVALUES:0.136940,0.183811,0.019765,0.019765,0.000000,97.000000,95.000000,2.000000,2.000000,0.000000,0.000000,0.000000,0.000000,0.000000,0.136940,0.183811,0.019765,0.019765,0.000000,97.000000,95.000000,2.000000,2.000000,0.000000,0.000000,0.000000,0.000000,0.000000;
#CREDIT:chewi;
#NOTES:
0000
0000
0000
0000
,
0000
0000
0000
0000
,
0000
0000
0000
0000
,
0000
0000
0000
0000
,
0000
0000
0000
0000
,
0000
1000
0000
0001
,
0000
1000
1000
1000
,
0000
0001
0000
1000
,
0000
0001
0001
0001
,
0000
0100
0000
0010
,
0000
0100
0100
0100
,
0000
0010
0010
0010
,
0000
0010
0000
0000
,
1000
0010
1000
0010
,
1000
0000
0100
0000
,
0010
0001
0010
0001
,
0100
0000
0100
0000
,
0100
0100
0000
0100
,
0100
0000
0000
0100
,
0100
0000
0010
0000
,
1000
0000
0001
0000
,
1001
0000
1000
0001
,
1000
0000
0001
1000
,
0001
0000
0010
0000
,
0010
0000
0000
0000
,
0100
0000
0100
0000
,
1000
0000
1000
0000
,
0010
0000
0010
0000
,
0100
0000
0100
0000
,
0001
0100
0001
0000
,
0100
0001
0100
0000
,
0001
0000
0100
0000
,
0010
0000
1000
0000
,
1001
0000
0000
1000
,
0001
0000
0000
0000
,
0010
0000
0000
0000
,
0010
0000
0010
0010
,
0010
0000
0100
0100
,
0100
0000
1000
0000
,
0001
0000
1000
1000
,
1000
0000
0010
0010
,
0010
0000
0100
0100
,
0100
0000
0001
0000
,
0100
0000
0010
0010
,
0020
0000
0000
0000
,
0200
0000
0000
0000
,
0000
0000
0330
0000
;

//---------------dance-single - ----------------
#NOTEDATA:;
#CHARTNAME:;
#CHARTHASH:616624662;
#STEPSTYPE:dance-single;
#BANNER:;
#DESCRIPTION:;
#CHARTSTYLE:;
#DIFFICULTY:Hard;
#METER:8;
#METERF:8.000000;
#LASTSECONDHINT:98.475998;
#RADARVALUES:0.392469,0.457056,0.088941,0.266822,0.093882,278.000000,269.000000,9.000000,27.000000,0.000000,0.000000,0.000000,0.000000,0.000000,0.392469,0.457056,0.088941,0.266822,0.093882,278.000000,269.000000,9.000000,27.000000,0.000000,0.000000,0.000000,0.000000,0.000000;
#CREDIT:chewi;
#NOTES:
// measure 0
0000
0000
0000
0000
,  // measure 1
0000
0000
0000
0000
,  // measure 2
0000
0000
1000
0001
,  // measure 3
1000
0010
0100
0100
0001
0100
0010
0010
,  // measure 4
1000
0010
0100
0100
0001
0100
0010
0010
,  // measure 5
1000
0000
0000
0000
1000
0010
0100
0000
0020
0000
0030
0000
1000
0100
0010
0000
,  // measure 6
0200
0000
0300
0000
1000
0010
0100
0000
0010
0000
1000
0000
1100
0000
0110
0000
,  // measure 7
0001
0000
0000
0000
0001
0100
0010
0000
0200
0000
0300
0000
0001
0010
0100
0000
,  // measure 8
0020
0000
0030
0000
0001
0100
0010
0000
0100
0000
0001
0000
0011
0000
1001
0000
,  // measure 9
1000
0000
0000
0000
0010
0100
0001
0000
0200
0000
0300
0000
0010
1000
0100
0000
,  // measure 10
0020
0000
0030
0000
0001
1000
0001
0000
1000
0000
0001
0000
0100
0000
0010
0000
,  // measure 11
0000
0000
0100
0001
0100
0001
0100
0000
0100
0000
0010
0000
1000
0000
1000
0000
,  // measure 12
0001
0000
1000
0000
1000
0000
1000
0000
0000
0000
0000
0000
0001
1000
0001
1000
,  // measure 13
0001
0010
1000
0001
0100
1000
0010
0100
,  // measure 14
0002
0000
0003
0100
0200
0000
0310
1000
,  // measure 15
0001
0010
1000
0001
0100
1000
0010
0100
,  // measure 16
0001
1000
0001
1000
1000
0001
0001
1000
,  // measure 17
0010
0100
0001
0001
0000
0100
0010
1000
,  // measure 18
0010
0010
0010
0010
0000
0000
1000
0100
,  // measure 19
0020
0032
0203
2300
,  // measure 20
3020
2030
3200
0302
,  // measure 21
0023
0000
0000
0000
1030
1000
0001
0001
,  // measure 22
0020
0000
0030
0000
0100
1000
0010
0100
,  // measure 23
0001
0010
1000
0001
0100
1000
0001
0100
,  // measure 24
1000
0100
0001
1000
0001
1000
0100
0010
,  // measure 25
0100
0000
0000
0000
1000
0000
0000
1000
0010
0000
0000
0000
0100
0000
0000
0000
,  // measure 26
0001
0100
0010
1000
,  // measure 27
0001
1000
1000
0001
0010
0010
0100
1000
,  // measure 28
0010
0000
0000
0010
1000
0000
0100
0000
0010
0000
0001
0000
0100
0000
0001
0000
,  // measure 29
0001
0000
0100
0000
0001
0000
0010
0010
,  // measure 30
0100
0000
0000
0000
1000
0000
0000
0000
0010
0000
0000
1000
0000
0000
1000
0000
,  // measure 31
0001
1000
1000
0001
0010
0010
0100
1000
,  // measure 32
0010
0000
0000
0010
0100
0000
0001
0000
0010
0000
0100
0000
0010
0000
0001
0000
,  // measure 33
0020
0000
0000
0230
,  // measure 34
2300
0000
0001
0001
,  // measure 35
0002
0000
0000
0000
,  // measure 36
3003
0000
0000
0000
0001
0001
1000
1000
,  // measure 37
0200
0000
0010
0000
0310
0001
0100
0010
,  // measure 38
1010
1000
0100
0001
1010
0010
0001
1000
,  // measure 39
0010
0000
0000
0010
0100
0000
0000
0000
0001
0000
0001
0000
0001
0000
0001
0000
,  // measure 40
1001
0000
0000
0000
1000
1000
0001
0001
,  // measure 41
0020
0000
0100
0000
0130
1000
0010
0100
,  // measure 42
0101
0001
0010
1000
1010
0100
1000
0001
,  // measure 43
0100
0000
0000
0100
0010
0000
0000
0000
1000
0000
0001
0000
1000
0000
0002
0000
,  // measure 44
2000
0000
0000
0003
,  // measure 45
0200
0000
0000
0000
,  // measure 46
0000
3300
0000
0000
;

//---------------dance-single - ----------------
#NOTEDATA:;
#CHARTNAME:;
#CHARTHASH:3212680707;
#STEPSTYPE:dance-single;
#BANNER:;
#DESCRIPTION:;
#CHARTSTYLE:;
#DIFFICULTY:Medium;
#METER:5;
#METERF:5.000000;
#RADARVALUES:0.213175,0.252740,0.098823,0.059294,0.000000,151.000000,141.000000,10.000000,6.000000,0.000000,0.000000,0.000000,0.000000,0.000000,0.213175,0.252740,0.098823,0.059294,0.000000,151.000000,141.000000,10.000000,6.000000,0.000000,0.000000,0.000000,0.000000,0.000000;
#CREDIT:chewi;
#NOTES:
// measure 0
0000
0000
0000
0000
,  // measure 1
0000
0000
0000
0000
,  // measure 2
0000
0000
0000
0000
,  // measure 3
0000
0000
0000
0000
,  // measure 4
0000
0000
0000
0000
,  // measure 5
1000
0100
0001
0100
,  // measure 6
1000
0010
0001
0010
,  // measure 7
1000
0100
0001
0100
,  // measure 8
1000
0010
0001
0010
,  // measure 9
1000
0010
0100
0100
,  // measure 10
0001
0010
0100
0100
,  // measure 11
1000
0000
0001
0000
1000
0001
1000
0000
,  // measure 12
1001
0000
0000
0000
0000
0000
0001
0001
,  // measure 13
0001
0100
0010
0100
,  // measure 14
0001
0000
0000
0100
0100
0000
0001
0000
,  // measure 15
0010
0100
1000
0010
,  // measure 16
1000
0000
0000
0100
0100
0000
1000
0000
,  // measure 17
0010
0000
0010
0000
0000
0000
0100
0010
,  // measure 18
0100
0000
0000
0100
,  // measure 19
0001
0010
1000
0100
,  // measure 20
0001
0010
1000
0010
,  // measure 21
0010
0000
0010
1000
,  // measure 22
0100
0000
0010
0001
,  // measure 23
0100
0100
0010
0010
,  // measure 24
1000
1000
0001
0001
,  // measure 25
1000
0100
0010
0001
,  // measure 26
0001
1000
0010
0100
,  // measure 27
0001
0100
0010
1000
,  // measure 28
0001
0000
1000
0000
0001
1000
0001
0000
,  // measure 29
2000
0100
0010
3100
,  // measure 30
0200
0010
1000
0310
,  // measure 31
0010
0001
0100
0010
,  // measure 32
1000
0100
0010
0001
,  // measure 33
1001
0000
0000
1000
,  // measure 34
0001
0000
0100
0100
,  // measure 35
0200
0000
0000
0000
,  // measure 36
0300
0000
0010
0010
,  // measure 37
0010
0000
1000
0001
,  // measure 38
1001
0000
1100
0000
,  // measure 39
0110
0000
0000
0000
0010
0100
0010
0100
,  // measure 40
0200
0000
0000
0000
0310
0000
0010
0010
,  // measure 41
0010
0000
0001
0001
,  // measure 42
1001
0000
0101
0000
,  // measure 43
1001
0000
1010
1010
,  // measure 44
0020
0000
0000
0000
,  // measure 45
0200
0000
0000
0000
,  // measure 46
0000
0000
0330
0000
;
