#VERSION:0.83;
#TITLE:ABOUT DAMN TIME;
#SUBTITLE:(PURPLE DISCO MACHINE REMIX);
#ARTIST:LIZZO;
#TITLETRANSLIT:;
#SUBTITLETRANSLIT:;
#ARTISTTRANSLIT:;
#GENRE:Pop;
#ORIGIN:;
#TAGS:;
#CREDIT:;
#BANNER:ABOUT DAMN TIME (PURPLE DISCO MACHINE REMIX).png;
#BACKGROUND:ABOUT DAMN TIME (PURPLE DISCO MACHINE REMIX)-bg.png;
#PREVIEWVID:;
#JACKET:ABOUT DAMN TIME (PURPLE DISCO MACHINE REMIX)-jacket.png;
#CDIMAGE:;
#DISCIMAGE:;
#LYRICSPATH:;
#CDTITLE:cdtitle.png;
#MUSIC:ABOUT DAMN TIME (PURPLE DISCO MACHINE REMIX).ogg;
#OFFSET:0.000000;
#SAMPLESTART:98.823997;
#SAMPLELENGTH:12.000000;
#SELECTABLE:YES;
#BPMS:0.000000=119.000000
;
#STOPS:;
#DELAYS:;
#WARPS:;
#TIMESIGNATURES:0.000000=4=4
;
#TICKCOUNTS:0.000000=4
;
#COMBOS:0.000000=1
;
#SPEEDS:0.000000=1.000000=0.000000=0
;
#SCROLLS:0.000000=1.000000
;
#FAKES:;
#LABELS:0.000000=Song Start
;
#BGCHANGES:0.000=ABOUT DAMN TIME (PURPLE DISCO MACHINE REMIX).mp4=1.000=1=0=1===CrossFade==,
244.000=ABOUT DAMN TIME (PURPLE DISCO MACHINE REMIX)-bg.png=1.000=1=0=1===CrossFade==,
99999=-nosongbg-=1.000=0=0=0 // don't automatically add -songbackground-
;
#KEYSOUNDS:;
#ATTACKS:
;

//---------------dance-single - ----------------
#NOTEDATA:;
#CHARTNAME:;
#CHARTHASH:2489551684;
#STEPSTYPE:dance-single;
#BANNER:;
#DESCRIPTION:;
#CHARTSTYLE:;
#DIFFICULTY:Beginner;
#METER:1;
#METERF:0.000000;
#LASTSECONDHINT:123.025208;
#RADARVALUES:0.104217,0.139064,0.068392,0.091190,0.000000,96.000000,87.000000,9.000000,12.000000,0.000000,0.000000,0.000000,0.000000,0.000000,0.104217,0.139064,0.068392,0.091190,0.000000,96.000000,87.000000,9.000000,12.000000,0.000000,0.000000,0.000000,0.000000,0.000000;
#CREDIT:;
#NOTES:
// measure 0
0000
0000
0000
0000
,  // measure 1
0000
0000
0000
0000
,  // measure 2
0000
0000
0000
0000
,  // measure 3
1000
0000
0000
0000
,  // measure 4
0001
0000
0000
0000
,  // measure 5
1001
0000
0000
0000
,  // measure 6
1000
1000
0000
0000
,  // measure 7
1001
0000
0000
0000
,  // measure 8
0001
0001
0000
0000
,  // measure 9
0100
0000
0100
0000
,  // measure 10
0010
0000
0010
0000
,  // measure 11
0100
0000
0100
0000
,  // measure 12
0001
0000
0001
0000
,  // measure 13
2000
0000
0000
3000
,  // measure 14
1000
0000
0000
0000
,  // measure 15
0002
0000
0000
0003
,  // measure 16
0001
0000
0000
0000
,  // measure 17
0020
0000
0000
0030
,  // measure 18
0010
0000
0000
0000
,  // measure 19
0200
0000
0000
0300
,  // measure 20
0100
0000
0000
0000
,  // measure 21
1000
0000
1000
0000
,  // measure 22
1000
0000
1000
0000
,  // measure 23
0010
0000
0100
0000
,  // measure 24
0010
0000
0100
0000
,  // measure 25
0001
0000
0001
0000
,  // measure 26
0001
0000
0001
0000
,  // measure 27
0010
0000
0010
0000
,  // measure 28
0100
0000
0100
0000
,  // measure 29
1000
0000
1000
0000
,  // measure 30
0001
0000
0001
0000
,  // measure 31
1001
0000
0000
0000
,  // measure 32
0110
0000
0000
0000
,  // measure 33
2000
0000
0000
3000
,  // measure 34
1000
0000
1000
0000
,  // measure 35
0020
0000
0000
0030
,  // measure 36
0010
0000
0010
0000
,  // measure 37
0002
0000
0000
0003
,  // measure 38
0001
0000
0001
0000
,  // measure 39
0200
0000
0000
0300
,  // measure 40
0100
0000
0100
0000
,  // measure 41
2000
0000
0000
3000
,  // measure 42
1000
0000
0000
0000
,  // measure 43
0002
0000
0000
0003
,  // measure 44
0001
0000
0000
0000
,  // measure 45
0020
0000
0000
0030
,  // measure 46
0010
0000
0000
0000
,  // measure 47
0200
0000
0000
0300
,  // measure 48
0100
0000
0000
0000
,  // measure 49
0100
0000
0100
0000
,  // measure 50
0010
0000
0010
0000
,  // measure 51
1000
0000
0001
0000
,  // measure 52
1000
0000
0001
0000
,  // measure 53
1001
0000
0000
0000
,  // measure 54
0110
0000
0000
0000
,  // measure 55
0010
0000
0100
0000
,  // measure 56
0001
0000
1000
0000
,  // measure 57
0010
0000
0100
0000
,  // measure 58
0010
0000
1000
0000
,  // measure 59
1001
0000
0000
0000
,  // measure 60
0110
0000
0000
0000
,  // measure 61
1001
0000
0000
0000
;

//---------------dance-single - ----------------
#NOTEDATA:;
#CHARTNAME:;
#CHARTHASH:4251091782;
#STEPSTYPE:dance-single;
#BANNER:;
#DESCRIPTION:;
#CHARTSTYLE:;
#DIFFICULTY:Easy;
#METER:4;
#METERF:0.000000;
#LASTSECONDHINT:123.025208;
#RADARVALUES:0.193235,0.231773,0.000000,0.129185,0.000000,178.000000,178.000000,0.000000,17.000000,0.000000,0.000000,0.000000,0.000000,0.000000,0.193235,0.231773,0.000000,0.129185,0.000000,178.000000,178.000000,0.000000,17.000000,0.000000,0.000000,0.000000,0.000000,0.000000;
#CREDIT:;
#NOTES:
// measure 0
0000
0000
0000
0000
,  // measure 1
0000
0000
0000
0000
,  // measure 2
0000
0000
0000
0000
,  // measure 3
0000
0000
0000
0000
,  // measure 4
0000
0000
0000
0000
,  // measure 5
1000
0010
1000
0000
,  // measure 6
0001
0001
0000
0000
,  // measure 7
0001
0010
0001
0000
,  // measure 8
1000
1000
0000
0000
,  // measure 9
1000
0010
0200
0300
,  // measure 10
0001
0100
0020
0030
,  // measure 11
1000
0001
2000
3000
,  // measure 12
0002
0003
0002
0003
,  // measure 13
2000
0010
0000
3010
,  // measure 14
2000
0100
0000
3100
,  // measure 15
0200
0010
0000
0310
,  // measure 16
0200
1000
0000
1300
,  // measure 17
0020
1000
0000
1030
,  // measure 18
0002
0100
0000
0103
,  // measure 19
0100
0100
0010
0010
,  // measure 20
0100
0010
0100
0100
,  // measure 21
0001
0010
0010
0000
,  // measure 22
1000
0100
0100
0000
,  // measure 23
1000
0010
0010
0000
,  // measure 24
0100
0001
0001
1000
,  // measure 25
0001
0000
0000
0001
,  // measure 26
1000
0000
0000
0000
1000
1000
1000
0000
,  // measure 27
1000
1000
0001
0000
,  // measure 28
0001
0001
1000
0000
,  // measure 29
0010
0010
0100
0000
,  // measure 30
0100
0100
0010
0100
,  // measure 31
0010
0000
0000
0010
,  // measure 32
0100
0000
0000
0000
0100
0100
0100
0000
,  // measure 33
1000
0100
0001
0100
,  // measure 34
1000
0100
0001
0100
,  // measure 35
1000
0010
0001
0010
,  // measure 36
1000
0010
0001
0010
,  // measure 37
1000
1000
1000
0000
,  // measure 38
0001
0001
0001
0000
,  // measure 39
0100
0010
0010
0100
,  // measure 40
0001
0000
0001
0000
,  // measure 41
2000
0010
0000
3010
,  // measure 42
2000
0100
0000
3100
,  // measure 43
0200
0010
0000
0310
,  // measure 44
0200
1000
0000
1300
,  // measure 45
0020
1000
0000
1030
,  // measure 46
0002
0100
0000
0103
,  // measure 47
0100
0100
0010
0010
,  // measure 48
0100
0010
0100
0100
,  // measure 49
0001
0010
0010
0000
,  // measure 50
1000
0100
0100
0000
,  // measure 51
1000
0010
0010
0000
,  // measure 52
0100
0001
0001
1000
,  // measure 53
0001
0000
0000
0001
,  // measure 54
1000
0000
0000
0000
1000
1000
1000
0000
,  // measure 55
1000
1000
0001
0000
,  // measure 56
0001
0001
1000
0000
,  // measure 57
0010
0010
0100
0000
,  // measure 58
0100
0100
0010
0100
,  // measure 59
0010
0000
0000
0010
,  // measure 60
0100
0000
0000
0000
0100
0100
0100
0000
,  // measure 61
0100
0000
0000
0000
;

//---------------dance-single - ----------------
#NOTEDATA:;
#CHARTNAME:;
#CHARTHASH:4138531633;
#STEPSTYPE:dance-single;
#BANNER:;
#DESCRIPTION:;
#CHARTSTYLE:;
#DIFFICULTY:Medium;
#METER:5;
#METERF:0.000000;
#LASTSECONDHINT:122.521004;
#RADARVALUES:0.278997,0.323153,0.113987,0.121586,0.045595,257.000000,242.000000,15.000000,16.000000,0.000000,0.000000,0.000000,0.000000,0.000000,0.278997,0.323153,0.113987,0.121586,0.045595,257.000000,242.000000,15.000000,16.000000,0.000000,0.000000,0.000000,0.000000,0.000000;
#CREDIT:;
#NOTES:
// measure 0
0000
0000
0000
0000
,  // measure 1
0000
0000
0000
0000
,  // measure 2
0000
0000
0000
0000
,  // measure 3
1000
0000
1000
0000
,  // measure 4
1000
0100
0001
0010
,  // measure 5
1000
0100
1000
0000
,  // measure 6
0001
0011
0000
0000
,  // measure 7
1000
0010
1000
0000
,  // measure 8
0010
0000
0101
0000
0001
0001
0001
0000
,  // measure 9
1000
0000
0100
0000
0010
0010
0000
0000
,  // measure 10
0010
0000
0100
0000
1000
1000
0000
0000
,  // measure 11
0001
0000
1000
0000
0100
0100
0000
0000
,  // measure 12
0100
0100
0000
0000
1000
0001
1000
0000
,  // measure 13
0000
0000
1000
0000
0000
1000
0000
0000
1000
0000
0000
0000
0000
0000
0000
0000
,  // measure 14
0000
0000
0010
0000
0000
0010
0000
0000
0010
0000
0000
0000
0000
0000
0000
0000
,  // measure 15
0000
0000
0100
0000
0000
0100
0000
0000
0100
0000
0000
0000
0000
0000
0000
0000
,  // measure 16
0000
0000
0001
0000
0000
0001
0000
0000
0001
0000
0000
0000
0000
0000
0000
0000
,  // measure 17
0000
0000
1000
0000
0000
1000
0000
0000
1000
0000
0000
0000
0000
0000
0000
0000
,  // measure 18
0000
0000
0100
0000
0000
0100
0000
0000
0100
0000
0000
0000
0000
0000
0000
0000
,  // measure 19
0010
0001
0010
0001
,  // measure 20
0100
0000
0001
0000
0100
0100
0100
0000
,  // measure 21
0002
0023
0230
0320
,  // measure 22
0031
1000
0001
0000
1000
0001
1000
0000
,  // measure 23
2000
3020
0230
0320
,  // measure 24
1030
0001
1000
0000
0001
1000
0001
0000
,  // measure 25
1001
1000
1001
0100
,  // measure 26
0110
0000
0000
0000
0010
0100
0001
0000
,  // measure 27
1000
0000
0010
0000
0100
0010
1000
0000
,  // measure 28
0010
0000
0100
0000
0001
0010
0001
0010
,  // measure 29
0001
0000
0010
0000
0100
1000
0010
0000
,  // measure 30
1000
0000
0100
0000
1000
0100
1000
0100
,  // measure 31
1000
0100
1100
0000
,  // measure 32
0001
0000
0100
0000
0101
0001
0001
0000
,  // measure 33
0001
0100
0010
0001
,  // measure 34
0100
0000
0010
0000
0010
0010
0010
0000
,  // measure 35
0001
0100
1000
0010
,  // measure 36
0001
0000
0100
0000
1000
1000
1000
0000
,  // measure 37
0010
0000
0100
0000
0001
1000
0001
0000
,  // measure 38
0010
0000
0100
0000
1000
0001
1000
0000
,  // measure 39
1000
1010
0001
0101
,  // measure 40
1001
0000
0000
0000
1000
0001
1000
0000
,  // measure 41
0000
0000
0001
0000
0000
0001
0000
0000
0001
0000
0000
0000
0000
0000
0000
0000
,  // measure 42
0000
0000
0100
0000
0000
0100
0000
0000
0100
0000
0000
0000
0000
0000
0000
0000
,  // measure 43
0000
0000
0010
0000
0000
0010
0000
0000
0010
0000
0000
0000
0000
0000
0000
0000
,  // measure 44
0000
0000
1000
0000
0000
1000
0000
0000
1000
0000
0000
0000
0000
0000
0000
0000
,  // measure 45
0000
0000
0001
0000
0000
0001
0000
0000
0001
0000
0000
0000
0000
0000
0000
0000
,  // measure 46
0000
0000
0010
0000
0000
0010
0000
0000
0010
0000
0000
0000
0000
0000
0000
0000
,  // measure 47
0100
1000
0100
1000
,  // measure 48
0010
0000
1000
0000
0010
0010
0010
0000
,  // measure 49
2000
3200
0320
0230
,  // measure 50
1300
0001
1000
0000
0001
1000
0001
0000
,  // measure 51
0002
0203
0320
0230
,  // measure 52
0301
1000
0001
0000
1000
0001
1000
0000
,  // measure 53
1001
0001
1001
0010
,  // measure 54
0110
0000
0000
0000
0100
0010
0001
0000
,  // measure 55
1000
0000
0100
0000
0001
0100
0010
0000
,  // measure 56
0100
0000
0010
0000
1000
0100
1000
0100
,  // measure 57
1000
0000
0100
0000
0010
0001
0100
0000
,  // measure 58
0001
0000
0010
0000
0001
0010
0001
0010
,  // measure 59
0001
0010
0011
0000
,  // measure 60
1000
0000
0010
0000
1010
1000
1000
0000
;

//---------------dance-single - ----------------
#NOTEDATA:;
#CHARTNAME:;
#CHARTHASH:1776369982;
#STEPSTYPE:dance-single;
#BANNER:;
#DESCRIPTION:;
#CHARTSTYLE:;
#DIFFICULTY:Hard;
#METER:8;
#METERF:0.000000;
#LASTSECONDHINT:122.521004;
#RADARVALUES:0.451605,0.461647,0.395155,0.000000,0.144383,416.000000,364.000000,52.000000,0.000000,0.000000,0.000000,0.000000,0.000000,0.000000,0.451605,0.461647,0.395155,0.000000,0.144383,416.000000,364.000000,52.000000,0.000000,0.000000,0.000000,0.000000,0.000000,0.000000;
#CREDIT:;
#NOTES:
// measure 0
0000
0000
0000
0000
,  // measure 1
0000
0000
0000
0000
,  // measure 2
0000
0000
0000
0000
,  // measure 3
1100
0000
0101
0000
,  // measure 4
1100
0000
0101
0000
1100
0000
0101
0100
,  // measure 5
0100
0000
0000
0100
0000
0000
0010
0000
0010
0000
0000
0000
1000
0000
0001
0000
,  // measure 6
0010
0001
0000
0000
0010
0001
0000
0000
1000
0000
0100
0000
1100
0000
0100
0000
,  // measure 7
1000
0000
0000
0010
0000
0000
0100
0000
0001
0000
0000
0000
0100
0000
0010
0000
,  // measure 8
1000
0100
0000
0000
1000
0100
0000
0000
0010
0000
0100
0000
0110
0000
0000
0000
,  // measure 9
0010
0001
0100
0001
0100
0100
0000
0000
,  // measure 10
0100
0010
1000
0100
1000
1000
0000
0000
,  // measure 11
0100
0010
0001
1000
0001
0001
0000
0001
,  // measure 12
1000
0000
1000
0000
0000
0000
0001
1000
0001
0000
1000
0000
1001
0000
0000
0000
,  // measure 13
1000
0000
1000
0000
0000
1000
0000
0000
1000
0000
0000
1000
0000
0000
0000
0000
,  // measure 14
0010
0000
0010
0000
0000
0010
0000
0000
0010
0000
0000
0010
0000
0000
0000
0000
,  // measure 15
0100
0000
0100
0000
0000
0100
0000
0000
0100
0000
0000
0100
0000
0000
0000
0000
,  // measure 16
0001
0000
0001
0000
0000
0001
0000
0000
0001
0000
0000
0001
0000
0000
0000
0000
,  // measure 17
1000
0000
1000
0000
0000
1000
0000
0000
1000
0000
0000
1000
0000
0000
0000
0000
,  // measure 18
0100
0000
0100
0000
0000
0100
0000
0000
0100
0000
0000
0100
0000
0000
0000
0000
,  // measure 19
0010
0001
0100
0000
0010
1000
0100
0000
,  // measure 20
0100
0000
0010
0000
0001
0000
1000
0000
0001
1000
0001
1000
0001
0000
1000
0000
,  // measure 21
1001
0100
0010
1000
0010
0100
0001
0010
,  // measure 22
0001
0000
1000
0000
0010
0000
0100
0000
0001
0000
0100
0000
0010
0000
1000
0001
,  // measure 23
0100
0010
0100
0001
0010
0100
1000
0100
,  // measure 24
1000
0010
0100
0001
1000
0100
0011
0000
,  // measure 25
0101
1010
1100
1001
,  // measure 26
0110
0000
0000
0000
0110
0110
1001
0000
,  // measure 27
0110
0001
1000
0100
1000
0001
0010
0001
,  // measure 28
0010
0000
0100
0000
1000
0000
0001
0000
0010
0000
0001
0000
1000
0000
0100
0010
,  // measure 29
0001
1000
0001
0010
0001
1000
0100
1000
,  // measure 30
0100
1000
0001
0010
0100
1000
1010
0000
,  // measure 31
0011
1100
0101
0110
,  // measure 32
1001
0000
0000
0000
1001
1001
0110
0000
,  // measure 33
0100
0001
0010
0001
0100
0001
0010
0001
,  // measure 34
0100
0001
0010
0001
0100
0100
0100
0000
,  // measure 35
0100
0010
1000
0100
1000
0010
1000
0100
,  // measure 36
1000
0010
1000
0100
1000
1000
1000
0000
,  // measure 37
1000
0001
1001
0000
0001
1000
1001
0000
,  // measure 38
0100
0010
1000
0001
0010
0100
1000
0000
,  // measure 39
1000
0010
0010
0000
1000
0100
0100
0000
,  // measure 40
0110
0000
0000
0000
0100
0100
0100
0000
,  // measure 41
0001
0000
0001
0000
0000
0001
0000
0000
0001
0000
0000
0001
0000
0000
0000
0000
,  // measure 42
0100
0000
0100
0000
0000
0100
0000
0000
0100
0000
0000
0100
0000
0000
0000
0000
,  // measure 43
0010
0000
0010
0000
0000
0010
0000
0000
0010
0000
0000
0010
0000
0000
0000
0000
,  // measure 44
1000
0000
1000
0000
0000
1000
0000
0000
1000
0000
0000
1000
0000
0000
0000
0000
,  // measure 45
0001
0000
0001
0000
0000
0001
0000
0000
0001
0000
0000
0001
0000
0000
0000
0000
,  // measure 46
0010
0000
0010
0000
0000
0010
0000
0000
0010
0000
0000
0010
0000
0000
0000
0000
,  // measure 47
0100
1000
0010
0000
0100
0001
0010
0000
,  // measure 48
0010
0000
0100
0000
1000
0000
0001
0000
1000
0000
1000
0000
1000
0001
1000
0000
,  // measure 49
1001
0010
0100
0001
0100
0010
1000
0100
,  // measure 50
1000
0000
0001
0000
0100
0000
0010
0000
1000
0000
0010
0000
0100
0000
0001
1000
,  // measure 51
0010
0100
0010
1000
0100
0010
0001
0010
,  // measure 52
0001
0100
0010
1000
0001
0010
1100
0000
,  // measure 53
1010
0101
0011
1001
,  // measure 54
0110
0000
0000
0000
0110
0110
1001
0000
,  // measure 55
0110
1000
0001
0010
0001
1000
0100
1000
,  // measure 56
0100
0000
0010
0000
0001
0000
1000
0000
0100
0000
1000
0000
0001
0000
0010
0100
,  // measure 57
1000
0001
1000
0100
1000
0001
0010
0001
,  // measure 58
0010
0001
1000
0100
0010
0001
0101
0000
,  // measure 59
1100
0011
1010
0110
,  // measure 60
1001
0000
0000
0000
1001
1001
0110
0000
;
