#VERSION:0.83;
#TITLE:A Little Bit Of Ecstasy;
#SUBTITLE:(Cibola Mix);
#ARTIST:Jocelyn Enriquez;
#TITLETRANSLIT:;
#SUBTITLETRANSLIT:;
#ARTISTTRANSLIT:;
#GENRE:Euro House;
#ORIGIN:;
#TAGS:;
#CREDIT:chewi;
#BANNER:A Little Bit Of Ecstasy (Cibola Mix).png;
#BACKGROUND:A Little Bit Of Ecstasy (Cibola Mix)-bg.png;
#PREVIEWVID:;
#JACKET:A Little Bit Of Ecstasy (Cibola Mix)-jacket.png;
#CDIMAGE:;
#DISCIMAGE:;
#LYRICSPATH:;
#CDTITLE:cdtitle.png;
#MUSIC:A Little Bit Of Ecstasy (Cibola Mix).ogg;
#OFFSET:1.762000;
#SAMPLESTART:21.959999;
#SAMPLELENGTH:12.000000;
#SELECTABLE:YES;
#BPMS:0.000000=131.524002
;
#STOPS:;
#DELAYS:;
#WARPS:;
#TIMESIGNATURES:0.000000=4=4
;
#TICKCOUNTS:0.000000=4
;
#COMBOS:0.000000=1
;
#SPEEDS:0.000000=1.000000=0.000000=0
;
#SCROLLS:0.000000=1.000000
;
#FAKES:;
#LABELS:0.000000=Song Start
;
#BGCHANGES:4.000=A Little Bit Of Ecstasy (Cibola Mix).mp4=1.000=1=0=1===CrossFade==,
212.000=A Little Bit Of Ecstasy (Cibola Mix)-bg.png=1.000=1=0=1===CrossFade==,
99999=-nosongbg-=1.000=0=0=0 // don't automatically add -songbackground-
;
#KEYSOUNDS:;
#ATTACKS:
;

//---------------dance-single - chewi----------------
#NOTEDATA:;
#CHARTNAME:chewi;
#CHARTHASH:3359732986;
#STEPSTYPE:dance-single;
#BANNER:;
#DESCRIPTION:chewi;
#CHARTSTYLE:;
#DIFFICULTY:Beginner;
#METER:1;
#METERF:0.000000;
#LASTSECONDHINT:94.950386;
#RADARVALUES:0.098040,0.135719,0.061458,0.000000,0.000000,67.000000,61.000000,6.000000,0.000000,0.000000,0.000000,0.000000,0.000000,0.000000,0.098040,0.135719,0.061458,0.000000,0.000000,67.000000,61.000000,6.000000,0.000000,0.000000,0.000000,0.000000,0.000000,0.000000;
#CREDIT:chewi;
#NOTES:
// measure 0
0000
0000
0000
0000
,  // measure 1
0000
0000
0000
0000
,  // measure 2
0000
0000
0000
0000
,  // measure 3
0000
0000
0000
0000
,  // measure 4
0000
0000
0000
0000
,  // measure 5
0000
0010
0000
0010
,  // measure 6
0000
0100
0000
0100
,  // measure 7
0000
0001
0000
0001
,  // measure 8
0000
1000
0000
1000
,  // measure 9
0000
0001
0000
0001
,  // measure 10
0000
0010
0000
0010
,  // measure 11
0000
0100
0000
0100
,  // measure 12
0000
1000
0000
1000
,  // measure 13
1000
0000
0000
0000
,  // measure 14
0001
0000
0000
0000
,  // measure 15
0100
0000
0000
0000
,  // measure 16
0010
0000
0000
0000
,  // measure 17
1000
0000
0000
0000
,  // measure 18
0001
0000
0000
0000
,  // measure 19
0010
0000
0000
0000
,  // measure 20
0100
0000
0000
0000
,  // measure 21
0100
0000
0100
0000
,  // measure 22
0100
0000
0000
0000
,  // measure 23
1000
0000
1000
0000
,  // measure 24
1000
0000
0000
0000
,  // measure 25
0001
0000
0001
0000
,  // measure 26
0001
0000
0000
0000
,  // measure 27
0010
0000
0010
0000
,  // measure 28
0010
0000
0000
0000
,  // measure 29
0010
0000
0000
0000
,  // measure 30
0010
0000
0000
0000
,  // measure 31
0100
0000
0000
0000
,  // measure 32
0100
0000
0000
0000
,  // measure 33
0001
0000
0000
0000
,  // measure 34
0001
0000
0000
0000
,  // measure 35
1000
0000
0000
0000
,  // measure 36
1000
0000
0000
0000
,  // measure 37
1001
0000
0000
0000
,  // measure 38
0100
0000
0000
0000
,  // measure 39
0010
0000
0000
0000
,  // measure 40
0010
0000
0000
0000
,  // measure 41
0001
0000
0000
0000
,  // measure 42
0001
0000
0000
0000
,  // measure 43
1000
0000
0000
0000
,  // measure 44
1000
0000
0000
0000
,  // measure 45
1001
0000
0000
0000
,  // measure 46
0100
0000
0000
0000
,  // measure 47
1001
0000
0000
0000
,  // measure 48
0010
0000
0000
0000
,  // measure 49
0110
0000
0000
0000
,  // measure 50
0001
0000
0000
0000
,  // measure 51
0110
0000
0000
0000
,  // measure 52
1000
0000
0000
0000
,  // measure 53
1001
0000
0000
0000
;

//---------------dance-single - chewi----------------
#NOTEDATA:;
#CHARTNAME:chewi;
#CHARTHASH:163045590;
#STEPSTYPE:dance-single;
#BANNER:;
#DESCRIPTION:chewi;
#CHARTSTYLE:;
#DIFFICULTY:Easy;
#METER:3;
#METERF:0.000000;
#LASTSECONDHINT:94.950386;
#RADARVALUES:0.172667,0.244295,0.020486,0.368747,0.000000,118.000000,116.000000,2.000000,36.000000,0.000000,0.000000,0.000000,0.000000,0.000000,0.172667,0.244295,0.020486,0.368747,0.000000,118.000000,116.000000,2.000000,36.000000,0.000000,0.000000,0.000000,0.000000,0.000000;
#CREDIT:chewi;
#NOTES:
// measure 0
0000
0000
0000
0000
,  // measure 1
0000
0000
0000
0000
,  // measure 2
0000
0000
0000
0000
,  // measure 3
0000
0000
0000
0000
,  // measure 4
0000
0000
0000
0000
,  // measure 5
2000
0000
3002
0000
,  // measure 6
1003
0001
0100
0000
,  // measure 7
0020
0000
0230
0000
,  // measure 8
0301
0010
0100
0000
,  // measure 9
2000
0000
3200
0000
,  // measure 10
0310
0100
1000
0000
,  // measure 11
0002
0000
2003
0000
,  // measure 12
3001
0001
0001
0001
,  // measure 13
0002
0000
2003
0000
,  // measure 14
3001
1000
0001
0000
,  // measure 15
0200
0000
0320
0000
,  // measure 16
0130
0010
0100
0000
,  // measure 17
0020
0000
2030
0000
,  // measure 18
3010
1000
0010
0000
,  // measure 19
0200
0000
0302
0000
,  // measure 20
0103
0100
0100
0100
,  // measure 21
0002
0003
0001
0000
,  // measure 22
0020
0030
0010
0000
,  // measure 23
2000
3000
1000
0000
,  // measure 24
0200
0300
0100
0000
,  // measure 25
0002
0003
0001
0000
,  // measure 26
2000
3000
1000
0000
,  // measure 27
0002
0003
2000
3000
,  // measure 28
0001
0001
0001
0001
,  // measure 29
0002
0000
0000
0003
,  // measure 30
0002
0000
0000
0003
,  // measure 31
1000
2000
0000
3000
,  // measure 32
1000
2000
0000
3000
,  // measure 33
0010
0100
0020
0030
,  // measure 34
0100
0010
0200
0300
,  // measure 35
0100
0010
0100
0010
,  // measure 36
1000
0001
1000
0001
,  // measure 37
2000
0000
0000
3000
,  // measure 38
2000
0000
0000
3000
,  // measure 39
0001
0002
0003
0000
,  // measure 40
0001
0002
0003
0000
,  // measure 41
0100
0010
0200
0300
,  // measure 42
0010
0100
0020
0030
,  // measure 43
0010
0100
0010
0100
,  // measure 44
0001
0001
0001
0001
,  // measure 45
0001
0000
0001
0000
,  // measure 46
1000
0000
1000
0000
,  // measure 47
0100
0000
0100
0000
,  // measure 48
0010
0000
0010
0000
,  // measure 49
0100
0000
0100
0000
,  // measure 50
0001
0000
0001
0000
,  // measure 51
1000
0000
1000
0000
,  // measure 52
1001
0000
0000
0000
,  // measure 53
0110
0000
0000
0000
;

//---------------dance-single - chewi----------------
#NOTEDATA:;
#CHARTNAME:chewi;
#CHARTHASH:2839029470;
#STEPSTYPE:dance-single;
#BANNER:;
#DESCRIPTION:chewi;
#CHARTSTYLE:;
#DIFFICULTY:Medium;
#METER:5;
#METERF:0.000000;
#LASTSECONDHINT:94.950386;
#RADARVALUES:0.299973,0.352870,0.071701,0.358504,0.143401,205.000000,198.000000,7.000000,35.000000,0.000000,0.000000,0.000000,0.000000,0.000000,0.299973,0.352870,0.071701,0.358504,0.143401,205.000000,198.000000,7.000000,35.000000,0.000000,0.000000,0.000000,0.000000,0.000000;
#CREDIT:chewi;
#NOTES:
// measure 0
0000
0000
0000
0000
,  // measure 1
0000
0000
0000
0000
,  // measure 2
0000
0000
0000
0000
,  // measure 3
0000
0000
0000
0000
,  // measure 4
0000
0000
0000
0000
,  // measure 5
0020
0000
0031
0100
,  // measure 6
2000
0000
0000
0000
3100
1000
0001
0000
,  // measure 7
2000
0000
3010
0100
,  // measure 8
0002
0000
0000
0000
1003
0001
1000
0000
,  // measure 9
0200
0000
1300
0010
,  // measure 10
0002
0000
0000
0000
0013
0001
1000
0000
,  // measure 11
0002
0000
0103
0010
,  // measure 12
1000
1000
0001
0001
,  // measure 13
1000
0000
0000
0010
0000
0000
0010
0000
1000
0000
0000
0000
0010
0000
0000
0000
,  // measure 14
0100
0000
0000
0001
0000
0000
0001
0000
0100
0000
0000
0000
0110
0000
0000
0000
,  // measure 15
0010
0000
0000
1000
0000
0000
0001
0000
1000
0000
0000
0000
0100
0000
0000
0000
,  // measure 16
0010
0000
0000
0001
0000
0000
0001
0000
0010
0000
0000
0000
0110
0000
0000
0000
,  // measure 17
0001
0000
0000
0100
0000
0000
0100
0000
0001
0000
0000
0000
0100
0000
0000
0000
,  // measure 18
0010
0000
0000
1000
0000
0000
1000
0000
0010
0000
0000
0000
0110
0000
0000
0000
,  // measure 19
0100
0000
0000
0001
0000
0000
1000
0000
0001
0000
0000
0000
0010
0000
0000
0000
,  // measure 20
0100
1000
0000
1000
0000
0001
0000
0001
,  // measure 21
0200
0320
2030
3002
,  // measure 22
0023
0230
2300
3200
,  // measure 23
2300
3020
0230
0302
,  // measure 24
2003
3020
2030
3200
,  // measure 25
0320
0230
0302
2003
,  // measure 26
3020
0230
2300
3002
,  // measure 27
0203
0320
2030
3002
,  // measure 28
1003
1000
0001
0001
,  // measure 29
1000
0000
0000
0001
0000
0000
0000
0000
0000
0000
1000
0000
0000
0000
0001
0000
,  // measure 30
1000
0000
0000
0001
0000
0000
0000
0000
0000
0000
0010
0000
0000
0000
0001
0000
,  // measure 31
1000
0000
0000
0001
0000
0000
0000
0000
0000
0000
0100
0000
0000
0000
0001
0000
,  // measure 32
0010
0000
0000
0100
0000
0000
0000
0000
0000
0000
0000
0000
0000
0000
0000
0000
,  // measure 33
0001
0000
0000
1000
0000
0000
0000
0000
0000
0000
0001
0000
0000
0000
1000
0000
,  // measure 34
0001
0000
0000
1000
0000
0000
0000
0000
0000
0000
0100
0000
0000
0000
1000
0000
,  // measure 35
0001
0000
0000
1000
0000
0000
0000
0000
0000
0000
0010
0000
0000
0000
1000
0000
,  // measure 36
0100
0000
0000
0010
0000
0000
0000
0000
0000
0000
0000
0000
0000
0000
0000
0000
,  // measure 37
0100
0000
0000
0010
0000
0000
0000
0000
0000
0000
0100
0000
0000
0000
0010
0000
,  // measure 38
0100
0000
0000
0010
0000
0000
0000
0000
0000
0000
0001
0000
0000
0000
0010
0000
,  // measure 39
0100
0000
0000
0010
0000
0000
0000
0000
0000
0000
0100
0000
0000
0000
1000
0000
,  // measure 40
0010
0000
0000
0100
0000
0000
0000
0000
0000
0000
0000
0000
0000
0000
0000
0000
,  // measure 41
0010
0000
0000
1000
0000
0000
0000
0000
0000
0000
0010
0000
0000
0000
0100
0000
,  // measure 42
0010
0000
0000
0100
0000
0000
0000
0000
0000
0000
0001
0000
0000
0000
0010
0000
,  // measure 43
0100
0000
0000
0010
0000
0000
0000
0000
0000
0000
0001
0000
0000
0000
1000
0000
,  // measure 44
1000
0100
0010
0001
,  // measure 45
0001
0000
0000
0100
0000
0000
0100
0000
0001
0000
0000
0000
0100
0000
0000
0000
,  // measure 46
0010
0000
0000
1000
0000
0000
1000
0000
0010
0000
0000
0000
0110
0000
0000
0000
,  // measure 47
0100
0000
0000
0001
0000
0000
1000
0000
0001
0000
0000
0000
0010
0000
0000
0000
,  // measure 48
0100
0000
0000
1000
0000
0000
1000
0000
0100
0000
0000
0000
0110
0000
0000
0000
,  // measure 49
1000
0000
0000
0010
0000
0000
0010
0000
1000
0000
0000
0000
0010
0000
0000
0000
,  // measure 50
0100
0000
0000
0001
0000
0000
0001
0000
0100
0000
0000
0000
0110
0000
0000
0000
,  // measure 51
0010
1000
0000
0100
0000
0010
0000
0100
,  // measure 52
0100
0100
0010
0010
,  // measure 53
1001
0000
0000
0000
;

//---------------dance-single - chewi----------------
#NOTEDATA:;
#CHARTNAME:chewi;
#CHARTHASH:2179296886;
#STEPSTYPE:dance-single;
#BANNER:;
#DESCRIPTION:chewi;
#CHARTSTYLE:;
#DIFFICULTY:Hard;
#METER:8;
#METERF:0.000000;
#LASTSECONDHINT:96.318954;
#RADARVALUES:0.396549,0.440447,0.122916,0.092187,0.189495,271.000000,259.000000,12.000000,9.000000,0.000000,0.000000,0.000000,0.000000,0.000000,0.396549,0.440447,0.122916,0.092187,0.189495,271.000000,259.000000,12.000000,9.000000,0.000000,0.000000,0.000000,0.000000,0.000000;
#CREDIT:chewi;
#NOTES:
// measure 0
0000
0000
0000
0000
,  // measure 1
0000
0000
0000
0000
,  // measure 2
0000
0000
0000
0000
,  // measure 3
0000
0000
0000
0000
,  // measure 4
0000
0000
0000
0000
,  // measure 5
0001
0000
1100
1000
0000
1000
0100
0010
,  // measure 6
0001
0000
1001
1000
0000
0001
0010
0100
,  // measure 7
0010
0000
1100
1000
0000
0001
0100
0001
,  // measure 8
1000
0000
1001
0001
0000
1000
0100
1000
,  // measure 9
1000
0000
0101
0001
0000
0001
0100
0010
,  // measure 10
1000
0000
1001
0001
0000
1000
0010
0100
,  // measure 11
0010
0000
0101
0001
0000
1000
0100
1000
,  // measure 12
0001
0010
0001
0010
0100
1000
0100
1000
,  // measure 13
1000
0000
0000
0001
0000
0000
0010
0000
0001
0000
0000
1000
0000
0000
0001
0000
,  // measure 14
0100
0000
0000
0001
0000
0000
0010
0000
1000
0000
0000
0000
0100
0000
0000
0000
,  // measure 15
1000
0000
0000
0001
0000
0000
0010
0000
0001
0000
0000
1000
0000
0000
0010
0000
,  // measure 16
0100
0000
0000
0001
0000
0000
0010
0000
0001
0000
0001
0000
1000
0000
0000
0000
,  // measure 17
0010
0000
0000
0100
0000
0000
0001
0000
0010
0000
0000
0001
0000
0000
1000
0000
,  // measure 18
0010
0000
0000
0100
0000
0000
0001
0000
0100
0000
0000
0000
0010
0000
0000
0000
,  // measure 19
1000
0000
0000
0100
0000
0000
0010
0000
0100
0000
0000
1000
0000
0000
0010
0000
,  // measure 20
0100
0001
0100
0001
1000
0001
1000
0001
,  // measure 21
2000
0000
3100
0000
0010
0001
0100
0000
,  // measure 22
0020
0000
1030
0000
0001
0100
0001
0100
,  // measure 23
0200
0000
0310
0000
0100
0001
0010
0000
,  // measure 24
0020
0000
0100
0000
1000
0000
0031
0001
,  // measure 25
0002
0000
0103
0000
0010
1000
0100
0000
,  // measure 26
0020
0000
0031
0000
1000
0100
1000
0100
,  // measure 27
0200
0000
0310
0000
0100
1000
0010
0000
,  // measure 28
0010
1000
0010
1000
0010
0100
0010
0100
,  // measure 29
1000
0000
0000
0001
0000
0000
0000
0000
0000
0000
1000
0000
0000
0000
0001
0000
,  // measure 30
1000
0000
0000
0001
0000
0000
0000
0000
0000
0000
0010
0000
0000
0000
0001
0000
,  // measure 31
1000
0000
0000
0001
0000
0000
0000
0000
0000
0000
0100
0000
0000
0000
0001
0000
,  // measure 32
0010
0000
0000
0100
0000
0000
0000
0000
0000
0000
1000
0000
0100
0000
0010
0000
,  // measure 33
0001
0000
0000
1000
0000
0000
0000
0000
0000
0000
0001
0000
0000
0000
1000
0000
,  // measure 34
0001
0000
0000
1000
0000
0000
0000
0000
0000
0000
0100
0000
0000
0000
1000
0000
,  // measure 35
0001
0000
0000
1000
0000
0000
0000
0000
0000
0000
0010
0000
0000
0000
1000
0000
,  // measure 36
0100
0000
0000
0010
0000
0000
0000
0000
0000
0000
0001
0000
0010
0000
0100
0000
,  // measure 37
0100
0000
0000
0010
0000
0000
0000
0000
0000
0000
0100
0000
0000
0000
0010
0000
,  // measure 38
0100
0000
0000
0010
0000
0000
0000
0000
0000
0000
0001
0000
0000
0000
0010
0000
,  // measure 39
0100
0000
0000
0010
0000
0000
0000
0000
0000
0000
0100
0000
0000
0000
1000
0000
,  // measure 40
0010
0000
0000
0100
0000
0000
0000
0000
0000
0000
0100
0000
0001
0000
1000
0000
,  // measure 41
0010
0000
0000
1000
0000
0000
0000
0000
0000
0000
0010
0000
0000
0000
0100
0000
,  // measure 42
0010
0000
0000
0100
0000
0000
0000
0000
0000
0000
0001
0000
0000
0000
0010
0000
,  // measure 43
0100
0000
0000
0010
0000
0000
0000
0000
0000
0000
0001
0000
0000
0000
1000
0000
,  // measure 44
1100
1010
1001
0101
,  // measure 45
0001
0000
0000
1000
0000
0000
0100
0000
1000
0000
0000
0001
0000
0000
1000
0000
,  // measure 46
0010
0000
0000
1000
0000
0000
0100
0000
0001
0000
0000
0000
0010
0000
0000
0000
,  // measure 47
0001
0000
0000
1000
0000
0000
0100
0000
1000
0000
0000
0001
0000
0000
0100
0000
,  // measure 48
0010
0000
0000
1000
0000
0000
0100
0000
1000
0000
0010
0000
1000
0000
0000
0000
,  // measure 49
0010
0000
0000
0100
0000
0000
1000
0000
0100
0000
0000
1000
0000
0000
0001
0000
,  // measure 50
0100
0000
0000
0010
0000
0000
1000
0000
0010
0000
0000
0000
1000
0000
0000
0000
,  // measure 51
1000
0000
0000
0010
0000
0000
0100
0000
0010
0000
0000
0001
0000
0000
0010
0000
,  // measure 52
0100
0100
0100
0100
0100
0100
0100
0100
,  // measure 53
2002
0000
0000
3003
;
