#VERSION:0.83;
#TITLE:can't stop the DISCO;
#SUBTITLE:;
#ARTIST:鈴木亜美;
#TITLETRANSLIT:;
#SUBTITLETRANSLIT:;
#ARTISTTRANSLIT:Ami Suzuki;
#GENRE:Electropop;
#ORIGIN:;
#TAGS:;
#CREDIT:chewi;
#BANNER:can't stop the DISCO.png;
#BACKGROUND:can't stop the DISCO-bg.png;
#PREVIEWVID:;
#JACKET:can't stop the DISCO-jacket.png;
#CDIMAGE:;
#DISCIMAGE:;
#LYRICSPATH:;
#CDTITLE:cdtitle.png;
#MUSIC:can't stop the DISCO.ogg;
#OFFSET:1.876000;
#SAMPLESTART:54.368999;
#SAMPLELENGTH:12.000000;
#SELECTABLE:YES;
#BPMS:0.000000=128.011993
;
#STOPS:;
#DELAYS:;
#WARPS:;
#TIMESIGNATURES:0.000000=4=4
;
#TICKCOUNTS:0.000000=4
;
#COMBOS:0.000000=1
;
#SPEEDS:0.000000=1.000000=0.000000=0
;
#SCROLLS:0.000000=1.000000
;
#FAKES:;
#LABELS:0.000000=Song Start
;
#BGCHANGES:4.000=can't stop the DISCO.mp4=1.000=1=0=1===CrossFade==,
232.000=can't stop the DISCO-bg.png=1.000=1=0=1===CrossFade==,
99999=-nosongbg-=1.000=0=0=0 // don't automatically add -songbackground-
;
#KEYSOUNDS:;
#ATTACKS:
;

//---------------dance-single - ----------------
#NOTEDATA:;
#CHARTNAME:;
#CHARTHASH:3131537592;
#STEPSTYPE:dance-single;
#BANNER:;
#DESCRIPTION:;
#CHARTSTYLE:;
#DIFFICULTY:Beginner;
#METER:1;
#METERF:0.000000;
#LASTSECONDHINT:106.863808;
#RADARVALUES:0.000000,0.000000,0.000000,0.000000,0.000000,0.000000,0.000000,0.000000,0.000000,0.000000,0.000000,0.000000,0.000000,0.000000,0.000000,0.000000,0.000000,0.000000,0.000000,0.000000,0.000000,0.000000,0.000000,0.000000,0.000000,0.000000,0.000000,0.000000;
#CREDIT:;
#NOTES:
0000
0000
0000
0000
,
0000
0000
0000
0000
,
0000
0000
0000
0000
,
0000
0000
0000
0000
,
0000
0000
0000
0000
,
0000
0000
0000
0000
,
1000
0000
0000
0000
,
0010
0000
0000
0000
,
0001
0000
0000
0000
,
0010
0000
0010
0000
,
1000
0000
0000
0000
,
0100
0000
0000
0000
,
0001
0000
0000
0000
,
0100
0000
0100
0000
,
0001
0000
0000
0000
,
0010
0000
0000
0000
,
1000
0000
0000
0000
,
0010
0000
0010
0000
,
0001
0000
0000
0000
,
0100
0000
0000
0000
,
1000
0000
0000
0000
,
0100
0000
0100
0000
,
2000
0000
0000
3000
,
1000
0000
0000
0000
,
0002
0000
0000
0003
,
0001
0000
0000
0000
,
0020
0000
0000
0030
,
0010
0000
0000
0000
,
0200
0000
0000
0300
,
0100
0000
0000
0000
,
0100
0000
0000
0000
,
0110
0000
0000
0000
,
0010
0000
0000
0000
,
0001
0000
0000
0000
,
1000
0000
0000
0000
,
1001
0000
0000
0000
,
0001
0000
0000
0000
,
1000
0000
0000
0000
,
0010
0000
0000
0000
,
0110
0000
0000
0000
,
0100
0000
0000
0000
,
1000
0000
1000
0000
,
1000
0000
0000
0000
,
0100
0000
0000
0000
,
0001
0000
0000
0000
,
0010
0000
0000
0000
,
1000
0000
0000
0000
,
0010
0000
0000
0000
,
0001
0000
0000
0000
,
0100
0000
0000
0000
,
2000
0000
0000
3000
,
1000
0000
0000
0000
,
0002
0000
0000
0003
,
0001
0000
0000
0000
,
0020
0000
0000
0030
,
0010
0000
0000
0000
,
0200
0000
0000
0300
,
0100
0000
0100
0000
,
0100
0000
0000
0000
;

//---------------dance-single - ----------------
#NOTEDATA:;
#CHARTNAME:;
#CHARTHASH:2833415125;
#STEPSTYPE:dance-single;
#BANNER:;
#DESCRIPTION:;
#CHARTSTYLE:;
#DIFFICULTY:Easy;
#METER:3;
#METERF:0.000000;
#LASTSECONDHINT:106.863808;
#RADARVALUES:0.000000,0.000000,0.000000,0.000000,0.000000,0.000000,0.000000,0.000000,0.000000,0.000000,0.000000,0.000000,0.000000,0.000000,0.000000,0.000000,0.000000,0.000000,0.000000,0.000000,0.000000,0.000000,0.000000,0.000000,0.000000,0.000000,0.000000,0.000000;
#CREDIT:;
#NOTES:
0000
0000
0000
0000
,
0000
0000
0000
0000
,
0000
0000
0000
0000
,
0000
0000
0000
0000
,
0000
0000
0000
0000
,
0000
0000
0000
0000
,
0001
1000
0001
0000
,
0010
0000
0100
0000
,
1000
0001
1000
0000
,
0001
0100
0001
0000
,
1000
0001
1000
0000
,
0010
0000
0100
0000
,
0001
1000
0001
0000
,
1000
0100
1000
0000
,
0100
0010
0100
0000
,
1000
0000
0001
0000
,
0010
0100
0010
0000
,
1000
0100
1000
0000
,
0010
0100
0010
0000
,
1000
0000
0001
0000
,
0100
0010
0100
0000
,
0001
0010
0100
1000
,
0020
1000
0000
1030
,
2000
0010
0000
3010
,
0020
0030
2000
3000
,
0002
0003
0020
0030
,
0200
1000
0000
1300
,
2000
0100
0000
3100
,
0200
0300
2000
3000
,
0002
0003
0200
0300
,
0100
0001
0100
0000
,
0001
0010
0001
0000
,
0010
1000
0010
0000
,
1000
0100
1000
0000
,
0100
0001
0100
0000
,
0001
0010
0001
0000
,
0010
1000
0010
0000
,
1000
0100
0001
0010
,
1000
0100
0001
0000
,
0001
0010
1000
0000
,
1000
0010
0001
0000
,
1000
0100
0001
0100
,
2000
0000
0000
3000
,
0200
0000
0000
0300
,
0020
0000
0000
0030
,
0002
0000
0000
0003
,
0200
0000
0000
0300
,
0020
0000
0000
0030
,
2000
0000
0000
3000
,
0002
0000
0000
0003
,
0001
0001
1001
0000
,
0010
0010
0110
0000
,
1000
1000
1001
0000
,
0100
0100
0110
0000
,
1000
1000
1001
0000
,
0100
0100
0110
0000
,
0001
0001
1001
0000
,
0010
0010
0110
0000
,
1001
0000
0000
0000
;

//---------------dance-single - ----------------
#NOTEDATA:;
#CHARTNAME:;
#CHARTHASH:2224835881;
#STEPSTYPE:dance-single;
#BANNER:;
#DESCRIPTION:;
#CHARTSTYLE:;
#DIFFICULTY:Medium;
#METER:5;
#METERF:0.000000;
#LASTSECONDHINT:106.863808;
#RADARVALUES:0.000000,0.000000,0.000000,0.000000,0.000000,0.000000,0.000000,0.000000,0.000000,0.000000,0.000000,0.000000,0.000000,0.000000,0.000000,0.000000,0.000000,0.000000,0.000000,0.000000,0.000000,0.000000,0.000000,0.000000,0.000000,0.000000,0.000000,0.000000;
#CREDIT:;
#NOTES:
0000
0000
0000
0000
,
0000
0000
0000
0000
,
0000
0000
0000
0000
,
0000
0000
0000
0000
,
0000
0000
0000
0000
,
0000
0000
0000
0000
,
0010
0000
0010
0000
0001
0100
0001
0000
,
0100
0000
0100
0000
0001
0010
0001
0000
,
0010
0001
1000
0100
,
2100
0001
0001
3010
,
0100
0000
0100
0000
1000
0010
1000
0000
,
0010
0000
0010
0000
1000
0100
1000
0000
,
0100
1000
0001
0010
,
0012
1000
1000
0103
,
0001
0000
0001
0000
1000
0010
1000
0000
,
0010
0000
0010
0000
1000
0001
1000
0000
,
0001
1000
0100
0010
,
0012
0100
0100
1003
,
1000
0000
1000
0000
0001
0100
0001
0000
,
0100
0000
0100
0000
0001
1000
0001
0000
,
1000
0001
0010
0100
,
2100
0010
0010
3001
,
0001
0000
0100
0100
0000
0000
0100
0000
,
1000
0000
0010
0010
0000
0000
0010
0000
,
1000
0100
0001
0100
,
1000
0010
1000
0010
,
1000
0000
0010
0010
0000
0000
0010
0000
,
0001
0000
0100
0100
0000
0000
0100
0000
,
0001
0010
1000
0010
,
0001
0100
0001
0100
,
0100
0001
0010
0011
,
0001
0010
0001
0000
0010
0001
0010
0000
,
0100
1000
0010
1000
,
1000
1100
1000
1010
,
0100
1000
0010
1010
,
1000
0010
1000
0000
0010
1000
0010
0000
,
0100
0001
0010
0001
,
0001
0101
0001
0011
,
0100
1000
0010
1010
,
0100
0001
0100
0000
0001
0100
0001
0000
,
0100
0001
0010
0011
,
1001
1001
0110
0110
,
1001
1000
0001
0000
,
0100
0010
0100
0000
,
0010
1000
0010
0000
,
0100
0001
0100
0000
,
0001
0010
0100
0000
,
0010
0100
1000
0000
,
1000
0010
0100
0000
,
0010
0100
0001
0000
,
0001
1000
0001
1000
0001
0000
0000
0000
,
0010
0100
0010
0100
0010
0000
0000
0000
,
1000
0001
1000
0001
1000
0000
0000
0000
,
0100
0010
0100
0010
0100
0000
0000
0000
,
0001
1000
0001
1000
0001
0000
0000
0000
,
1000
0010
1000
0010
1000
0000
0000
0000
,
0010
0100
0010
0100
0010
0000
0000
0000
,
0100
0001
0100
0001
0100
0000
0000
0000
,
0101
0000
0000
0000
;

//---------------dance-single - chewi----------------
#NOTEDATA:;
#CHARTNAME:chewi;
#CHARTHASH:4111094645;
#STEPSTYPE:dance-single;
#BANNER:;
#DESCRIPTION:chewi;
#CHARTSTYLE:;
#DIFFICULTY:Hard;
#METER:8;
#METERF:0.000000;
#LASTSECONDHINT:106.863808;
#RADARVALUES:0.566809,0.568543,0.233392,0.000000,0.266067,425.000000,400.000000,25.000000,0.000000,0.000000,0.000000,0.000000,0.000000,0.000000,0.566809,0.568543,0.233392,0.000000,0.266067,425.000000,400.000000,25.000000,0.000000,0.000000,0.000000,0.000000,0.000000,0.000000;
#CREDIT:chewi;
#NOTES:
// measure 0
0000
0000
0000
0000
,  // measure 1
0000
0000
0000
0000
,  // measure 2
0000
0000
0000
0000
,  // measure 3
0000
0000
0000
0000
,  // measure 4
0000
0000
0000
0000
,  // measure 5
0000
0000
0000
0000
,  // measure 6
1000
0000
0010
0000
0100
0000
0010
1000
0000
1000
0100
0000
1100
0000
0000
0000
,  // measure 7
0010
0000
0001
0000
0100
0000
0010
0100
0000
0100
0010
0000
1000
0000
0001
0000
,  // measure 8
0010
0000
0100
0000
1000
0000
0001
1000
0000
1000
0001
0000
1000
0000
0100
0000
,  // measure 9
1100
1010
0110
0101
,  // measure 10
0100
0000
0001
0000
0010
0000
0100
0010
0000
0010
0100
0000
1000
0000
0010
0000
,  // measure 11
0100
0000
0001
0000
0100
0000
0010
0100
0000
0100
0010
0000
0100
0000
0001
0000
,  // measure 12
0010
0000
0100
0000
1000
0000
0001
1000
0000
1000
0001
0000
0010
0000
0000
0000
,  // measure 13
0011
0000
0000
0000
0101
0000
0000
0000
1001
0000
1000
0000
1001
0000
0001
1000
,  // measure 14
0001
0000
0010
0000
0100
0000
0010
0001
0000
0001
0100
0000
0101
0000
0000
0000
,  // measure 15
0010
0000
1000
0000
0100
0000
0010
0100
0000
0100
0010
0000
0001
0000
1000
0000
,  // measure 16
0010
0000
0100
0000
0001
0000
1000
0001
0000
0001
1000
0000
0001
0000
0100
0000
,  // measure 17
0101
0011
0110
1100
,  // measure 18
0100
0000
1000
0000
0010
0000
0100
0010
0000
0010
0100
0000
0001
0000
0010
0000
,  // measure 19
0100
0000
1000
0000
0100
0000
0010
0100
0000
0100
0010
0000
0100
0000
1000
0000
,  // measure 20
0010
0000
0100
0000
0001
0000
1000
0001
0000
0001
1000
0000
0010
0000
0000
0000
,  // measure 21
1010
0000
0000
0000
1100
0000
0000
0000
1001
0000
0001
0000
1001
0000
1000
0001
,  // measure 22
1000
0010
1000
0001
1000
0100
1000
0001
,  // measure 23
1000
0010
0100
0001
1000
0010
0100
0001
,  // measure 24
0001
0010
0001
1000
0001
0100
0001
1000
,  // measure 25
0001
0010
0100
1000
0001
0010
0100
0010
,  // measure 26
0001
0100
0001
1000
0001
0010
0001
1000
,  // measure 27
0001
0100
0010
1000
0001
0100
0010
1000
,  // measure 28
1000
0100
1000
0001
1000
0010
1000
0001
,  // measure 29
1000
0000
0100
0000
0010
0000
0001
0000
1000
0100
0000
0100
1000
0000
0000
0000
,  // measure 30
1000
0000
1000
0000
1000
0000
0010
0000
0100
0000
0000
0101
0000
0000
0000
0000
,  // measure 31
0001
0010
0001
0010
0001
0000
0000
0000
0010
0001
0010
0001
0010
0000
0000
0000
,  // measure 32
0001
0000
0001
0000
0001
0000
0010
0000
0100
0000
0000
1100
0000
0000
0000
0000
,  // measure 33
1000
0010
1000
0010
1000
0000
0000
0000
0010
1000
0010
1000
0010
0000
0000
0000
,  // measure 34
1000
0000
1000
0000
1000
0000
0100
0000
0010
0000
0000
0011
0000
0000
0000
0000
,  // measure 35
0001
0100
0001
0100
0001
0000
0000
0000
0100
0001
0100
0001
0100
0000
0000
0000
,  // measure 36
0001
0000
0001
0000
0001
0000
0100
0000
0010
0000
0000
1010
0000
0000
0000
0000
,  // measure 37
1000
0000
0000
1000
0100
0000
0000
0100
0010
0000
0000
0010
0001
0000
0000
0000
,  // measure 38
0001
0000
0001
0000
0001
0000
0100
0000
0010
0000
0000
1010
0000
0000
0000
0000
,  // measure 39
1000
0100
1000
0100
1000
0000
0000
0000
0100
1000
0100
1000
0100
0000
0000
0000
,  // measure 40
1000
0000
1000
0000
1000
0000
0100
0000
0010
0000
0000
0011
0000
0000
0000
0000
,  // measure 41
0001
0000
0000
0001
0100
0000
0000
0100
0010
0000
0000
0010
1000
0000
0000
1000
,  // measure 42
0001
1000
0001
0000
0100
0100
0100
0000
,  // measure 43
0010
1000
0100
0010
0001
0100
0010
0000
,  // measure 44
0100
0001
0100
0000
0001
0001
0001
0000
,  // measure 45
0100
0001
1000
0010
1000
0001
1000
0100
,  // measure 46
1000
0001
1000
0000
0100
0100
0100
0000
,  // measure 47
0010
0001
0100
0010
1000
0100
0010
0000
,  // measure 48
0100
1000
0100
0000
1000
1000
1000
0000
,  // measure 49
0100
1000
0001
0010
0001
1000
0001
0100
,  // measure 50
0001
0010
0100
0010
0001
0010
0100
1000
,  // measure 51
1000
0010
0100
0010
1000
0010
0100
0001
,  // measure 52
0001
0100
0010
0100
0001
0100
0010
1000
,  // measure 53
1000
0010
0100
0010
1000
0010
0100
0001
,  // measure 54
0100
0001
0100
0001
0100
0001
0100
0001
,  // measure 55
0010
0001
0010
0001
0010
0001
0010
0001
,  // measure 56
0010
0100
0010
0100
0010
0100
0010
0100
,  // measure 57
1000
0100
1000
0100
1000
0100
1000
0100
,  // measure 58
1100
0000
0000
0000
;
