#VERSION:0.83;
#TITLE:Tonight;
#SUBTITLE:;
#ARTIST:PinkPantheress;
#TITLETRANSLIT:;
#SUBTITLETRANSLIT:;
#ARTISTTRANSLIT:;
#GENRE:Speed Garage;
#ORIGIN:;
#TAGS:;
#CREDIT:chewi;
#BANNER:Tonight.png;
#BACKGROUND:Tonight-bg.png;
#PREVIEWVID:;
#JACKET:Tonight-jacket.png;
#CDIMAGE:;
#DISCIMAGE:;
#LYRICSPATH:;
#CDTITLE:cdtitle.png;
#MUSIC:Tonight.ogg;
#OFFSET:1.696000;
#SAMPLESTART:40.764706;
#SAMPLELENGTH:12.000000;
#SELECTABLE:YES;
#BPMS:0.000000=141.391006
;
#STOPS:;
#DELAYS:;
#WARPS:;
#TIMESIGNATURES:0.000000=4=4
;
#TICKCOUNTS:0.000000=4
;
#COMBOS:0.000000=1
;
#SPEEDS:0.000000=1.000000=0.000000=0
;
#SCROLLS:0.000000=1.000000
;
#FAKES:;
#LABELS:0.000000=Song Start
;
#BGCHANGES:4.000=Tonight.mp4=1.000=1=0=1===CrossFade==,
227.000=Tonight-bg.png=1.000=1=0=1===CrossFade==,
99999=-nosongbg-=1.000=0=0=0 // don't automatically add -songbackground-
;
#KEYSOUNDS:;
#ATTACKS:
;

//---------------dance-single - chewi----------------
#NOTEDATA:;
#CHARTNAME:chewi;
#CHARTHASH:980675017;
#STEPSTYPE:dance-single;
#BANNER:;
#DESCRIPTION:chewi;
#CHARTSTYLE:;
#DIFFICULTY:Beginner;
#METER:1;
#METERF:0.000000;
#LASTSECONDHINT:94.632614;
#RADARVALUES:0.000000,0.000000,0.000000,0.000000,0.000000,0.000000,0.000000,0.000000,0.000000,0.000000,0.000000,0.000000,0.000000,0.000000,0.000000,0.000000,0.000000,0.000000,0.000000,0.000000,0.000000,0.000000,0.000000,0.000000,0.000000,0.000000,0.000000,0.000000;
#CREDIT:chewi;
#NOTES:
0000
0000
0000
0000
,
0000
0000
0000
0000
,
0000
0000
0000
0000
,
0000
0000
0000
0000
,
0000
0000
0000
0000
,
0000
0100
0000
0100
,
0000
0100
0000
0100
,
0000
0010
0000
0010
,
0000
0010
0000
0010
,
2000
0000
0000
3000
,
1000
0000
0000
0000
,
0002
0000
0000
0003
,
0001
0000
0000
0000
,
0020
0000
0000
0030
,
0010
0000
0000
0000
,
0200
0000
0000
0300
,
0100
0000
0000
0000
,
1000
0000
1000
0000
,
0010
0000
0000
0000
,
0010
0000
0010
0000
,
0100
0000
0000
0000
,
0100
0000
0100
0000
,
0001
0000
0000
0000
,
0001
0000
0001
0000
,
0010
0000
0000
0000
,
0010
0000
0100
0000
,
0010
0010
0010
0000
,
0100
0000
0010
0000
,
0100
0100
0100
0000
,
0001
0000
1000
0000
,
0001
0001
0001
0000
,
1000
0000
0001
0000
,
1000
1000
1000
0000
,
0100
0000
0010
0000
,
0100
0000
0100
0000
,
0010
0000
0100
0000
,
0010
0000
0010
0000
,
1000
0000
0001
0000
,
1000
0000
1000
0000
,
0001
0000
1000
0000
,
0001
0000
0001
0000
,
0100
0000
0010
0000
,
0100
0000
0100
0000
,
0010
0000
0100
0000
,
0010
0000
0010
0000
,
1000
0000
0001
0000
,
1000
0000
1000
0000
,
0001
0000
1000
0000
,
0001
0000
0001
0000
,
0100
0000
0010
0000
,
0100
0100
0100
0000
,
0010
0000
0100
0000
,
0010
0010
0010
0000
,
1000
0000
0001
0000
,
1000
1000
1000
0000
,
0001
0000
1000
0000
,
0001
0001
0001
0001
;

//---------------dance-single - chewi----------------
#NOTEDATA:;
#CHARTNAME:chewi;
#CHARTHASH:819527523;
#STEPSTYPE:dance-single;
#BANNER:;
#DESCRIPTION:chewi;
#CHARTSTYLE:;
#DIFFICULTY:Easy;
#METER:3;
#METERF:0.000000;
#LASTSECONDHINT:94.632614;
#RADARVALUES:0.000000,0.000000,0.000000,0.000000,0.000000,0.000000,0.000000,0.000000,0.000000,0.000000,0.000000,0.000000,0.000000,0.000000,0.000000,0.000000,0.000000,0.000000,0.000000,0.000000,0.000000,0.000000,0.000000,0.000000,0.000000,0.000000,0.000000,0.000000;
#CREDIT:chewi;
#NOTES:
0000
0000
0000
0000
,
0000
0000
0000
0000
,
0000
0000
0000
0000
,
0000
0000
0000
0000
,
0000
0000
0000
0000
,
1000
0100
1000
0100
,
1000
0010
1000
0010
,
1000
0100
1000
0100
,
1000
0010
1000
0010
,
1000
0000
0100
0000
,
0100
1000
0010
0000
,
0110
0000
0010
0000
,
0100
0001
0010
0000
,
0010
0001
0010
0000
,
0001
0010
0001
0000
,
0010
0100
0010
0000
,
0100
1000
0100
0000
,
0001
0010
0001
0010
,
0001
0100
0001
0100
,
0001
0010
0001
0010
,
0001
0100
0001
0100
,
0001
0000
0010
0000
,
0010
0001
0100
0000
,
0110
0000
0100
0000
,
0010
1000
0100
0000
,
0100
0100
0100
0000
,
0100
0001
0100
0000
,
0100
0100
0100
0000
,
0100
1000
0100
0000
,
1000
1000
1000
0000
,
1000
0010
1000
0000
,
0010
0010
0010
0000
,
0100
0001
0100
0001
,
0001
0000
0001
0000
,
1000
0000
1000
0000
,
0100
0000
0100
0000
,
0010
0010
0010
0000
,
0010
0000
0010
0000
,
0100
0000
0100
0000
,
1000
0000
1000
0000
,
0001
0000
0001
0000
,
1000
0000
0010
0000
,
0100
0000
0010
0000
,
1000
0000
0001
0000
,
1000
0001
1000
0000
,
0001
0000
0100
0000
,
0010
0000
0100
0000
,
0001
0000
1000
0000
,
0001
1000
0001
0000
,
0001
0000
0000
0000
,
1000
0100
0001
0010
,
0000
0000
0000
0000
,
1000
0100
0001
0010
,
0000
0000
0000
0000
,
0001
0100
1000
0010
,
0000
0000
0000
0000
,
0001
0100
1000
0010
;

//---------------dance-single - chewi----------------
#NOTEDATA:;
#CHARTNAME:chewi;
#CHARTHASH:2825931623;
#STEPSTYPE:dance-single;
#BANNER:;
#DESCRIPTION:chewi;
#CHARTSTYLE:;
#DIFFICULTY:Medium;
#METER:5;
#METERF:0.000000;
#LASTSECONDHINT:94.632614;
#RADARVALUES:0.000000,0.000000,0.000000,0.000000,0.000000,0.000000,0.000000,0.000000,0.000000,0.000000,0.000000,0.000000,0.000000,0.000000,0.000000,0.000000,0.000000,0.000000,0.000000,0.000000,0.000000,0.000000,0.000000,0.000000,0.000000,0.000000,0.000000,0.000000;
#CREDIT:chewi;
#NOTES:
0000
0000
0000
0000
,
0000
0000
0000
0000
,
0000
0000
0000
0000
,
0000
0000
0000
0000
,
0000
0000
0000
0000
,
0002
0103
2000
3100
,
0002
0103
2000
3100
,
0002
0013
2000
3010
,
0002
0013
2000
3010
,
0110
0000
0010
0100
,
0001
0000
0100
0000
0010
0010
0010
0000
,
1000
0100
0010
0100
,
1000
0000
0001
0000
1000
1000
1000
0000
,
0010
0100
0001
0100
,
0010
0000
0100
0000
0001
0001
0001
0000
,
0010
0100
0010
0001
,
0010
0000
0100
0000
0010
0010
0010
0000
,
0100
0010
0000
0001
0000
0010
0000
0001
,
0000
0100
0000
0001
0000
0100
0100
0100
,
0000
0010
0000
0100
0000
0010
0000
0100
,
0000
0010
0000
1000
0000
0010
0010
0010
,
0000
1000
0000
0010
0000
1000
0000
0010
,
0000
0100
0000
0001
0000
0100
0100
0100
,
0000
0001
0000
0100
0000
0001
0000
0100
,
0000
0010
0000
1000
0000
0010
0010
0010
,
1000
0100
1000
0100
1000
0000
0000
0000
,
0100
0010
0001
0000
,
0001
0100
0001
0100
0001
0000
0000
0000
,
0100
0010
1000
0000
,
0001
0010
0001
0010
0001
0000
0000
0000
,
1000
0100
0010
0000
,
0001
0100
0001
0100
0001
0000
0000
0000
,
1000
0100
0010
0100
,
1000
1000
0001
0001
,
1000
0000
0001
0000
1000
0001
1000
0001
,
0000
1000
0001
0100
,
0110
1010
1100
0110
,
0100
0100
1000
1000
,
0010
0000
0100
0000
0001
0100
0001
0100
,
0000
0001
1000
0100
,
0100
0010
0001
0100
,
0001
0001
1000
1000
,
0001
0000
1000
0000
0001
1000
0001
1000
,
0000
0001
1000
0010
,
0110
0101
0011
0110
,
0010
0010
0001
0001
,
0100
0000
0010
0000
1000
0010
1000
0010
,
0000
1000
0001
0010
,
0010
0100
1000
0010
,
1000
1000
1000
0010
,
0100
0010
1000
0000
,
0110
0000
0000
0000
,
0100
0001
0100
0010
,
1000
0100
0001
0100
,
1000
0010
0001
0010
,
1000
0100
0001
0100
,
1000
0010
0001
0100
;

//---------------dance-single - chewi----------------
#NOTEDATA:;
#CHARTNAME:chewi;
#CHARTHASH:3487374765;
#STEPSTYPE:dance-single;
#BANNER:;
#DESCRIPTION:chewi;
#CHARTSTYLE:;
#DIFFICULTY:Hard;
#METER:8;
#METERF:0.000000;
#LASTSECONDHINT:94.632614;
#RADARVALUES:0.505941,0.536756,0.315275,0.000000,0.000000,337.000000,307.000000,30.000000,0.000000,0.000000,0.000000,0.000000,0.000000,0.000000,0.505941,0.536756,0.315275,0.000000,0.000000,337.000000,307.000000,30.000000,0.000000,0.000000,0.000000,0.000000,0.000000,0.000000;
#CREDIT:chewi;
#NOTES:
// measure 0
0000
0000
0000
0000
,  // measure 1
0000
0000
0000
0000
,  // measure 2
0000
0000
0000
0000
,  // measure 3
0000
0000
0000
0000
,  // measure 4
0000
0000
0000
0000
,  // measure 5
1000
0000
0001
0000
0100
0010
1000
0000
,  // measure 6
0001
0000
0010
0000
0100
1000
0100
0000
,  // measure 7
0010
0000
0001
0000
0100
0001
0100
0000
,  // measure 8
0010
0000
1000
0000
0001
0010
0100
0000
,  // measure 9
0110
0000
1000
0000
0010
0100
0001
0000
,  // measure 10
0100
0010
1000
0000
0100
0010
0001
0000
,  // measure 11
0011
0000
0100
0000
1000
0001
0100
0000
,  // measure 12
0001
1000
0010
0000
1000
0001
0100
0000
,  // measure 13
0110
0000
0100
0000
0001
0010
0100
0000
,  // measure 14
1000
0000
0010
0000
1000
0100
0010
0001
,  // measure 15
1001
1000
0001
1000
,  // measure 16
0010
0100
0001
0000
0100
0001
0100
0000
,  // measure 17
0001
0100
0000
0010
1000
1000
0100
0000
,  // measure 18
0010
0001
1000
0000
1000
0001
0010
0001
,  // measure 19
1000
0100
0000
0010
0001
0001
0100
0000
,  // measure 20
0010
1000
0001
0000
0001
1000
0010
1000
,  // measure 21
1010
0000
0100
0000
0001
0001
0100
0000
,  // measure 22
0010
0000
1000
0000
0010
0010
1000
0000
,  // measure 23
1001
0000
0010
0000
0100
0010
0001
0000
,  // measure 24
1000
0100
1000
0000
0010
1000
0010
0000
,  // measure 25
1000
0001
1000
0001
1000
0001
0001
0000
,  // measure 26
0001
0010
0001
0010
0001
0000
0010
0000
,  // measure 27
0010
0100
0010
0100
0010
0100
0100
0000
,  // measure 28
0100
1000
0100
1000
0100
0000
1000
0000
,  // measure 29
0100
0010
0001
0000
0010
0001
0100
0000
,  // measure 30
0001
0100
0010
0000
0100
0010
1000
0000
,  // measure 31
0010
1000
0100
0000
1000
0100
0010
0000
,  // measure 32
0100
0010
0100
0010
0001
1000
0001
1000
,  // measure 33
1000
1100
0001
0101
,  // measure 34
1000
0001
0100
0001
1000
0100
1000
0001
,  // measure 35
1000
1010
0001
0011
,  // measure 36
0110
0110
1001
1001
,  // measure 37
1000
1010
0001
0011
,  // measure 38
1000
0001
0010
0001
1000
0010
1000
0001
,  // measure 39
1000
1100
0001
0101
,  // measure 40
0100
0000
0010
0000
1000
1000
1000
0000
,  // measure 41
1000
0010
0001
0010
1000
0010
0001
0010
,  // measure 42
1000
0100
0001
0100
1000
0100
0001
0100
,  // measure 43
1000
0100
1000
0100
1000
0010
1000
0010
,  // measure 44
1010
0110
0101
0110
,  // measure 45
0001
0100
1000
0100
0001
0100
1000
0100
,  // measure 46
0001
0010
1000
0010
0001
0010
1000
0010
,  // measure 47
0001
0010
0001
0010
0001
0100
0001
0100
,  // measure 48
0001
0100
0010
0100
,  // measure 49
0001
1000
0001
1000
0001
1000
1001
0000
,  // measure 50
1000
0100
1000
0100
1000
0000
1100
0000
,  // measure 51
0100
0010
0100
0010
0100
0010
0110
0000
,  // measure 52
0010
0001
0010
0001
0010
0000
0011
0000
,  // measure 53
0010
0100
1000
0000
0100
1000
0010
0000
,  // measure 54
1000
0010
0100
0000
0010
0100
0001
0000
,  // measure 55
0100
0001
0010
0000
0001
0010
0100
0000
,  // measure 56
0110
1100
1010
0110
;
