#VERSION:0.83;
#TITLE:Revolving door;
#SUBTITLE:;
#ARTIST:Tate McRae;
#TITLETRANSLIT:;
#SUBTITLETRANSLIT:;
#ARTISTTRANSLIT:;
#GENRE:Alt-Pop;
#ORIGIN:;
#TAGS:;
#CREDIT:chewi;
#BANNER:revolving door.png;
#BACKGROUND:Revolving door-bg.png;
#PREVIEWVID:;
#JACKET:Revolving door-jacket.png;
#CDIMAGE:;
#DISCIMAGE:;
#LYRICSPATH:;
#CDTITLE:cdtitle.png;
#MUSIC:Revolving door.ogg;
#OFFSET:3.226000;
#SAMPLESTART:38.111000;
#SAMPLELENGTH:12.000000;
#SELECTABLE:YES;
#BPMS:0.000000=74.026001
,20.000000=148.052994
,211.000000=74.026001
;
#STOPS:82.000000=0.405000
;
#DELAYS:;
#WARPS:;
#TIMESIGNATURES:0.000000=4=4
;
#TICKCOUNTS:0.000000=4
;
#COMBOS:0.000000=1
;
#SPEEDS:0.000000=1.000000=0.000000=0
;
#SCROLLS:0.000000=1.000000
;
#FAKES:;
#LABELS:0.000000=Song Start
;
#BGCHANGES:4.000=Revolving door.mp4=1.000=1=0=1===CrossFade==,
234.000=Revolving door-bg.png=1.000=1=0=1===CrossFade==,
99999=-nosongbg-=1.000=0=0=0 // don't automatically add -songbackground-
;
#KEYSOUNDS:;
#ATTACKS:
;

//---------------dance-single - chewi----------------
#NOTEDATA:;
#CHARTNAME:chewi;
#CHARTHASH:3808064550;
#STEPSTYPE:dance-single;
#BANNER:;
#DESCRIPTION:chewi;
#CHARTSTYLE:;
#DIFFICULTY:Beginner;
#METER:1;
#METERF:0.000000;
#LASTSECONDHINT:109.436333;
#RADARVALUES:0.137933,0.213146,0.036435,0.091088,0.000000,106.000000,102.000000,4.000000,10.000000,0.000000,0.000000,0.000000,0.000000,0.000000,0.137933,0.213146,0.036435,0.091088,0.000000,106.000000,102.000000,4.000000,10.000000,0.000000,0.000000,0.000000,0.000000,0.000000;
#CREDIT:chewi;
#NOTES:
0000
0000
0000
0000
,
0000
0000
0000
0000
,
0000
0000
0000
0000
,
0000
0000
0000
0000
,
0000
0000
0000
0000
,
1000
0000
1000
0000
,
0010
0000
0010
0000
,
0001
0000
0001
0000
,
0100
0000
0100
0000
,
1000
0000
1000
0000
,
0001
0000
0001
0000
,
0002
0000
0000
0003
,
2000
0000
0000
3000
,
0100
0100
0000
0000
,
0010
0010
0000
0000
,
0001
0001
0000
0000
,
1000
1000
1000
0000
,
0010
0010
0000
0000
,
0100
0100
0000
0000
,
0001
0001
0000
0000
,
1000
1000
1000
1000
,
0000
1000
0000
0010
,
0000
0010
0000
0100
,
0000
0100
0000
0001
,
0000
0001
0000
0010
,
0000
0010
0000
0100
,
0000
0100
0000
1000
,
0000
1000
0000
0001
,
0000
0001
0000
0002
,
0000
0000
0003
2000
,
0000
0000
3000
0020
,
0000
0000
0030
0010
,
0010
0010
0000
2000
,
0000
0000
3000
0020
,
0000
0000
0030
0200
,
0000
0000
0300
0100
,
0100
0100
0000
1000
,
0000
0001
0000
1000
,
0000
0100
0000
0001
,
0000
1000
0000
0001
,
0000
0010
0000
0001
,
0000
1000
0000
0001
,
0000
0100
0000
0100
,
0000
0100
0000
0010
,
0000
0010
0000
0001
,
0000
1000
0000
0001
,
0000
0010
0000
1000
,
0000
0001
0000
1000
,
0000
0100
0000
1000
,
0000
0001
0000
1000
,
0000
0010
0000
0010
,
0000
0010
0000
0100
,
0000
0100
0000
0110
,
0000
0010
0000
0100
,
0000
0110
0000
1001
,
0000
1000
0000
0001
,
0000
1001
0000
0020
,
0000
0000
0030
0200
,
0000
0000
0300
0000
;

//---------------dance-single - chewi----------------
#NOTEDATA:;
#CHARTNAME:chewi;
#CHARTHASH:2704769713;
#STEPSTYPE:dance-single;
#BANNER:;
#DESCRIPTION:chewi;
#CHARTSTYLE:;
#DIFFICULTY:Easy;
#METER:3;
#METERF:0.000000;
#LASTSECONDHINT:109.436333;
#RADARVALUES:0.192586,0.239789,0.018218,0.291481,0.000000,148.000000,146.000000,2.000000,32.000000,0.000000,0.000000,0.000000,0.000000,0.000000,0.192586,0.239789,0.018218,0.291481,0.000000,148.000000,146.000000,2.000000,32.000000,0.000000,0.000000,0.000000,0.000000,0.000000;
#CREDIT:chewi;
#NOTES:
0000
0000
0000
0000
,
0000
0000
0000
0000
,
0000
0000
0000
0000
,
0000
0000
0000
0000
,
0000
0000
0000
0000
,
1000
0100
1000
0100
,
0010
0001
0010
0001
,
0100
0001
0100
0001
,
0100
0010
0100
0010
,
0100
0001
0100
0001
,
0010
0001
0010
0001
,
0002
0000
2003
0000
,
3200
0000
0320
0000
,
0130
1000
0000
0000
,
1000
0010
0000
0000
,
0010
0001
0000
0000
,
0100
1000
0010
0000
,
0010
1000
0000
0000
,
0100
0001
0000
0000
,
0010
1000
0000
0000
,
0100
0001
1000
0001
,
0001
0001
0001
0010
,
0010
0010
0010
0100
,
0100
0100
0100
1000
,
1000
1000
1000
0010
,
0010
0010
0010
0100
,
0100
0100
0100
0001
,
0001
0001
0001
1000
,
1000
1000
1000
0002
,
0000
0003
0000
0200
,
0000
0300
0000
0020
,
0000
0030
0000
1000
,
1000
0001
0001
2000
,
0000
3000
0000
0020
,
0000
0030
0000
0200
,
0000
0300
0000
0001
,
0001
1000
1000
2000
,
3000
0002
0003
1000
,
0001
0100
0000
0002
,
0003
2000
3000
0001
,
1000
0100
0000
0020
,
0030
0200
0300
1000
,
0010
0100
0000
0002
,
0003
0200
0300
0001
,
0100
0010
0000
0002
,
0003
2000
3000
0001
,
1000
0010
0000
2000
,
3000
0002
0003
1000
,
0001
0010
0000
0200
,
0300
0020
0030
0001
,
0100
0010
0000
2000
,
3000
0020
0030
1000
,
0010
0100
0000
0210
,
0000
0320
0000
0130
,
0010
0100
0010
1002
,
0000
2003
0000
3001
,
1000
0001
1000
0020
,
0000
0000
0030
0200
,
0000
0000
0300
0000
;

//---------------dance-single - chewi----------------
#NOTEDATA:;
#CHARTNAME:chewi;
#CHARTHASH:2022981293;
#STEPSTYPE:dance-single;
#BANNER:;
#DESCRIPTION:chewi;
#CHARTSTYLE:;
#DIFFICULTY:Medium;
#METER:5;
#METERF:0.000000;
#LASTSECONDHINT:109.436333;
#RADARVALUES:0.294084,0.319719,0.054653,0.091088,0.086534,226.000000,220.000000,6.000000,10.000000,0.000000,0.000000,0.000000,0.000000,0.000000,0.294084,0.319719,0.054653,0.091088,0.086534,226.000000,220.000000,6.000000,10.000000,0.000000,0.000000,0.000000,0.000000,0.000000;
#CREDIT:chewi;
#NOTES:
0000
0000
0000
0000
,
0000
0000
0000
0000
,
0000
0000
0000
0000
,
0000
0000
0000
0000
,
0000
0000
0000
0000
,
1000
0001
1000
0100
,
1000
0000
0000
0000
0001
0000
0000
0000
0100
0000
0000
0100
0000
0000
0100
0000
,
0010
1000
0100
1000
,
0010
0000
0000
0000
1000
0000
0000
0000
0010
0000
0000
0010
0000
0000
0010
0000
,
0100
0001
0010
0001
,
0100
0000
0000
0000
0001
0000
0000
0000
0100
0000
0000
0100
0000
0000
0100
0000
,
0001
1000
0001
0010
,
0001
0000
0000
0000
1000
0000
0000
0000
0010
0000
0000
0010
0000
0000
0010
0000
,
0100
0001
1000
0010
,
0100
0000
0000
0000
0001
0000
0000
0000
0010
0000
0000
0010
0000
0000
0010
0000
,
0100
1000
0001
0010
,
0100
0000
0000
0000
1000
0000
0000
0000
0001
0000
0000
0001
0000
0000
0001
0000
,
0100
1000
0001
0010
,
0100
0000
0000
0000
1000
0000
0000
0000
0010
0000
0000
0010
0000
0000
0010
0000
,
0100
0001
1000
0010
,
0100
0000
0000
0000
0001
0000
0000
0000
1000
0000
0000
0000
0001
0000
0000
0001
,
0010
0000
0000
0000
0010
0000
0000
0010
0001
0000
0000
0000
0001
0000
0000
0000
,
0010
0000
0000
0000
0100
0000
0000
0100
0000
0000
0100
0000
1000
0000
0000
1000
,
0010
0000
0000
0000
0010
0000
0000
0010
1000
0000
0000
0000
1000
0000
0000
0000
,
0010
0000
0000
0000
0100
0000
0000
0100
0000
0000
0100
0000
0100
0000
0000
0100
,
0010
0000
0000
0000
0010
0000
0000
0010
0100
0000
0000
0000
0001
0000
0000
0000
,
0010
0000
0000
0000
0100
0000
0000
0100
0000
0000
0100
0000
0100
0000
0000
0100
,
0010
0000
0000
0000
0010
0000
0000
0010
0100
0000
0000
0000
1000
0000
0000
0000
,
0010
0000
0000
0000
0100
0000
0000
0100
0000
0000
0100
0000
0100
0000
0000
0000
,
0001
0010
0100
1000
,
0010
0100
0001
0100
,
0010
1000
0001
1000
,
1100
0001
0101
0010
,
1000
0100
0010
0001
,
0100
0010
1000
0010
,
0100
0001
1000
0001
,
0011
1000
1010
1000
,
0010
0100
1000
0010
,
0001
0200
0300
0001
,
0010
0100
0001
0010
,
1000
0200
0300
0100
,
1000
0010
0001
0100
,
1000
0020
0030
0010
,
1000
0100
0001
0010
,
1000
0200
0300
0001
,
0100
0010
0001
0100
,
1000
0020
0030
1000
,
0100
0010
1000
0100
,
0001
0020
0030
0010
,
0001
0100
1000
0010
,
0001
0200
0300
0100
,
0001
0010
1000
0100
,
0001
0020
0030
0110
,
0100
0100
0100
0010
,
0010
0010
0010
1001
,
1000
1000
1000
0001
,
0001
0001
0001
0020
,
0000
0000
0030
0200
,
0000
0000
0300
0000
;

//---------------dance-single - chewi----------------
#NOTEDATA:;
#CHARTNAME:chewi;
#CHARTHASH:3558605514;
#STEPSTYPE:dance-single;
#BANNER:;
#DESCRIPTION:chewi;
#CHARTSTYLE:;
#DIFFICULTY:Hard;
#METER:8;
#METERF:0.000000;
#LASTSECONDHINT:109.436333;
#RADARVALUES:0.403390,0.452935,0.072870,0.182176,0.214057,310.000000,302.000000,8.000000,20.000000,0.000000,0.000000,0.000000,0.000000,0.000000,0.403390,0.452935,0.072870,0.182176,0.214057,310.000000,302.000000,8.000000,20.000000,0.000000,0.000000,0.000000,0.000000,0.000000;
#CREDIT:chewi;
#NOTES:
// measure 0
0000
0000
0000
0000
,  // measure 1
0000
0000
0000
0000
,  // measure 2
0000
0000
0000
0000
,  // measure 3
0000
0000
0000
0000
,  // measure 4
0000
0000
0000
0000
0000
0000
0000
0000
0000
0000
0000
0000
0001
1000
0001
1000
,  // measure 5
0002
0203
0320
0230
,  // measure 6
0302
0000
0000
0000
0023
0000
0000
0000
0130
0000
0000
1000
0000
0000
1000
0000
,  // measure 7
0200
2300
3200
0320
,  // measure 8
0032
0000
0000
0000
0203
0000
0000
0000
0310
0000
0000
0100
0000
0000
0100
0000
,  // measure 9
0020
2030
3002
0203
,  // measure 10
0320
0000
0000
0000
2030
0000
0000
0000
3001
0000
0000
1000
0000
0000
0100
0000
,  // measure 11
0100
0100
0010
0000
0010
0010
0100
0000
,  // measure 12
1000
0000
1000
0000
0001
0000
0000
0000
0001
0000
0000
0001
0000
0000
1000
0000
,  // measure 13
1000
0000
0000
1000
0010
0000
0000
0000
0100
0000
0000
0100
0010
0000
0000
0000
,  // measure 14
1000
0000
0000
1000
0100
0000
0000
0000
0010
0000
0000
0010
1000
0000
0010
0000
,  // measure 15
0100
0000
0000
0100
1000
0000
0000
0000
0010
0000
0000
0010
0100
0000
0010
0000
,  // measure 16
0100
0000
0000
0000
0001
0000
0000
0000
0001
0000
0000
0010
0000
0000
0010
0000
,  // measure 17
0001
0000
0000
0001
0010
0000
0000
0000
0100
0000
0000
0100
0010
0000
0000
0000
,  // measure 18
0001
0000
0000
0001
0100
0000
0000
0000
0010
0000
0000
0010
0001
0000
0010
0000
,  // measure 19
0100
0000
0000
0100
0001
0000
0000
0000
0010
0000
0000
0010
0100
0000
0010
0000
,  // measure 20
0100
0000
0000
0000
1000
0000
0000
0000
0010
0000
0000
0000
0010
0000
0000
1000
,  // measure 21
0000
0000
0100
0000
0000
0000
0000
0000
1000
0000
0001
0000
0100
0000
0000
0001
,  // measure 22
0000
0000
0010
0000
0000
0000
0000
0000
0100
0000
0100
0000
0010
0000
0000
0001
,  // measure 23
0000
0000
1000
0000
0000
0000
0000
0000
1000
0000
0010
0000
0100
0000
0000
0010
,  // measure 24
0000
0000
0100
0000
0000
0000
0000
0000
0001
0000
0001
0000
0100
0000
0000
0001
,  // measure 25
0000
0000
0010
0000
0000
0000
0000
0000
0001
0000
1000
0000
0010
0000
0000
1000
,  // measure 26
0000
0000
0100
0000
0000
0000
0000
0000
0010
0000
0010
0000
0100
0000
0000
1000
,  // measure 27
0000
0000
0001
0000
0000
0000
0000
0000
0001
0000
0100
0000
0010
0000
0000
0100
,  // measure 28
0000
0010
0000
0000
1000
1000
0100
0000
,  // measure 29
0001
0000
0010
0000
1000
0100
0001
0000
,  // measure 30
0010
0000
1000
0000
0100
0001
0010
0000
,  // measure 31
1000
0000
0100
0000
0001
0000
0010
1000
,  // measure 32
0100
0000
0001
0010
1000
0100
0100
0000
,  // measure 33
1000
0000
0010
0000
0001
0100
1000
0000
,  // measure 34
0010
0000
0001
0000
0100
1000
0010
0000
,  // measure 35
0001
0000
0100
0000
1000
0000
0010
0001
,  // measure 36
0100
0000
0000
0000
1000
0000
0010
0000
0001
0000
0010
0000
0100
0000
0000
0100
,  // measure 37
0001
0000
0000
0001
0010
0000
0000
0010
0100
0000
0000
0100
1000
0000
0000
0010
,  // measure 38
0000
0000
1000
0000
0100
0000
0000
0000
1100
0000
0000
0000
0010
0000
0000
0010
,  // measure 39
0001
0000
0000
0001
0100
0000
0000
0100
0010
0000
0000
0010
1000
0000
0000
0100
,  // measure 40
0000
0000
1000
0000
0010
0000
0000
0000
1010
0000
0000
0000
0100
0000
0000
0100
,  // measure 41
0001
0000
0000
0001
0010
0000
0000
0010
0100
0000
0000
0100
1000
0000
0000
0010
,  // measure 42
0000
0000
1000
0000
0100
0000
0000
0000
1100
0000
0000
0000
0010
0000
0000
0010
,  // measure 43
0001
0000
0100
0000
0001
0000
0100
0000
0100
0001
0000
0000
0001
0000
0000
0100
,  // measure 44
0000
1000
0100
0000
0110
0000
0100
0001
,  // measure 45
0100
0001
0100
0010
0100
0010
1000
0010
,  // measure 46
1000
0010
1000
0000
1100
0000
0100
0010
,  // measure 47
0100
0010
0001
0010
0001
0010
0001
0100
,  // measure 48
0001
0100
0001
0000
0101
0000
0100
0010
,  // measure 49
0100
0010
1000
0001
1000
0001
1000
0100
,  // measure 50
1000
0100
0010
0000
0110
0000
0100
0010
,  // measure 51
0001
0000
0100
0000
0010
0000
0100
0000
0001
0100
0000
0000
0100
0000
0000
0010
,  // measure 52
0000
1000
0100
0000
0110
0000
0010
0000
,  // measure 53
0010
0010
0010
0010
,  // measure 54
0010
0000
0010
1000
0100
0001
0010
0000
,  // measure 55
0010
0010
0010
0010
,  // measure 56
0010
0001
0100
1000
0010
0000
0002
0000
,  // measure 57
0000
0000
0003
2000
,  // measure 58
0000
0000
3000
0000
;
