#VERSION:0.83;
#TITLE:It Feels So Good;
#SUBTITLE:;
#ARTIST:Sonique;
#TITLETRANSLIT:;
#SUBTITLETRANSLIT:;
#ARTISTTRANSLIT:;
#GENRE:Dance-Pop;
#ORIGIN:;
#TAGS:;
#CREDIT:chewi;
#BANNER:It Feels So Good.png;
#BACKGROUND:It Feels So Good-bg.png;
#PREVIEWVID:;
#JACKET:It Feels So Good-jacket.png;
#CDIMAGE:;
#DISCIMAGE:;
#LYRICSPATH:;
#CDTITLE:cdtitle.png;
#MUSIC:It Feels So Good.ogg;
#OFFSET:2.424000;
#SAMPLESTART:34.896000;
#SAMPLELENGTH:12.000000;
#SELECTABLE:YES;
#BPMS:0.000000=135.048004
;
#STOPS:;
#DELAYS:;
#WARPS:;
#TIMESIGNATURES:0.000000=4=4
;
#TICKCOUNTS:0.000000=4
;
#COMBOS:0.000000=1
;
#SPEEDS:0.000000=1.000000=0.000000=0
;
#SCROLLS:0.000000=1.000000
;
#FAKES:;
#LABELS:0.000000=Song Start
;
#BGCHANGES:4.000=It Feels So Good.mp4=1.000=1=0=1===CrossFade==,
211.000=It Feels So Good-bg.png=1.000=1=0=1===CrossFade==,
99999=-nosongbg-=1.000=0=0=0 // don't automatically add -songbackground-
;
#KEYSOUNDS:;
#ATTACKS:
;

//---------------dance-single - chewi----------------
#NOTEDATA:;
#CHARTNAME:chewi;
#CHARTHASH:1886487350;
#STEPSTYPE:dance-single;
#BANNER:;
#DESCRIPTION:chewi;
#CHARTSTYLE:;
#DIFFICULTY:Beginner;
#METER:1;
#METERF:0.000000;
#LASTSECONDHINT:91.320435;
#RADARVALUES:0.000000,0.000000,0.000000,0.000000,0.000000,0.000000,0.000000,0.000000,0.000000,0.000000,0.000000,0.000000,0.000000,0.000000,0.000000,0.000000,0.000000,0.000000,0.000000,0.000000,0.000000,0.000000,0.000000,0.000000,0.000000,0.000000,0.000000,0.000000;
#CREDIT:chewi;
#NOTES:
0000
0000
0000
0000
,
0000
0000
0000
0000
,
0000
0000
0000
0000
,
0000
0000
0000
0000
,
0000
0000
0000
0000
,
1000
0000
0100
0000
,
0001
0000
0000
0000
,
0001
0000
0100
0000
,
1000
0000
0000
0000
,
1000
0000
0010
0000
,
0001
0000
0000
0000
,
0001
0000
0010
0000
,
1000
0000
0000
0000
,
0002
0000
0000
0003
,
0001
0000
0001
0000
,
0020
0000
0000
0030
,
0010
0000
0010
0000
,
0200
0000
0000
0300
,
0100
0000
0100
0000
,
2000
0000
0000
3000
,
1000
0000
0001
0000
,
1001
0000
0000
0000
,
0100
0000
0100
0000
,
0010
0000
0000
0000
,
0010
0000
0010
0000
,
0100
0000
0000
0000
,
1000
0000
1000
0000
,
0100
0000
0000
0000
,
0100
0000
0100
0000
,
0010
0000
0000
0000
,
0010
0000
0010
0000
,
0001
0000
0000
0000
,
0001
0000
1000
0000
,
1000
0000
0000
0000
,
0001
0000
0010
0000
,
1000
0000
0100
0000
,
0001
0000
0010
0000
,
1000
0000
1000
0000
,
0010
0000
0010
0000
,
1000
1000
1000
0000
,
0100
0000
0000
0000
,
0001
0000
0001
0000
,
0100
0000
0100
0000
,
1000
0000
1000
0000
,
0100
0100
0100
0000
,
0100
0000
0010
0000
,
0100
0000
0001
0000
,
1000
0000
0001
0000
,
0010
0010
0010
0000
,
0001
0000
0010
0000
,
0100
0000
1000
0000
,
0001
0000
1000
0000
,
0010
0010
0010
0010
;

//---------------dance-single - chewi----------------
#NOTEDATA:;
#CHARTNAME:chewi;
#CHARTHASH:2147483647;
#STEPSTYPE:dance-single;
#BANNER:;
#DESCRIPTION:chewi;
#CHARTSTYLE:;
#DIFFICULTY:Easy;
#METER:3;
#METERF:0.000000;
#LASTSECONDHINT:91.320435;
#RADARVALUES:0.000000,0.000000,0.000000,0.000000,0.000000,0.000000,0.000000,0.000000,0.000000,0.000000,0.000000,0.000000,0.000000,0.000000,0.000000,0.000000,0.000000,0.000000,0.000000,0.000000,0.000000,0.000000,0.000000,0.000000,0.000000,0.000000,0.000000,0.000000;
#CREDIT:chewi;
#NOTES:
0000
0000
0000
0000
,
0000
0000
0000
0000
,
0000
0000
0000
0000
,
0000
0000
0000
0000
,
0000
0000
0000
0000
,
1000
1000
0100
0000
,
0100
0100
0010
0000
,
0010
0010
0001
0000
,
0001
0001
0001
0000
,
0001
0001
0100
0000
,
0100
0100
0010
0000
,
0010
0010
1000
0000
,
1000
1000
1000
0000
,
1000
0100
0001
0100
,
1000
0000
0001
0000
,
1000
0010
0001
0010
,
1000
0000
0010
0000
,
0100
0001
0100
1000
,
0100
0000
0001
0000
,
0010
0100
0010
0001
,
0010
0010
0010
0010
,
0110
0100
0000
0100
,
0010
0100
1000
0001
,
1000
0001
0000
0001
,
0001
1000
0010
0100
,
0001
0001
0000
0001
,
0100
0010
1000
0001
,
1000
0001
0000
0001
,
0001
0010
0100
1000
,
0100
0100
0000
1000
,
1000
0100
0010
0001
,
1000
1000
0000
0001
,
0001
1000
0001
0100
,
0001
0001
0000
0100
,
0100
0010
0100
0001
,
0100
0100
0001
0001
,
0010
0010
0100
0100
,
0110
0010
0000
0010
,
0100
0010
0001
1000
,
0001
1000
0000
1000
,
1000
0001
0100
0010
,
1000
1000
0000
1000
,
0010
0100
0001
1000
,
0001
1000
0000
1000
,
1000
0100
0010
0001
,
0010
0010
0000
0001
,
0001
0010
0100
1000
,
0001
0001
0000
1000
,
1000
0001
1000
0010
,
1000
1000
0000
0010
,
0010
0100
0010
1000
,
0010
0010
1000
1000
,
0100
0100
0010
0010
;

//---------------dance-single - chewi----------------
#NOTEDATA:;
#CHARTNAME:chewi;
#CHARTHASH:1622417427;
#STEPSTYPE:dance-single;
#BANNER:;
#DESCRIPTION:chewi;
#CHARTSTYLE:;
#DIFFICULTY:Medium;
#METER:5;
#METERF:0.000000;
#LASTSECONDHINT:91.320435;
#RADARVALUES:0.000000,0.000000,0.000000,0.000000,0.000000,0.000000,0.000000,0.000000,0.000000,0.000000,0.000000,0.000000,0.000000,0.000000,0.000000,0.000000,0.000000,0.000000,0.000000,0.000000,0.000000,0.000000,0.000000,0.000000,0.000000,0.000000,0.000000,0.000000;
#CREDIT:chewi;
#NOTES:
0000
0000
0000
0000
,
0000
0000
0000
0000
,
0000
0000
0000
0000
,
0000
0000
0000
0000
,
0000
0000
0000
0000
,
0000
0010
0000
0010
0000
0100
0000
0100
,
0000
0010
0000
0010
0000
1000
0000
1000
,
0000
0010
0000
0010
0000
0100
0000
0101
,
0000
0101
0000
0011
0000
0011
0000
0001
,
0000
0010
0000
0010
0000
0100
0000
0100
,
0000
0001
0000
0001
0000
0100
0000
0100
,
0000
1000
0000
1000
0000
0010
0000
0010
,
0000
1010
0000
1010
0000
0110
0000
0100
,
0020
1000
0100
1030
,
0020
0001
0100
0031
,
0020
0100
1000
0130
,
0001
0010
0100
1000
,
0200
0001
0010
0301
,
0200
1000
0010
1300
,
0200
0000
0000
0300
,
1100
1100
0101
0101
,
0100
0000
0001
0000
0000
0100
0001
0000
,
0100
0000
0010
0000
0000
0100
0010
0000
,
1000
0000
0010
0000
0000
1000
0010
0000
,
1010
1010
0011
0011
,
0010
0000
0001
0000
0000
0010
0001
0000
,
0010
0000
0100
0000
0000
0010
0100
0000
,
1000
0000
0100
0000
0000
1000
0100
0000
,
1100
1100
0101
0101
,
0001
0000
1000
0000
0000
0001
1000
0000
,
0100
0000
0010
0000
0000
0100
0010
0000
,
0001
0000
0010
0000
0000
0001
0010
0000
,
0011
0011
1010
1010
,
1000
0000
0001
0000
0000
1000
0001
0000
,
0100
0000
0010
0000
0000
0100
0010
0000
,
1000
0000
0010
0000
0000
1000
0010
0000
,
1010
1010
0011
0011
,
0001
0010
0001
0010
,
0001
0010
1000
0100
,
0001
0010
0001
0000
,
0100
0001
0100
0001
,
1000
0100
1000
0100
,
1000
0100
0001
0010
,
1000
0100
1000
0000
,
0100
0010
0100
0010
,
0001
0100
0001
0100
,
1000
0010
0001
0100
,
1000
0100
1000
0000
,
0001
0010
0001
0000
,
0100
0010
0100
0010
,
1000
0100
1000
0100
,
0001
0010
1000
0100
,
0001
0010
1000
0100
;

//---------------dance-single - chewi----------------
#NOTEDATA:;
#CHARTNAME:chewi;
#CHARTHASH:1826929587;
#STEPSTYPE:dance-single;
#BANNER:;
#DESCRIPTION:chewi;
#CHARTSTYLE:;
#DIFFICULTY:Hard;
#METER:7;
#METERF:0.000000;
#LASTSECONDHINT:91.320435;
#RADARVALUES:0.463856,0.447788,0.106111,0.000000,0.000000,306.000000,296.000000,10.000000,0.000000,0.000000,0.000000,0.000000,0.000000,0.000000,0.463856,0.447788,0.106111,0.000000,0.000000,306.000000,296.000000,10.000000,0.000000,0.000000,0.000000,0.000000,0.000000,0.000000;
#CREDIT:chewi;
#NOTES:
// measure 0
0000
0000
0000
0000
,  // measure 1
0000
0000
0000
0000
,  // measure 2
0000
0000
0000
0000
,  // measure 3
0000
0000
0000
0000
,  // measure 4
0000
0000
0000
0000
,  // measure 5
0001
0000
0010
0000
0100
0010
0001
0000
,  // measure 6
0100
0001
0100
0000
0001
0100
0001
0000
,  // measure 7
0100
0000
0010
0000
0100
0010
0001
0000
,  // measure 8
0010
0100
0000
0101
0000
0011
0000
0000
,  // measure 9
1000
0000
0010
0000
0100
0010
1000
0000
,  // measure 10
0100
1000
0100
0000
1000
0100
1000
0000
,  // measure 11
0100
0000
0010
0000
0100
0010
1000
0000
,  // measure 12
0010
0100
0000
1100
0000
1010
0000
0000
,  // measure 13
0001
0000
0100
0000
0010
0100
0001
0000
,  // measure 14
0010
0001
0010
0000
0001
0010
0001
0000
,  // measure 15
0010
0000
0100
0000
0010
0100
0001
0000
,  // measure 16
0100
0010
0000
0011
0000
0101
0000
0000
,  // measure 17
1000
0000
0100
0000
0010
0100
1000
0000
,  // measure 18
0010
1000
0010
0000
1000
0010
1000
0000
,  // measure 19
0010
0000
0000
0000
,  // measure 20
0110
0110
1001
1001
,  // measure 21
1000
0100
0001
0100
0000
1000
0010
0000
,  // measure 22
1000
0010
0001
0010
0000
1000
0100
0000
,  // measure 23
0100
0010
0100
1000
0000
0001
0010
0000
,  // measure 24
0010
0001
0010
0001
1000
0001
1000
0000
,  // measure 25
1000
0010
0001
0010
0000
1000
0100
0000
,  // measure 26
1000
0100
0001
0100
0000
1000
0010
0000
,  // measure 27
0010
0100
0010
1000
0000
0001
0100
0000
,  // measure 28
0100
0001
0100
0001
1000
0001
1000
0000
,  // measure 29
0001
0010
1000
0010
0000
0001
0100
0000
,  // measure 30
0001
0100
1000
0100
0000
0001
0010
0000
,  // measure 31
0010
0100
0010
0001
0000
1000
0100
0000
,  // measure 32
0100
1000
0100
1000
0001
1000
0001
0000
,  // measure 33
0001
0100
1000
0100
0000
0001
0010
0000
,  // measure 34
0001
0010
1000
0010
0000
0001
0100
0000
,  // measure 35
0100
0010
0100
0001
0000
1000
0010
0000
,  // measure 36
0010
1000
0010
1000
0001
1000
0001
0000
,  // measure 37
1000
0100
0010
0100
1000
0010
0100
0010
,  // measure 38
1000
0100
0010
0100
1000
0010
0100
0000
,  // measure 39
0001
0100
0010
0100
0001
0010
0100
0010
,  // measure 40
0001
0100
0010
0100
0001
0010
0100
0000
,  // measure 41
0100
1000
0100
0001
0100
1000
0100
0001
,  // measure 42
0100
1000
0010
0100
0001
0100
0010
0000
,  // measure 43
0100
0001
0100
1000
0100
0001
0100
1000
,  // measure 44
0100
0001
0010
0100
1000
0100
0010
0000
,  // measure 45
0010
1000
0010
0001
0010
1000
0010
0001
,  // measure 46
0010
0100
1000
0010
0100
0001
0010
0000
,  // measure 47
0010
0001
0010
1000
0010
0001
0010
1000
,  // measure 48
0010
0001
0100
0010
1000
0010
0100
0000
,  // measure 49
0001
0100
0010
0100
0001
0010
0100
0010
,  // measure 50
0001
0100
0010
0100
0001
0010
0100
0000
,  // measure 51
1000
0100
0010
0100
1000
0010
0100
0010
,  // measure 52
1000
0100
0010
0100
1000
0010
0100
0000
;
