#VERSION:0.83;
#TITLE:Hasta Cuando;
#SUBTITLE:;
#ARTIST:Kali Uchis;
#TITLETRANSLIT:;
#SUBTITLETRANSLIT:;
#ARTISTTRANSLIT:;
#GENRE:Contemporary R&B;
#ORIGIN:;
#TAGS:;
#CREDIT:chewi;
#BANNER:Hasta Cuando.png;
#BACKGROUND:Hasta Cuando-bg.png;
#PREVIEWVID:;
#JACKET:Hasta Cuando-jacket.png;
#CDIMAGE:;
#DISCIMAGE:;
#LYRICSPATH:;
#CDTITLE:cdtitle.png;
#MUSIC:Hasta Cuando.ogg;
#OFFSET:2.636000;
#SAMPLESTART:41.000000;
#SAMPLELENGTH:12.000000;
#SELECTABLE:YES;
#BPMS:0.000000=91.000000
;
#STOPS:64.000000=1.319000
;
#DELAYS:;
#WARPS:;
#TIMESIGNATURES:0.000000=4=4
;
#TICKCOUNTS:0.000000=4
;
#COMBOS:0.000000=1
;
#SPEEDS:0.000000=1.000000=0.000000=0
;
#SCROLLS:0.000000=1.000000
;
#FAKES:;
#LABELS:0.000000=Song Start
;
#BGCHANGES:4.000=Hasta Cuando.mp4=1.000=1=0=1===CrossFade==,
194.000=Hasta Cuando-bg.png=1.000=1=0=1===CrossFade==,
99999=-nosongbg-=1.000=0=0=0 // don't automatically add -songbackground-
;
#KEYSOUNDS:;
#ATTACKS:
;

//---------------dance-single - chewi----------------
#NOTEDATA:;
#CHARTNAME:chewi;
#CHARTHASH:53189865;
#STEPSTYPE:dance-single;
#BANNER:;
#DESCRIPTION:chewi;
#CHARTSTYLE:;
#DIFFICULTY:Beginner;
#METER:1;
#METERF:0.000000;
#LASTSECONDHINT:123.957733;
#RADARVALUES:0.000000,0.000000,0.000000,0.000000,0.000000,0.000000,0.000000,0.000000,0.000000,0.000000,0.000000,0.000000,0.000000,0.000000,0.000000,0.000000,0.000000,0.000000,0.000000,0.000000,0.000000,0.000000,0.000000,0.000000,0.000000,0.000000,0.000000,0.000000;
#CREDIT:chewi;
#NOTES:
0000
0000
0000
0000
,
0000
0000
0000
0000
,
0000
0000
0000
0000
,
0000
0000
0000
0000
,
0000
0000
0000
0000
,
1000
0000
0000
0000
,
0010
0000
0000
0000
,
0001
0000
0000
0000
,
0100
0000
0000
0000
,
1000
0000
0000
0000
,
0100
0000
0000
0000
,
0001
0000
0000
0000
,
0010
0000
0000
0000
,
0020
0000
0000
0030
,
0010
0000
0000
0000
,
0200
0000
0000
0300
,
0100
0000
0110
0000
,
0000
0000
0010
0000
,
0000
0000
1000
0000
,
0000
0000
0100
0000
,
0000
0000
0010
0000
,
0000
0000
0001
0000
,
0000
0000
1000
0000
,
0000
0000
0001
0000
,
0000
0000
0010
0000
,
0000
0000
0100
0000
,
0000
0000
0010
0000
,
0000
0000
0001
0000
,
0000
0000
0100
0000
,
0000
0000
0010
0000
,
0000
0000
0100
0000
,
0000
0000
0001
0000
,
0000
0000
1000
0000
,
0000
0000
0100
0000
,
0000
0000
0010
0000
,
0000
0000
0001
0000
,
0000
0000
1000
0000
,
0000
0000
0010
0000
,
0000
0000
0100
0000
,
0000
0000
0001
0000
,
0000
0000
1000
0000
,
0000
0000
0001
0000
,
0000
0000
0010
0000
,
0000
0000
0100
0000
,
0000
0000
2000
0000
,
0000
3000
1000
0000
,
0000
0000
0002
0000
,
0000
0003
0001
0000
;

//---------------dance-single - chewi----------------
#NOTEDATA:;
#CHARTNAME:chewi;
#CHARTHASH:2467323977;
#STEPSTYPE:dance-single;
#BANNER:;
#DESCRIPTION:chewi;
#CHARTSTYLE:;
#DIFFICULTY:Easy;
#METER:2;
#METERF:0.000000;
#LASTSECONDHINT:126.595093;
#RADARVALUES:0.000000,0.000000,0.000000,0.000000,0.000000,0.000000,0.000000,0.000000,0.000000,0.000000,0.000000,0.000000,0.000000,0.000000,0.000000,0.000000,0.000000,0.000000,0.000000,0.000000,0.000000,0.000000,0.000000,0.000000,0.000000,0.000000,0.000000,0.000000;
#CREDIT:chewi;
#NOTES:
0000
0000
0000
0000
,
0000
0000
0000
0000
,
0000
0000
0000
0000
,
0000
0000
0000
0000
,
0000
0000
0000
0000
,
1000
0010
0000
0010
,
0100
0001
0000
0001
,
0100
0010
0000
0010
,
1000
0100
0000
0100
,
0010
0001
0000
0001
,
1000
0100
0000
0100
,
1000
0010
0000
1000
,
0010
0100
0000
0001
,
1001
0000
0000
0000
,
0110
0000
0000
0000
,
1001
0000
0000
0000
,
0000
0000
0010
0010
,
0010
0000
0100
0001
,
0100
0000
0010
1000
,
0010
0000
1000
1000
,
1000
0000
0100
0100
,
0100
0000
0010
0100
,
1000
0000
0010
0100
,
0001
0000
0001
0001
,
0001
0000
0002
0000
,
0000
0003
0020
0000
,
0000
0030
0001
0010
,
0010
0000
0010
0010
,
0001
0000
0200
0000
,
0000
0300
0002
0000
,
0000
0003
0100
0100
,
0001
0000
0001
0001
,
0100
0000
1001
0000
,
0000
0000
0110
0000
,
0000
0000
1001
0000
,
0000
0000
0110
0000
,
0010
0000
0110
0000
,
0000
0000
1001
0000
,
0000
0000
0110
0000
,
0000
0000
1001
0000
,
0000
0000
0001
0001
,
0010
0000
1000
0000
,
0100
0000
0001
0001
,
0100
0000
1000
0000
,
0010
0000
0200
0000
,
0000
0300
0020
0000
,
0000
0030
2000
0000
,
0000
3000
0002
0000
,
0000
0000
0003
0000
;

//---------------dance-single - chewi----------------
#NOTEDATA:;
#CHARTNAME:chewi;
#CHARTHASH:4138071751;
#STEPSTYPE:dance-single;
#BANNER:;
#DESCRIPTION:chewi;
#CHARTSTYLE:;
#DIFFICULTY:Medium;
#METER:4;
#METERF:0.000000;
#LASTSECONDHINT:126.430252;
#RADARVALUES:0.000000,0.000000,0.000000,0.000000,0.000000,0.000000,0.000000,0.000000,0.000000,0.000000,0.000000,0.000000,0.000000,0.000000,0.000000,0.000000,0.000000,0.000000,0.000000,0.000000,0.000000,0.000000,0.000000,0.000000,0.000000,0.000000,0.000000,0.000000;
#CREDIT:chewi;
#NOTES:
0000
0000
0000
0000
,
0000
0000
0000
0000
,
0000
0000
0000
0000
,
0000
0000
0000
0000
,
0000
0000
0000
0000
,
0001
0000
0000
0000
0100
0000
0000
0000
0010
0000
0000
1000
0001
0000
0000
0000
,
0010
0000
0000
0000
0100
0000
0000
0000
1000
0000
0000
0001
0010
0000
0000
0000
,
1000
0000
0000
0000
0010
0000
0000
0000
0100
0000
0000
0001
1000
0000
0000
0000
,
0100
0000
0000
0000
0010
0000
0000
0000
0001
0000
0000
1000
0100
0000
0000
0000
,
1000
0000
0000
0000
0010
0000
0000
0000
0100
0000
0000
0001
1000
0000
0000
0000
,
0100
0000
0000
0000
0010
0000
0000
0000
0001
0000
0000
1000
0100
0000
0000
0000
,
0001
0000
0000
0000
0100
0000
0000
0000
0010
0000
0000
1000
0001
0000
0000
0000
,
0010
0000
0000
0000
0100
0000
0000
0000
1000
0000
0000
0001
0010
0000
0000
0000
,
0012
0000
0100
0100
,
0203
1000
1000
0010
,
0320
0000
2030
0000
,
3000
1000
1000
0100
,
1000
0100
1000
0000
0010
0000
0100
0000
,
0010
0100
0010
0000
0100
0000
0010
0000
,
0100
0010
0100
0000
0000
0000
1000
0000
,
0001
1000
0001
0000
0001
0000
0010
0000
,
0001
0010
0001
0000
0100
0000
0010
0000
,
0100
0010
0100
0000
0010
0000
0100
0000
,
0010
0100
0010
0000
1000
0000
0001
0000
,
1000
0001
1000
0000
0102
0000
1000
0000
,
0013
0100
2100
0010
,
3100
0010
0001
1000
,
0010
0100
0001
1000
,
0100
0010
0020
0000
,
0030
0001
2000
0000
,
3000
0010
0200
0000
,
0300
0000
0000
0100
0000
0000
0000
0000
,
0000
0001
1000
0000
0001
1000
0000
0000
0002
0000
0000
0000
0010
0000
0000
0000
,
0100
0100
0103
0000
0200
0000
1000
0000
,
0010
0010
0310
0000
0020
0000
1030
0000
,
0010
0010
0010
0000
0000
1000
0000
0000
,
0010
0010
0010
0000
2000
0000
0100
0000
,
0010
0010
3010
0000
0020
0000
0001
0000
,
0100
0100
0130
0000
0200
0000
0301
0000
,
0010
0010
0010
0000
0200
0000
1300
0000
,
0010
0010
0010
0000
0000
0010
0000
0100
,
0100
0101
1000
1100
,
0001
0000
0011
0000
0010
0100
0000
0000
,
0100
1000
0000
0000
1000
0010
0000
0000
,
0010
0100
0000
0000
1002
0000
0000
0000
,
0000
0000
0023
0000
,
0000
0000
0230
0000
,
0000
0000
2300
0000
,
3000
0001
1000
0000
0001
2000
0000
3000
0000
0000
0000
0000
0000
0000
0000
0000
;

//---------------dance-single - chewi----------------
#NOTEDATA:;
#CHARTNAME:chewi;
#CHARTHASH:2352652860;
#STEPSTYPE:dance-single;
#BANNER:;
#DESCRIPTION:chewi;
#CHARTSTYLE:;
#DIFFICULTY:Hard;
#METER:6;
#METERF:0.000000;
#LASTSECONDHINT:126.595093;
#RADARVALUES:0.238777,0.300240,0.054167,0.116072,0.092858,216.000000,209.000000,7.000000,15.000000,0.000000,0.000000,0.000000,0.000000,0.000000,0.238777,0.300240,0.054167,0.116072,0.092858,216.000000,209.000000,7.000000,15.000000,0.000000,0.000000,0.000000,0.000000,0.000000;
#CREDIT:chewi;
#NOTES:
// measure 0
0000
0000
0000
0000
,  // measure 1
0000
0000
0000
0000
,  // measure 2
0000
0000
0000
0000
,  // measure 3
0000
0000
0000
0000
,  // measure 4
0000
0000
0000
0000
,  // measure 5
1000
0000
0001
0000
0100
0000
0000
0000
0010
0000
0000
1000
0001
0000
0000
0000
,  // measure 6
1000
0000
0001
0000
0010
0000
0000
0000
0100
0000
0000
1000
0001
0000
0000
0000
,  // measure 7
1000
0000
0001
0000
1000
0000
0000
0000
0010
0000
0000
1000
0010
0000
0000
0000
,  // measure 8
1000
0000
0100
0000
0010
0000
0000
0000
0100
0000
0010
0000
0100
0010
0000
0000
,  // measure 9
0001
0000
1000
0000
0010
0000
0000
0000
0100
0000
0000
0001
1000
0000
0000
0000
,  // measure 10
0001
0000
1000
0000
0100
0000
0000
0000
0010
0000
0000
0001
1000
0000
0000
0000
,  // measure 11
0001
0000
1000
0000
0001
0000
0000
0000
0100
0000
0000
0001
0100
0000
0000
0000
,  // measure 12
0001
0000
0010
0000
0100
0000
0000
0000
0100
0010
0100
0000
0010
0100
0000
0000
,  // measure 13
0020
0000
0000
0030
,  // measure 14
2000
0000
0000
3000
,  // measure 15
0002
0000
0000
0000
,  // measure 16
0003
0000
0000
0000
1000
0001
0000
0000
1000
0000
0001
0000
1000
0000
0001
0000
,  // measure 17
0100
0010
1000
0000
0100
1000
0100
1000
,  // measure 18
0010
0000
0100
0000
0001
0000
0100
0000
0000
0000
0001
0000
0000
1000
0000
0000
,  // measure 19
0001
0000
0001
0000
0001
0000
0000
0000
0000
0000
0010
0000
0000
0100
0000
0000
,  // measure 20
1000
0100
1000
0000
0100
0000
0001
0000
0100
0000
0010
0000
0001
0000
1000
0000
,  // measure 21
0100
0000
0000
1000
0000
0001
0100
0001
,  // measure 22
0010
0000
0100
0000
1000
0000
0100
0000
0000
0000
1000
0000
0000
0010
0000
0000
,  // measure 23
1000
0000
1000
0000
1000
0000
0000
0000
0000
0000
0010
0000
0000
0100
0000
0000
,  // measure 24
0001
0001
0100
0200
0000
0000
0000
1300
,  // measure 25
0000
0000
0100
0002
0000
0000
0000
0013
,  // measure 26
0000
0100
1000
0020
0000
0000
0000
1030
,  // measure 27
0000
0000
0000
1010
0000
0000
0000
0000
,  // measure 28
1000
0010
0100
2000
0000
0000
0000
3100
,  // measure 29
0000
0000
0010
0020
0000
0000
0000
1030
,  // measure 30
0000
0001
1000
0002
0000
0000
0000
0000
,  // measure 31
1003
0000
0000
1001
0000
0000
0000
0000
,  // measure 32
0000
0001
1000
0000
0001
1000
0000
0000
0001
0000
0000
0000
0010
0000
0000
0000
,  // measure 33
1000
0100
0001
0000
0010
0000
1000
0000
,  // measure 34
0100
0001
0010
0000
1000
0100
0001
0000
,  // measure 35
0001
0100
1000
0000
1000
0000
1001
0000
,  // measure 36
0001
1000
0001
0000
1000
0001
0000
0000
0001
0000
0000
0000
0100
0000
0000
0000
,  // measure 37
1000
0010
0001
0000
0100
0000
1000
0000
,  // measure 38
0010
0001
0100
0000
1000
0010
0001
0000
,  // measure 39
0001
0010
1000
0000
1000
0000
1001
0000
,  // measure 40
0001
0000
1000
0000
0001
1000
0000
0000
0001
0000
0000
0000
0101
0000
0000
0000
,  // measure 41
0100
0001
1000
0000
0010
0000
1010
0000
,  // measure 42
1000
0001
0010
0100
0010
0000
0001
0000
,  // measure 43
0100
0100
0100
0000
0010
0000
1000
0000
,  // measure 44
0000
0010
1000
0000
0010
1000
0000
0000
1020
0000
0000
0000
0000
0000
0000
0000
,  // measure 45
0000
0000
0230
0000
,  // measure 46
0000
0000
0302
0000
,  // measure 47
0000
0000
2003
0000
,  // measure 48
3000
0001
1000
0000
0001
2000
0002
0000
3003
0000
0000
0000
0000
0000
0000
0000
;
