#VERSION:0.83;
#TITLE:GALA;
#SUBTITLE:;
#ARTIST:XG;
#TITLETRANSLIT:;
#SUBTITLETRANSLIT:;
#ARTISTTRANSLIT:;
#GENRE:House;
#ORIGIN:;
#TAGS:;
#CREDIT:chewi;
#BANNER:GALA.png;
#BACKGROUND:GALA-bg.png;
#PREVIEWVID:;
#JACKET:GALA-jacket.png;
#CDIMAGE:;
#DISCIMAGE:;
#LYRICSPATH:;
#CDTITLE:;
#MUSIC:GALA.ogg;
#OFFSET:1.832000;
#SAMPLESTART:60.458000;
#SAMPLELENGTH:12.000000;
#SELECTABLE:YES;
#BPMS:0.000000=131.000000
,100.000000=65.500000
,108.000000=131.000000
;
#STOPS:;
#DELAYS:;
#WARPS:;
#TIMESIGNATURES:0.000000=4=4
;
#TICKCOUNTS:0.000000=4
;
#COMBOS:0.000000=1
;
#SPEEDS:0.000000=1.000000=0.000000=0
;
#SCROLLS:0.000000=1.000000
;
#FAKES:;
#LABELS:0.000000=Song Start
;
#BGCHANGES:4.000=GALA.mp4=1.000=1=0=1===CrossFade==,
187.000=GALA-bg.png=1.000=1=0=1===CrossFade==,
99999=-nosongbg-=1.000=0=0=0 // don't automatically add -songbackground-
;
#KEYSOUNDS:;
#ATTACKS:
;

//---------------dance-single - chewi----------------
#NOTEDATA:;
#CHARTNAME:chewi;
#CHARTHASH:2147483647;
#STEPSTYPE:dance-single;
#BANNER:;
#DESCRIPTION:chewi;
#CHARTSTYLE:;
#DIFFICULTY:Beginner;
#METER:1;
#METERF:0.000000;
#LASTSECONDHINT:87.480972;
#RADARVALUES:0.000000,0.000000,0.000000,0.000000,0.000000,0.000000,0.000000,0.000000,0.000000,0.000000,0.000000,0.000000,0.000000,0.000000,0.000000,0.000000,0.000000,0.000000,0.000000,0.000000,0.000000,0.000000,0.000000,0.000000,0.000000,0.000000,0.000000,0.000000;
#CREDIT:chewi;
#NOTES:
0000
0000
0000
0000
,
0000
0000
0000
0000
,
0000
0000
0000
0000
,
0000
0000
0000
0000
,
0000
0000
0000
0000
,
0100
0000
0100
0000
,
0010
0000
0010
0000
,
1000
0000
1000
0000
,
0001
0000
0001
0000
,
0000
0001
0000
0001
,
0000
1000
0000
1000
,
0000
0001
0000
0001
,
0000
0100
0000
0100
,
0000
0001
0000
0001
,
0000
1000
0000
1000
,
0000
0010
0000
0010
,
0000
0100
0000
0100
,
0100
0000
0100
0000
,
0010
0000
0010
0000
,
1000
0000
1000
0000
,
0001
0000
0001
0000
,
1000
0000
1000
0000
,
0100
0000
0100
0000
,
0010
0000
0010
0000
,
0001
0000
0001
0000
,
0002
0000
0000
0003
,
2000
0000
0000
3000
,
0020
0000
0000
0030
,
0200
0000
0000
0300
,
0020
0000
0000
0030
,
2000
0000
0000
3000
,
0002
0000
0000
0000
,
0003
1000
0000
0100
,
0000
0010
0000
0001
,
0000
0001
0000
0100
,
0000
0010
0000
1000
,
0000
1000
0000
0010
,
0000
0100
0000
0001
,
0001
0000
0000
0000
,
0100
0100
0100
0000
,
0200
0000
0000
0300
,
0010
0010
0010
0000
,
0020
0000
0000
0030
,
0001
0001
0001
0000
,
0002
0000
0000
0003
,
1000
1000
1000
0000
,
2000
0000
3000
1000
;

//---------------dance-single - chewi----------------
#NOTEDATA:;
#CHARTNAME:chewi;
#CHARTHASH:1608170165;
#STEPSTYPE:dance-single;
#BANNER:;
#DESCRIPTION:chewi;
#CHARTSTYLE:;
#DIFFICULTY:Easy;
#METER:3;
#METERF:0.000000;
#LASTSECONDHINT:87.480972;
#RADARVALUES:0.000000,0.000000,0.000000,0.000000,0.000000,0.000000,0.000000,0.000000,0.000000,0.000000,0.000000,0.000000,0.000000,0.000000,0.000000,0.000000,0.000000,0.000000,0.000000,0.000000,0.000000,0.000000,0.000000,0.000000,0.000000,0.000000,0.000000,0.000000;
#CREDIT:chewi;
#NOTES:
0000
0000
0000
0000
,
0000
0000
0000
0000
,
0000
0000
0000
0000
,
0000
0000
0000
0000
,
0000
0000
0000
0000
,
0001
0010
0001
0000
,
0001
0100
0001
0000
,
1000
0010
1000
0000
,
1000
0100
1000
0000
,
1000
1000
0100
0000
,
0100
0100
0010
0000
,
0010
0010
0001
0000
,
0001
0001
0010
0000
,
0001
0001
0100
0000
,
0100
0100
0010
0000
,
0010
0010
1000
0000
,
1000
1000
0010
0000
,
1000
0100
1000
0100
,
1000
0010
1000
0010
,
1000
0100
1000
0010
,
1000
0100
0010
0001
,
0001
0100
0001
0100
,
0001
0010
0001
0010
,
0001
0100
0001
0010
,
0001
0100
0010
1000
,
0001
0000
0000
0000
,
0010
0000
0000
0000
,
0100
0000
0100
0000
,
0010
0000
0010
0000
,
0001
0001
0001
0000
,
1000
1000
1000
0000
,
1001
0000
0000
0000
,
1000
0001
0100
0000
,
0001
1000
0100
0000
,
1000
0001
0100
0010
,
1000
0010
1000
0000
,
0001
0010
0001
0000
,
0010
0100
1000
0000
,
0010
0100
0001
1000
,
0010
0010
0100
0100
,
0010
0100
0010
0000
,
0100
0100
0010
0010
,
0100
0010
1000
0000
,
1000
1000
0001
0001
,
1000
0001
0100
0000
,
0001
0001
0100
0100
,
0001
0100
0010
1000
;

//---------------dance-single - chewi----------------
#NOTEDATA:;
#CHARTNAME:chewi;
#CHARTHASH:514760947;
#STEPSTYPE:dance-single;
#BANNER:;
#DESCRIPTION:chewi;
#CHARTSTYLE:;
#DIFFICULTY:Medium;
#METER:6;
#METERF:0.000000;
#LASTSECONDHINT:87.480972;
#RADARVALUES:0.000000,0.000000,0.000000,0.000000,0.000000,0.000000,0.000000,0.000000,0.000000,0.000000,0.000000,0.000000,0.000000,0.000000,0.000000,0.000000,0.000000,0.000000,0.000000,0.000000,0.000000,0.000000,0.000000,0.000000,0.000000,0.000000,0.000000,0.000000;
#CREDIT:chewi;
#NOTES:
0000
0000
0000
0000
,
0000
0000
0000
0000
,
0000
0000
0000
0000
,
0000
0000
0000
0000
,
0000
0000
0000
0000
,
1000
0000
0000
0010
0000
0000
1000
0000
0000
0010
0000
0000
1000
0000
0000
0000
,
0000
0000
0000
0001
0000
0000
0100
0000
0000
0001
0000
0000
0100
0000
0000
0000
,
0000
0000
0000
0001
0000
0000
1000
0000
0000
0001
0000
0000
1000
0000
0000
0000
,
0000
0000
0000
0100
0000
0000
0010
0000
0000
0100
0000
0000
0010
0000
0000
0000
,
0100
0000
0110
0000
0010
0100
0010
0000
,
0100
0000
0110
0000
0100
1000
0100
0000
,
1000
0000
1001
0000
0001
1000
0001
0000
,
1000
0000
1001
0000
0001
1000
0001
0000
,
1000
0000
1010
0000
1000
0010
1000
0000
,
0010
0000
0110
0000
0010
0100
0010
0000
,
0100
0000
0101
0000
0100
0001
0100
0000
,
0001
0100
0001
0000
0100
0001
0100
0000
,
0001
0000
0010
0000
0100
0100
0100
0000
,
0010
0001
0100
0101
,
0100
0000
0010
0000
1000
1000
1000
0000
,
0100
0010
0100
0110
,
1000
0000
0001
0000
0010
0010
0010
0000
,
0100
0010
0001
1001
,
1000
0000
0010
0000
0100
0100
0100
0000
,
0010
1000
0001
1001
,
1000
0000
0000
1000
0000
0000
0000
0000
0000
0000
0001
0000
0000
0000
0000
0000
,
0000
0010
0010
0000
0100
0100
0000
0000
,
0010
0001
0010
1000
,
0010
0001
0100
1000
,
0010
0001
0010
1000
,
0010
0100
0001
1000
,
0001
0000
0000
1001
,
1000
0000
0000
0001
0000
0000
1000
0000
0000
0100
0000
0000
1000
0000
0000
0000
,
0000
0000
0000
0001
0000
0000
1000
0000
0000
0001
0000
0000
0100
0000
0000
0000
,
0100
0001
1000
0010
,
0010
0000
0000
1000
0000
0000
0010
0000
0000
1000
0000
0000
0100
0000
0000
0000
,
0000
0000
0000
1000
0000
0000
0100
0000
0000
1000
0000
0000
0100
0000
0000
0000
,
0000
0000
0000
0010
0000
0000
0001
0000
0000
0010
0000
0000
0001
0000
0000
0000
,
0001
0100
0010
1000
,
0000
0000
0000
0100
0000
0000
0010
0000
0000
0100
0000
0000
1000
0000
0000
0000
,
0000
0000
0000
0010
0000
0000
0010
0000
0000
0010
0000
0000
0010
0000
0000
0000
,
0000
0000
0000
1000
0000
0000
0010
0000
0000
0100
0000
0000
0001
0000
0000
0000
,
0000
0000
0000
0001
0000
0000
0001
0000
0000
0001
0000
0000
0001
0000
0000
0000
,
0000
0000
0000
1000
0000
0000
0001
0000
0000
1000
0000
0000
0001
0000
0000
0000
,
0000
0000
0000
0010
0000
0000
0100
0000
0000
0010
0000
0000
0100
0000
0000
0000
,
0000
0000
0000
0100
0000
0000
0010
0000
0000
0100
0000
0000
0010
0000
0000
0000
,
0001
0000
0000
1001
;

//---------------dance-single - chewi----------------
#NOTEDATA:;
#CHARTNAME:chewi;
#CHARTHASH:2147483647;
#STEPSTYPE:dance-single;
#BANNER:;
#DESCRIPTION:chewi;
#CHARTSTYLE:;
#DIFFICULTY:Hard;
#METER:8;
#METERF:0.000000;
#LASTSECONDHINT:87.480972;
#RADARVALUES:0.530545,0.575400,0.117729,0.000000,0.438808,347.000000,336.000000,11.000000,0.000000,0.000000,0.000000,0.000000,0.000000,0.000000,0.530545,0.575400,0.117729,0.000000,0.438808,347.000000,336.000000,11.000000,0.000000,0.000000,0.000000,0.000000,0.000000,0.000000;
#CREDIT:chewi;
#NOTES:
// measure 0
0000
0000
0000
0000
,  // measure 1
0000
0000
0000
0000
,  // measure 2
0000
0000
0000
0000
,  // measure 3
0000
0000
0000
0000
,  // measure 4
0000
0000
0000
0000
,  // measure 5
1000
0000
0001
1000
0000
0001
1000
0000
0001
1000
0000
0001
1000
0000
0000
0000
,  // measure 6
0010
0000
0100
0010
0000
0100
0010
0000
0100
0010
0000
0100
0010
0000
0000
0000
,  // measure 7
0100
0000
0001
0100
0000
0001
0100
0000
0001
0100
0000
0001
0100
0000
0000
0000
,  // measure 8
0001
0000
1000
0001
0000
1000
0001
0000
1000
0001
0000
1000
0001
0000
0000
0000
,  // measure 9
1000
0000
0100
0010
0100
0000
0000
0000
0100
0000
0010
0000
0011
0000
0000
0000
,  // measure 10
0100
0000
0010
0100
0001
0000
0000
0000
0100
0000
0001
0000
0101
0000
0000
0000
,  // measure 11
0100
0000
0010
1000
0100
0000
0000
0000
1000
0000
0100
0000
1100
0000
0000
0000
,  // measure 12
0100
0000
0010
0001
0010
0000
0000
0000
0100
0000
1000
0000
1100
0000
0000
0000
,  // measure 13
0001
0000
0100
0010
0100
0000
0000
0000
0100
0000
0010
0000
1010
0000
0000
0000
,  // measure 14
0100
0000
0010
0100
1000
0000
0000
0000
0100
0000
1000
0000
1100
0000
0000
0000
,  // measure 15
0100
0000
0010
0001
0100
0000
0000
0000
0001
0000
0100
0000
0101
0000
0000
0000
,  // measure 16
0100
0000
0010
1000
0010
0000
0000
0000
0100
0000
0001
0000
0101
0000
0000
0000
,  // measure 17
0100
0001
0100
0001
0010
0100
1000
0000
,  // measure 18
1000
0010
1000
0010
0100
0001
0010
0000
,  // measure 19
0001
0010
0100
0010
0001
0100
0010
0000
,  // measure 20
0100
0010
0100
0001
0010
0100
1000
0000
,  // measure 21
0010
1000
0010
1000
0100
0010
0001
0000
,  // measure 22
0001
0100
0001
0100
0010
1000
0100
0000
,  // measure 23
1000
0100
0010
0100
1000
0010
0100
0000
,  // measure 24
0010
0100
0010
1000
0100
0010
0001
0000
,  // measure 25
0001
1000
0001
1000
0000
0000
0000
0000
0000
0100
0010
0100
0010
0100
1000
0000
,  // measure 26
0000
0010
0100
0010
0100
0001
1000
0010
0000
1000
0001
0000
0000
0001
1000
0001
,  // measure 27
1000
0100
1000
0100
0010
0001
0010
0001
,  // measure 28
0100
0001
0100
0001
1000
0010
1000
0010
,  // measure 29
0100
0001
0100
1000
0100
0001
0010
0100
,  // measure 30
1000
0010
0100
0001
1000
0100
0010
0100
,  // measure 31
1000
0000
0000
0000
0000
0000
0100
1000
0100
1000
0100
0000
1100
0000
0000
0000
,  // measure 32
1000
0000
0010
1000
0000
0010
1000
0000
0010
1000
0000
0010
1000
0000
0000
0000
,  // measure 33
0100
0000
0010
0001
0000
0010
0001
0000
0010
0001
0000
0010
0001
0000
0000
0000
,  // measure 34
0010
0001
0010
0001
0100
0001
0100
0000
,  // measure 35
0001
0000
0100
0001
0000
0100
0001
0000
0100
0001
0000
0100
0001
0000
0000
0000
,  // measure 36
0010
0000
0100
1000
0000
0100
1000
0000
0100
1000
0000
0100
1000
0000
0000
0000
,  // measure 37
1000
0000
0010
1000
0000
0010
1000
0000
0010
1000
0000
0010
1000
0000
0000
0000
,  // measure 38
0010
1000
0010
1000
0100
1000
0100
0000
,  // measure 39
1000
0000
0100
0010
0000
0100
0010
0000
0100
0010
0000
0100
0010
0000
0000
0000
,  // measure 40
0001
0000
0100
0010
0000
0100
0010
0000
0100
0010
0000
0100
0010
0000
0000
0000
,  // measure 41
0100
0000
0001
0100
0000
0001
0100
0000
0001
0100
0000
0001
0100
0000
0000
0000
,  // measure 42
0100
0001
0010
0001
0100
0001
0101
0000
,  // measure 43
0001
0000
0010
0100
0000
0010
0100
0000
0010
0100
0000
0010
0100
0000
0000
0000
,  // measure 44
1000
0000
0010
0100
0000
0010
0100
0000
0010
0100
0000
0010
0100
0000
0000
0000
,  // measure 45
0010
0000
1000
0010
0000
1000
0010
0000
1000
0010
0000
1000
0010
0000
0000
0000
,  // measure 46
0010
1000
0100
1000
0010
1000
1010
0000
;
