#VERSION:0.83;
#TITLE:Crush;
#SUBTITLE:;
#ARTIST:Zara Larsson;
#TITLETRANSLIT:;
#SUBTITLETRANSLIT:;
#ARTISTTRANSLIT:;
#GENRE:Dance-Pop;
#ORIGIN:;
#TAGS:;
#CREDIT:chewi;
#BANNER:Crush.png;
#BACKGROUND:Crush-bg.png;
#PREVIEWVID:;
#JACKET:Crush-jacket.png;
#CDIMAGE:;
#DISCIMAGE:;
#LYRICSPATH:;
#CDTITLE:cdtitle.png;
#MUSIC:Crush.ogg;
#OFFSET:2.170000;
#SAMPLESTART:32.004002;
#SAMPLELENGTH:12.000000;
#SELECTABLE:YES;
#BPMS:0.000000=115.000000
,100.000000=57.500000
,116.000000=115.000000
;
#STOPS:;
#DELAYS:;
#WARPS:;
#TIMESIGNATURES:0.000000=4=4
;
#TICKCOUNTS:0.000000=4
;
#COMBOS:0.000000=1
;
#SPEEDS:0.000000=1.000000=0.000000=0
;
#SCROLLS:0.000000=1.000000
;
#FAKES:;
#LABELS:0.000000=Song Start
;
#BGCHANGES:4.000=Crush.mp4=1.000=1=0=1===CrossFade==,
211.000=Crush-bg.png=1.000=1=0=1===CrossFade==,
99999=-nosongbg-=1.000=0=0=0 // don't automatically add -songbackground-
;
#KEYSOUNDS:;
#ATTACKS:
;

//---------------dance-single - chewi----------------
#NOTEDATA:;
#CHARTNAME:chewi;
#CHARTHASH:2147483647;
#STEPSTYPE:dance-single;
#BANNER:;
#DESCRIPTION:chewi;
#CHARTSTYLE:;
#DIFFICULTY:Beginner;
#METER:1;
#METERF:0.000000;
#LASTSECONDHINT:116.264786;
#RADARVALUES:0.000000,0.000000,0.000000,0.000000,0.000000,0.000000,0.000000,0.000000,0.000000,0.000000,0.000000,0.000000,0.000000,0.000000,0.000000,0.000000,0.000000,0.000000,0.000000,0.000000,0.000000,0.000000,0.000000,0.000000,0.000000,0.000000,0.000000,0.000000;
#CREDIT:chewi;
#NOTES:
0000
0000
0000
0000
,
0000
0000
0000
0000
,
0000
0000
0000
0000
,
0000
0000
0000
0000
,
0000
0000
0000
0000
,
0000
1000
0000
1000
,
0000
0001
0000
0001
,
0000
1000
0000
1000
,
0000
0001
0000
0001
,
0001
0000
0000
0000
,
0100
0000
0000
0000
,
1000
0000
0000
0000
,
0100
0000
0000
0000
,
0001
0000
0000
0000
,
0010
0000
0000
0000
,
1000
0000
0000
0000
,
0010
0000
0000
0000
,
0010
0000
1000
0000
,
0010
0000
0000
0000
,
0100
0000
0001
0000
,
0100
0000
0000
0000
,
0001
0000
1000
0000
,
0001
0000
0000
0000
,
1000
0000
0001
0000
,
1000
0000
0000
0000
,
1000
0000
0000
0000
,
0010
0000
0000
0000
,
0100
0000
0000
0000
,
0001
0000
0000
0000
,
0100
0000
0001
0000
,
0100
0000
0000
0000
,
0100
0000
0010
0000
,
0100
0000
0000
0000
,
0010
0000
0100
0000
,
0010
0000
0000
0000
,
0010
0000
1000
0000
,
0010
0000
0000
0000
,
0010
0000
1000
0000
,
0010
0000
0000
0000
,
0100
0000
0001
0000
,
0100
0000
0000
0000
,
0001
0000
1000
0000
,
0001
0000
0000
0000
,
1000
0000
0001
0000
,
1000
0000
0000
0000
,
0100
0000
0001
0000
,
0100
0000
0000
0000
,
0010
0000
1000
0000
,
0010
0000
0000
0000
,
1000
0000
0001
0000
,
1000
0000
0000
0000
,
0001
0000
1000
0000
,
0001
0000
0000
0001
;

//---------------dance-single - chewi----------------
#NOTEDATA:;
#CHARTNAME:chewi;
#CHARTHASH:1981314141;
#STEPSTYPE:dance-single;
#BANNER:;
#DESCRIPTION:chewi;
#CHARTSTYLE:;
#DIFFICULTY:Easy;
#METER:3;
#METERF:0.000000;
#LASTSECONDHINT:116.264786;
#RADARVALUES:0.000000,0.000000,0.000000,0.000000,0.000000,0.000000,0.000000,0.000000,0.000000,0.000000,0.000000,0.000000,0.000000,0.000000,0.000000,0.000000,0.000000,0.000000,0.000000,0.000000,0.000000,0.000000,0.000000,0.000000,0.000000,0.000000,0.000000,0.000000;
#CREDIT:chewi;
#NOTES:
0000
0000
0000
0000
,
0000
0000
0000
0000
,
0000
0000
0000
0000
,
0000
0000
0000
0000
,
0000
0000
0000
0000
,
0000
1000
0000
0001
,
0000
0100
0000
0100
,
0000
0001
0000
1000
,
0000
0100
0000
0100
,
0200
0000
0310
0000
,
0020
0000
0031
0000
,
0002
0000
1003
0000
,
2000
0000
3000
0000
,
0002
0000
0103
0000
,
0200
0000
0310
0000
,
0010
0000
1000
0000
,
0100
0000
0000
0000
,
1000
0000
0100
0000
,
1000
0100
1000
0000
,
0002
0000
0013
0000
,
2000
0000
3010
0000
,
1000
0000
0010
0000
,
1000
0010
1000
0000
,
2000
0000
3100
0000
,
0002
0000
0103
0000
,
0100
0000
0100
0000
,
0010
0000
0010
0000
,
1000
0000
1000
0000
,
0001
0000
0001
0000
,
0001
0000
0000
0000
,
0010
0000
0000
0000
,
0100
0000
0000
0000
,
1000
0000
0000
0000
,
0001
0000
0010
0000
,
0100
0000
1000
0000
,
0001
0010
0100
1000
,
0001
0010
0100
0000
,
0000
1000
1000
0000
,
1000
0100
1000
0000
,
0002
0000
0013
0000
,
2000
0000
3010
0000
,
1000
0000
0010
0000
,
1000
0010
1000
0000
,
2000
0000
3100
0000
,
0002
0000
0103
0100
,
0001
0000
0010
0000
,
0001
0010
0001
0000
,
2000
0000
3100
0000
,
0002
0000
0103
0000
,
0001
0000
0100
0000
,
0001
0100
0001
0000
,
0002
0000
0013
0000
,
2000
0000
3010
0010
;

//---------------dance-single - chewi----------------
#NOTEDATA:;
#CHARTNAME:chewi;
#CHARTHASH:2147483647;
#STEPSTYPE:dance-single;
#BANNER:;
#DESCRIPTION:chewi;
#CHARTSTYLE:;
#DIFFICULTY:Medium;
#METER:5;
#METERF:0.000000;
#LASTSECONDHINT:116.264786;
#RADARVALUES:0.000000,0.000000,0.000000,0.000000,0.000000,0.000000,0.000000,0.000000,0.000000,0.000000,0.000000,0.000000,0.000000,0.000000,0.000000,0.000000,0.000000,0.000000,0.000000,0.000000,0.000000,0.000000,0.000000,0.000000,0.000000,0.000000,0.000000,0.000000;
#CREDIT:chewi;
#NOTES:
0000
0000
0000
0000
,
0000
0000
0000
0000
,
0000
0000
0000
0000
,
0000
0000
0000
0000
,
0000
0000
0000
0000
,
2000
0100
0000
3100
,
0002
0100
0000
0103
,
2000
0010
0000
3010
,
0002
0010
0000
0013
,
0001
0010
0200
1300
,
1000
0010
0200
0301
,
0100
0001
0001
0010
,
0100
1000
1000
0010
,
1000
0100
0020
0031
,
0001
0100
0020
1030
,
0010
1000
1000
0100
,
0020
0000
0000
0130
,
0110
0000
1000
0000
0001
0001
1000
0000
,
0100
0000
1000
0000
0001
0000
0010
0001
,
0002
0000
0003
0100
0200
0000
0300
0010
,
0020
0130
0010
0010
,
0100
0000
0001
0000
1000
1000
0100
0000
,
0010
0000
0100
0000
1000
0000
0001
1000
,
2000
0000
3000
0010
0020
0000
0030
0100
,
0200
0310
0100
0100
,
0010
1000
0100
0000
,
0010
0001
0100
0000
,
0100
0001
0010
0000
,
0100
1000
0010
0000
,
1000
0010
1000
0010
,
1000
0010
0100
0000
,
0100
0001
0100
0001
,
0010
0001
0010
0010
,
0010
0100
0010
0100
,
1000
0001
1000
0001
,
1000
0010
1000
0010
,
0010
0010
0000
0000
,
0000
0000
1001
0000
0001
0001
1000
0000
,
0010
0000
1000
0000
0001
0000
0100
0001
,
0002
0000
0003
0010
0020
0000
0030
0100
,
0200
0310
0100
0100
,
0010
0000
0001
0000
1000
1000
0010
0000
,
0100
0000
0010
0000
1000
0000
0001
1000
,
2000
0000
3000
0100
0200
0000
0300
0010
,
0020
0000
0130
0000
0010
0010
0010
0000
,
0110
0000
1000
0000
0001
0001
1000
0000
,
0010
0000
1000
0000
0001
0000
0100
0001
,
0002
0000
0003
0010
0020
0000
0030
0100
,
0200
0310
0100
0100
,
0010
0000
0001
0000
1000
1000
0010
0000
,
0100
0000
0010
0000
1000
0000
0001
1000
,
2000
0000
3000
0100
0200
0000
0300
0010
,
0020
0130
0010
0010
;

//---------------dance-single - chewi----------------
#NOTEDATA:;
#CHARTNAME:chewi;
#CHARTHASH:2147483647;
#STEPSTYPE:dance-single;
#BANNER:;
#DESCRIPTION:chewi;
#CHARTSTYLE:;
#DIFFICULTY:Hard;
#METER:7;
#METERF:0.000000;
#LASTSECONDHINT:116.264786;
#RADARVALUES:0.345125,0.406715,0.248441,0.077102,0.000000,282.000000,253.000000,29.000000,9.000000,0.000000,0.000000,0.000000,0.000000,0.000000,0.345125,0.406715,0.248441,0.077102,0.000000,282.000000,253.000000,29.000000,9.000000,0.000000,0.000000,0.000000,0.000000,0.000000;
#CREDIT:chewi;
#NOTES:
// measure 0
0000
0000
0000
0000
,  // measure 1
0000
0000
0000
0000
,  // measure 2
0000
0000
0000
0000
,  // measure 3
0000
0000
0000
0000
,  // measure 4
0000
0000
0000
0000
,  // measure 5
1000
0000
0010
0000
0100
0010
1000
0000
,  // measure 6
0100
0000
0010
0000
0001
0010
0100
0000
,  // measure 7
1000
0001
1000
0000
0001
1000
0001
0000
,  // measure 8
1000
0010
0100
0000
0001
0100
0010
0000
,  // measure 9
1000
0100
1000
0000
0100
0100
0100
0000
,  // measure 10
1000
0010
1000
0000
0010
0010
0010
0000
,  // measure 11
1000
0100
0010
0000
0010
0100
1000
0000
,  // measure 12
0001
0010
0100
0000
0010
0100
1000
0000
,  // measure 13
0001
0010
0001
0000
0010
0010
0010
0000
,  // measure 14
0001
0100
0001
0000
0100
0100
0100
0000
,  // measure 15
0100
0001
0100
0000
0010
1000
0010
0000
,  // measure 16
1001
0000
0000
0110
,  // measure 17
0001
0100
0001
0000
0100
0100
0001
0000
,  // measure 18
0010
0100
1000
0001
0010
0000
0100
0010
,  // measure 19
0110
0000
0010
0001
0011
0000
0001
0100
,  // measure 20
0101
0000
0100
0001
1000
0010
0100
0010
,  // measure 21
1000
0100
1000
0000
0100
0100
1000
0000
,  // measure 22
0010
0100
0001
1000
0010
0000
0100
0010
,  // measure 23
0110
0000
0010
1000
1010
0000
1000
0100
,  // measure 24
1100
0000
0100
1000
0001
0010
0100
0010
,  // measure 25
0002
0000
0023
0000
,  // measure 26
0230
0000
2300
0000
,  // measure 27
3020
0000
0230
0000
,  // measure 28
0302
0000
2003
0000
,  // measure 29
3100
0000
1000
0000
0100
1000
0100
1000
,  // measure 30
0100
1000
0010
0000
,  // measure 31
0100
0000
0001
0000
0010
0001
0010
0001
,  // measure 32
0010
0100
0110
0110
,  // measure 33
0110
0000
0000
0000
1000
0001
1000
0001
,  // measure 34
1000
1000
0001
0001
,  // measure 35
0100
0100
0010
0010
,  // measure 36
0010
0010
0010
0010
0010
0000
0000
0000
,  // measure 37
0000
0000
1000
0000
0010
0010
1000
0000
,  // measure 38
0100
0010
0001
1000
0100
0000
0010
0100
,  // measure 39
0110
0000
0100
1000
1100
0000
1000
0010
,  // measure 40
1010
0000
0010
1000
0001
0100
0010
0100
,  // measure 41
0001
0010
0001
0000
0010
0010
0001
0000
,  // measure 42
0100
0010
1000
0001
0100
0000
0010
0100
,  // measure 43
0110
0000
0100
0001
0101
0000
0001
0010
,  // measure 44
0011
0000
0010
0000
0100
0100
0200
0000
,  // measure 45
0310
0100
0010
0000
0001
0000
1000
0000
,  // measure 46
0001
0100
0001
0000
0100
0000
0001
0100
,  // measure 47
0101
0000
0001
0010
0011
0000
0010
0100
,  // measure 48
0110
1100
1001
0101
,  // measure 49
0100
0000
0001
0000
1000
0001
1000
0000
,  // measure 50
0100
0000
0010
0000
0100
1000
1000
0100
,  // measure 51
1100
0000
1000
0010
1010
0000
0010
0100
,  // measure 52
0110
0101
1001
0110
;
