#TITLE:good 4 u;
#SUBTITLE:;
#ARTIST:Olivia Rodrigo;
#TITLETRANSLIT:;
#SUBTITLETRANSLIT:;
#ARTISTTRANSLIT:;
#CREDIT:;
#BANNER:good 4 u banner.png;
#BACKGROUND:good 4 u bg.png;
#LYRICSPATH:;
#CDTITLE:;
#MUSIC:good 4 u.mp3;
#OFFSET:-3.460;
#SAMPLESTART:29.060;
#SAMPLELENGTH:15.000;
#SELECTABLE:YES;
#BPMS:0.000=84.300,36.000=166.200,148.000=83.000,196.000=166.200,244.000=83.000,248.000=166.200;
#STOPS:;
#BGCHANGES:4.250=good 4 u.avi=1.000=1=0=0,
99999=-nosongbg-=1.000=0=0=0 // don't automatically add -songbackground-
;

//---------------dance-single - ----------------
#NOTES:
     dance-single:
     :
     Hard:
     9:
     0.654,0.744,0.271,0.264,0.367:
0000
0000
0000
0000
,
1000
0000
0100
0010
0001
0010
0001
0010
0100
0010
1000
0100
0010
0001
0020
0000
,
0130
0000
1000
0100
0010
0100
0010
0001
0010
0100
0010
1000
0100
0010
0002
0000
,
0013
0100
1000
0100
0010
0100
1000
0100
0010
0001
0100
1000
0100
0000
0001
0000
,
0010
0100
0010
0010
1000
1000
0100
0100
,
0110
0000
0010
0001
0010
0100
0010
1000
0100
0010
0100
0010
0001
1000
0020
0000
,
0130
0000
0001
0010
1000
0010
0001
0100
1000
0010
0100
0010
1000
0001
0200
0000
,
0310
0001
1000
0100
0001
0100
0010
1000
0010
0000
0100
0001
1000
0000
0010
0000
,
0110
0000
1000
0000
0100
0000
0010
0000
0001
0000
0000
0000
0010
0100
0010
0000
,
1001
0000
0100
0010
0001
0010
0000
0010
,
0000
0100
0001
1000
0000
0010
0100
0010
,
1001
0110
0011
0011
,
0001
0010
0100
1000
0200
1000
0010
0310
,
1001
0000
0110
0000
1000
0100
0010
0001
,
0000
0010
0100
0010
1000
0001
0100
0010
,
0110
0110
1001
1001
,
0010
0100
0001
1000
0010
0010
0100
0001
,
1000
0000
2000
3100
0020
0000
0032
0013
,
0200
0010
0310
0000
0110
0000
1000
0010
,
0100
0001
0020
0000
0130
0000
0010
0010
,
0100
0001
1000
0010
0100
0001
1000
0010
,
0100
0000
0011
0010
0100
1000
0100
0010
,
0010
0100
1000
0001
0100
0010
1000
0010
,
0100
0011
0110
0110
,
1001
0000
0010
0000
0200
0010
0310
0100
,
1001
0000
1000
0000
0001
0010
0100
2000
,
0000
3100
0010
0200
0000
0310
0001
1000
,
0010
0100
0010
0100
0001
1000
0001
1000
,
0100
0010
0001
0010
0100
1000
0100
0010
,
0001
0010
0012
0000
0013
0100
1000
0100
,
0010
0001
0010
0100
1000
0100
0010
0001
,
0010
0100
0010
1000
0001
0100
0010
0001
,
1000
1000
0100
0100
0010
0010
0001
0001
,
0110
0010
1000
0001
0100
0010
1000
0001
,
0010
0001
0100
1000
0100
0010
1000
0010
,
0100
0001
0101
0000
0110
0000
1010
0000
,
0100
0001
1000
0010
0100
0001
0100
0000
,
1000
0100
0010
0000
0100
0000
0001
0020
0000
0000
0130
0002
0000
0000
0003
1000
,
0100
0010
0100
0000
0010
0000
0001
0020
0000
0230
0000
0320
0000
0030
0000
0000
,
1000
0100
0001
0000
0100
0000
0010
2000
0000
0000
3100
0020
0000
0000
0130
0000
,
0001
0010
0100
0000
0010
0000
1000
0020
0000
0030
0100
0002
0000
0003
0000
0000
,
0010
0100
0010
0000
0001
0010
0001
0000
0010
0100
0010
0000
0100
1000
0100
0000
,
0010
1000
0010
0000
0100
0001
0100
1000
0100
0020
0000
2030
0000
3002
0000
0003
,
0010
0100
0010
0000
1000
0001
1000
0000
0010
0100
0010
0000
0001
0100
0010
0100
,
1000
0100
0010
0000
0100
0000
0001
2000
0000
3000
0010
0200
0000
0000
0000
0000
,
0310
0000
0010
0000
0100
0001
0000
1000
0000
0010
0100
0010
0000
0100
0001
0010
,
1000
0000
1000
0000
0100
0000
0100
0000
0010
1000
0010
0001
0100
0000
0010
0200
,
0000
0000
0300
0000
0001
0010
0000
0010
0000
0100
1000
0100
0001
0100
1000
0100
,
0010
0000
0010
0000
0100
0000
0100
0000
0010
0100
0010
0000
0001
0010
0100
1000
,
1001
0000
0100
0010
0001
0010
1000
0010
,
0100
0010
0010
0000
0001
0010
0100
2000
,
0100
3000
0010
0100
0010
1000
0001
0100
,
0010
0010
0100
0100
0001
1000
0010
0100
,
1001
0000
0010
1000
0100
0100
0010
1000
,
0010
0010
0001
0100
0010
0001
0010
0100
,
0110
0110
1001
1001
,
0001
0010
0100
1000
0100
0100
0020
0000
,
0130
0000
0001
0010
1000
0010
0001
0020
,
0000
0130
0001
0200
0000
0310
1010
0000
,
0100
0010
0100
0010
1000
0001
1000
0001
,
0100
0010
1000
0001
0100
0010
1000
0001
,
0100
0000
0010
1000
0100
0001
0100
0010
1000
0100
0001
0100
0010
1000
0100
0000
,
1001
1001
0000
0000
0000
0000
0000
0000
;

//---------------dance-single - ----------------
#NOTES:
     dance-single:
     :
     Medium:
     7:
     0.454,0.422,0.160,0.088,0.000:
0000
0000
0000
0000
,
1000
0100
0010
0001
0010
0001
0100
0010
,
0000
0100
0010
1000
0100
0001
0100
0010
,
0000
1000
0100
0010
0001
0010
0100
0010
,
1000
0100
0010
0001
,
0010
0100
0010
1000
0100
1000
0100
0010
,
0000
0100
0010
1000
0100
0001
0100
0010
,
0000
0001
0010
0100
0010
0100
0010
0010
,
1000
0100
0001
0100
0010
0000
0100
0100
,
0110
0000
0010
0001
,
0010
0000
0100
0000
0010
0000
1000
0100
,
0010
0100
0110
0110
,
0010
1000
0001
0000
0010
1000
0001
0000
,
0200
0000
0000
0300
0010
0100
0000
0100
,
0000
0010
0001
0000
0010
0100
0010
0000
,
1000
0100
1100
0110
,
0100
1000
0001
0010
0001
0000
0010
0100
,
0001
0000
0010
0100
2000
0000
3100
0010
,
0200
0000
0310
0001
0010
0000
0100
0002
,
0000
0003
0010
0000
0110
0000
0010
0100
,
0010
0000
1000
0001
0000
0010
0000
0100
,
0010
0000
1000
0100
0010
0000
0010
0100
,
0000
0100
0010
0000
1000
0001
0100
0010
,
0100
0110
0010
0110
,
0011
0000
0110
0000
1000
0100
1000
0000
,
0020
0000
0031
0100
0001
0000
0010
1000
,
0000
0000
1000
0010
0000
0100
0010
0000
,
1000
0001
1000
0001
1000
0000
0010
0000
,
0100
0010
0100
0010
0100
0000
0001
0000
,
1000
0100
2000
0000
3100
0000
0010
0000
,
0100
0000
0001
0000
0010
0100
0010
0000
,
0100
1000
0100
0000
0010
0100
0010
0000
,
1000
0100
0010
0000
0001
0010
0100
0000
,
0010
0000
0100
0000
0001
0010
0100
0000
,
0010
0001
0010
0000
0010
0100
0010
0000
,
1000
0001
0100
0000
0010
1000
0001
0000
,
0010
0100
0010
0100
0010
0000
0100
0000
,
0010
0100
0001
0010
0100
0100
2000
0000
,
3100
0010
0100
0010
0001
0001
0020
0000
,
0130
0001
1000
0010
0100
0001
0002
0000
,
0013
0100
0010
1000
0010
0010
0110
0000
,
0100
0010
1000
0100
0001
0100
0010
0010
,
0100
1000
0100
0001
0100
0100
1000
0100
,
0010
1000
0100
0010
0001
0010
0100
1000
,
0100
0100
0010
0100
0001
1000
0010
0100
,
1001
0000
0010
0010
0100
0100
0001
1000
,
0010
0010
0001
0001
0010
0100
1000
0100
,
0020
0000
0130
1000
0100
0100
0010
0100
,
0001
0001
0010
0010
0100
0001
1000
0010
,
1001
0000
0010
0000
0100
0010
0001
0000
,
0010
0100
1000
0000
0010
0000
1000
0001
,
0000
0001
1000
0000
0110
0000
1000
0001
,
0100
0000
0100
0010
1000
0000
0100
0001
,
0100
0000
0010
0000
1000
0100
0010
0001
,
0001
0000
0010
0100
0010
0000
1000
0100
,
0010
0110
0100
0110
,
1100
0000
0110
0000
0001
0010
0100
0000
,
0020
0000
0130
0001
0100
0000
0010
1000
,
0000
0000
1000
0010
0000
0100
0001
0000
,
0010
1000
0001
0000
0100
0010
1000
0000
,
0010
0100
0001
0000
0010
0001
0100
0000
,
0010
1000
0100
0001
0100
0010
0001
1000
,
1001
1001
0000
0000
0000
0000
0000
0000
;

//---------------dance-single - ----------------
#NOTES:
     dance-single:
     :
     Easy:
     4:
     0.301,0.297,0.104,0.064,0.000: // measure 1
0000
0000
0000
0000
,  // measure 2
1000
0100
0010
0001
,  // measure 3
0010
0100
1000
0100
,  // measure 4
0010
0010
0100
0100
,  // measure 5
0002
0010
0010
0013
,  // measure 6
0100
0010
0100
0010
,  // measure 7
1000
0001
1000
0001
,  // measure 8
0100
1000
0010
0100
,  // measure 9
0010
0010
0010
0100
,  // measure 10
1001
0010
0001
0100
,  // measure 11
0010
1000
0100
0010
,  // measure 12
1000
1000
0001
0001
,  // measure 13
0100
0010
1000
0001
,  // measure 14
0200
0300
0010
0010
,  // measure 15
0100
0100
0001
1000
,  // measure 16
0010
0100
0001
1000
,  // measure 17
0010
0100
0001
0100
,  // measure 18
0110
1000
1000
0100
,  // measure 19
0100
0010
0001
0100
,  // measure 20
0010
0002
0013
0100
,  // measure 21
0010
1000
0010
0100
,  // measure 22
1001
0000
0010
0100
,  // measure 23
0010
0010
0001
0001
,  // measure 24
0020
0030
0200
0300
,  // measure 25
0010
1000
0001
0100
,  // measure 26
0110
1000
1000
1000
,  // measure 27
0100
0100
0010
0010
,  // measure 28
0001
0010
0100
1000
,  // measure 29
0001
0001
0010
0010
,  // measure 30
0200
0300
0110
0001
,  // measure 31
0010
1000
0010
0001
,  // measure 32
0100
0010
1000
0100
,  // measure 33
0010
1000
0100
0001
,  // measure 34
0100
1000
0010
0100
,  // measure 35
0001
0010
1000
0010
,  // measure 36
0001
0100
0010
1000
,  // measure 37
0100
0001
1000
0100
,  // measure 38
0010
0010
0100
0100
,  // measure 39
0010
0001
1000
0010
,  // measure 40
1000
1000
0001
0001
,  // measure 41
0100
0010
1000
0001
,  // measure 42
0100
1000
0100
1000
,  // measure 43
0010
0100
0010
0001
,  // measure 44
0010
0100
0010
0100
,  // measure 45
0001
0001
0010
0210
,  // measure 46
0010
0000
0310
0000
0100
0000
0001
0001
,  // measure 47
0001
0000
0010
0000
0100
0000
0010
0010
,  // measure 48
0010
0000
0100
0000
1000
0000
0100
0100
,  // measure 49
0100
1000
1001
0000
,  // measure 50
0110
0010
1000
0001
,  // measure 51
0100
0010
1000
1000
,  // measure 52
0100
2000
3100
0010
,  // measure 53
0100
0100
0001
1000
,  // measure 54
0110
0100
0001
1000
,  // measure 55
0010
0010
0100
0100
,  // measure 56
0001
0010
0100
1000
,  // measure 57
0110
0110
0110
0001
,  // measure 58
0010
0010
0100
0001
,  // measure 59
1000
0010
0100
0100
,  // measure 60
0010
1000
0001
1000
,  // measure 61
0010
0100
0001
1000
,  // measure 62
0010
0000
0100
0000
0001
1000
0001
0000
,  // measure 63
1001
0000
0000
0000
;
