#TITLE:Wildest Dreams (Taylor's Version);
#SUBTITLE:;
#ARTIST:Taylor Swift;
#TITLETRANSLIT:;
#SUBTITLETRANSLIT:;
#ARTISTTRANSLIT:;
#CREDIT:;
#BANNER:Wildest Dreams banner.png;
#BACKGROUND:Wildest Dreams bg.png;
#LYRICSPATH:;
#CDTITLE:;
#MUSIC:Wildest Dreams (Taylor's Version).mp3;
#OFFSET:-13.900;
#SAMPLESTART:41.200;
#SAMPLELENGTH:15.000;
#SELECTABLE:YES;
#BPMS:0.000=140.000,141.000=131.600;
#STOPS:60.000=1.220
;
#BGCHANGES:;

//---------------dance-single - ----------------
#NOTES:
     dance-single:
     :
     Hard:
     7:
     0.401,0.392,0.118,0.296,0.000:
2000
0000
3000
0100
0010
0100
0001
0000
,
0020
0000
0030
0000
0001
0010
0100
1000
,
0100
0010
0000
0010
0100
0000
1000
0001
,
2000
0000
3100
0000
0100
0010
0100
0000
,
0001
1000
0010
0000
0110
0000
0100
0002
,
0000
0000
0003
0000
0010
0100
1000
0000
,
0100
1000
0001
0000
0010
0000
0100
0000
,
1000
1000
0100
0010
0001
0000
0001
0010
,
0100
0010
1000
0000
0210
0000
0300
0010
,
1000
0001
0100
0000
1002
0000
0003
0000
,
0010
0100
0010
0000
1010
0000
0100
0010
,
0001
0010
0100
0000
0001
0010
0100
1000
,
0100
0010
1000
0100
0010
0000
0100
0000
,
0010
1000
0001
0000
1001
0000
0000
0010
,
0100
0000
0000
1000
0001
1000
0000
0000
,
1001
0000
1000
0100
0010
0001
0010
0000
,
0010
0100
0010
0000
1010
0000
0100
0001
,
0001
0010
2000
0000
3100
0000
0010
1000
,
0100
0010
0002
0000
0013
0000
0200
0000
,
0000
0000
0310
1000
0001
0100
0010
0000
,
0010
0100
0010
0000
1001
0000
1000
0001
,
1000
0001
0020
0000
0130
0000
1000
0001
,
0010
0100
0010
1000
0100
0001
0100
0000
,
0010
0100
0210
0000
0010
0010
0010
0000
,
0301
1000
0002
0000
0010
0010
0013
0000
,
0100
0000
1000
0100
0020
0000
0000
0000
,
0230
0000
0301
1000
0010
0200
0000
0301
,
2000
0000
3010
0100
0001
1000
0010
0100
,
0100
0010
1000
0000
0100
0010
0001
0010
,
0200
0000
0010
0300
0002
0000
0013
0100
,
0010
1000
0010
0000
0100
0000
0001
1000
,
0010
0100
0001
1000
0001
0100
0010
1000
,
0100
0001
0100
0000
0100
0010
0210
0000
,
2300
0000
3100
0010
0020
0000
0002
0030
,
0000
0000
0000
0000
0000
0000
0010
0003
,
0100
0010
0000
0100
,
0010
1000
0002
0000
0000
0000
0013
0000
,
0200
0000
0000
0000
2000
0300
0000
0000
,
0000
0000
0000
0000
,
3000
0000
0000
0000
;

//---------------dance-single - ----------------
#NOTES:
     dance-single:
     :
     Medium:
     5:
     0.311,0.323,0.047,0.166,0.000:
1000
0000
0000
0010
0100
0000
1000
0000
,
0002
0000
0013
0100
,
0010
0000
0000
1000
0001
0000
0010
0100
,
0020
0000
0130
0100
,
1000
0000
0001
0000
0100
0000
0010
1000
,
0010
0000
0100
0010
,
0001
0010
0100
0000
0000
0000
0100
0000
,
1000
0000
0001
1000
0001
0000
0100
1000
,
0000
1000
0100
0000
0020
0000
0030
0100
,
1000
0001
0002
0000
,
0013
0100
0010
0000
1001
0000
0010
0000
,
1000
0001
1000
0000
0010
0100
0020
0000
,
1030
1000
0100
0100
,
0001
0000
1000
0000
0010
0000
0000
0010
,
0100
0000
0000
0100
0010
0100
0000
0000
,
1001
0000
1000
0010
0000
0010
0001
0000
,
0001
0020
0000
0000
0130
0000
0001
1000
,
0001
0010
0110
0100
,
1000
0010
0001
0200
,
0000
0300
0010
1000
0000
0001
0100
0000
,
1000
0010
1000
0000
0100
0000
0001
0010
,
0001
0000
0010
0000
1010
0000
0100
0001
,
0100
0010
1000
0002
,
1003
0000
0010
0100
0010
0000
1000
0000
,
0010
0100
0010
0000
1000
0000
0100
0000
,
0010
0000
0001
0010
0002
0000
0000
0000
,
0013
0000
0010
0000
0100
1000
0000
1000
,
0100
0000
0010
0000
1000
0001
1000
0000
,
0100
1000
0100
0000
0010
0001
0010
0000
,
0100
1000
0200
0000
,
1300
0000
0100
0000
0100
0000
0010
1000
,
0001
0000
0001
0000
0010
0100
0010
0000
,
1000
0100
0001
0000
0001
0100
1000
0000
,
0010
0000
0100
0010
0200
0000
0010
0000
,
0300
0010
1000
0001
,
0100
0010
0000
0010
,
0100
0010
0200
0000
0000
0000
0310
0000
,
0002
0000
0203
0000
,
0000
0000
0000
0000
,
0300
0000
0000
0000
;

//---------------dance-single - ----------------
#NOTES:
     dance-single:
     :
     Easy:
     2:
     0.242,0.208,0.012,0.189,0.000: // measure 1
1000
0100
0010
0001
,  // measure 2
0020
0000
0130
0001
,  // measure 3
0100
0000
0010
1000
,  // measure 4
0020
0000
0030
1000
,  // measure 5
0100
0010
0001
0100
,  // measure 6
0010
0000
0010
0100
,  // measure 7
1000
0200
0000
0300
,  // measure 8
0010
0100
0010
0010
,  // measure 9
1000
0100
0002
0000
,  // measure 10
0013
0100
2000
0000
,  // measure 11
3010
0100
0010
1000
,  // measure 12
0001
0001
0010
0100
,  // measure 13
1000
0100
0020
0000
,  // measure 14
0130
0001
0200
0000
,  // measure 15
0310
0000
1000
0000
,  // measure 16
0001
0010
0100
1000
,  // measure 17
0100
0020
0000
0130
,  // measure 18
1000
0100
0100
0001
,  // measure 19
0010
0001
0001
0110
,  // measure 20
0000
1000
0100
0001
,  // measure 21
0100
2000
0000
3100
,  // measure 22
0010
0100
0100
0001
,  // measure 23
1000
0001
0010
0100
,  // measure 24
1000
0010
0010
0010
,  // measure 25
0100
0020
0000
0130
,  // measure 26
0001
1000
0020
0000
,  // measure 27
0031
1000
0001
0010
,  // measure 28
0100
0010
0010
1000
,  // measure 29
1000
0200
0000
0310
,  // measure 30
1000
0010
0002
0000
,  // measure 31
0013
0100
0100
0010
,  // measure 32
0010
0001
0010
0100
,  // measure 33
1000
0100
0010
0001
,  // measure 34
0010
0001
0200
0000
,  // measure 35
0000
1300
0100
0010
,  // measure 36
0001
0100
0000
0010
,  // measure 37
1000
0010
0000
0001
,  // measure 38
0020
0000
0230
0000
,  // measure 39
0000
0000
0000
0000
,  // measure 40
0300
0000
0000
0000
;
