#TITLE:Weekend;
#SUBTITLE:;
#ARTIST:TAEYEON;
#TITLETRANSLIT:;
#SUBTITLETRANSLIT:;
#ARTISTTRANSLIT:;
#CREDIT:;
#BANNER:Weekend banner.png;
#BACKGROUND:Weekend bg.png;
#LYRICSPATH:;
#CDTITLE:;
#MUSIC:Weekend.mp3;
#OFFSET:-8.080;
#SAMPLESTART:61.640;
#SAMPLELENGTH:15.000;
#SELECTABLE:YES;
#BPMS:0.000=114.000;
#STOPS:0.000=2.540
;
#BGCHANGES:;

//---------------dance-single - ----------------
#NOTES:
     dance-single:
     :
     Hard:
     8:
     0.490,0.430,0.214,0.224,0.367:
0000
0000
0000
0000
1000
0000
0100
0000
0000
0001
0000
0000
0100
0000
0000
0100
,
0000
0000
0010
0100
0010
0000
0110
0000
0010
0000
1000
0000
0100
0000
0000
0001
,
0000
0000
0001
1000
0001
0000
1001
0000
1000
0000
0010
0000
0100
0000
0000
0010
,
0000
0000
0100
0010
0001
0010
0100
1000
0000
0000
0010
0100
1000
0100
0010
0001
,
0000
0100
0010
0000
0110
0000
1000
0000
0000
0001
0000
0000
0110
0000
0000
1000
,
0000
0000
0010
0100
0010
0000
1000
0000
0100
0000
0010
0000
0001
0000
0000
0001
,
0000
0000
0010
0100
0010
0000
0100
0000
1000
0000
0001
0000
1000
0000
0000
1000
,
0000
0000
0100
0000
0010
0001
0010
0100
0000
0000
0010
0100
1000
0100
0010
0001
,
0000
0000
1000
0000
2100
0000
3000
0000
0100
0010
0001
0000
0010
0000
0000
0100
,
0000
0001
0010
0000
0100
0000
0010
0000
1000
0000
0100
0000
0001
0000
0000
0010
,
0000
1000
0100
0000
0012
0000
0003
0000
0010
1000
0100
0000
0010
0000
0000
0100
,
0000
0010
0000
0010
0100
0001
1000
0010
,
0100
0010
0001
0000
0110
0000
0000
0000
0010
0100
0010
0000
1000
0000
0000
0001
,
0000
0100
0010
0000
0001
0000
1000
0000
0100
0000
0001
0000
0010
0000
0000
0010
,
0000
0001
0010
0000
0110
0000
0000
0000
1000
0100
1000
0000
0010
0000
0000
0100
,
0000
1000
0001
0010
0100
1000
0100
0010
,
0001
0100
0010
0010
0100
0100
0001
0010
,
1000
0010
0001
1000
0100
1000
0020
0000
,
0200
0030
0000
0000
0002
0300
0000
0000
0000
0000
0000
0000
0013
0000
0000
0000
,
0100
0000
0010
0001
0010
0100
1000
0100
0010
0001
0010
0100
,
0010
0000
1000
0000
0110
0000
0010
0000
0011
0000
0010
0000
0110
0000
0000
0001
,
0010
0010
1100
0100
0110
0010
0002
0000
,
0020
0003
0030
0000
0100
0000
1001
0000
0000
0000
1001
0000
0000
0000
0110
0000
,
0001
0010
0000
0020
0000
0000
0130
0000
0001
0000
1000
0000
0010
0000
0000
0000
,
0100
0000
0000
0000
0220
0000
0000
0000
0000
0000
0330
0000
0001
0000
0010
0100
,
0000
0000
0010
1000
0100
0001
0100
1000
,
0010
0000
0000
0000
0200
0000
0000
0000
0000
0000
0300
0000
0010
0100
0000
1000
,
0000
0100
1000
0100
0001
0100
0010
1000
,
0010
0200
0302
0023
,
1030
0100
0100
0010
0100
0010
0001
0000
,
0001
0000
0020
0130
2000
3100
0020
0000
,
0130
1001
0000
0010
,
0100
0001
0000
0000
0110
0000
0010
0000
0100
0000
0010
2000
0000
0000
3000
0000
,
0100
0000
0010
0000
0001
0010
0000
0000
0100
0000
1000
0020
0000
0000
0130
0000
,
0001
0010
0000
0000
0100
0000
0100
0000
0010
0000
0110
0000
0010
1000
0000
0002
,
0000
0000
0013
0000
0100
0000
0010
0100
0000
0100
0010
0000
0000
0000
0010
0000
,
0100
0001
0000
0000
0010
0000
0100
1000
0000
1000
0100
0000
0010
0000
0001
0000
,
0010
0000
0001
0000
0010
0100
0000
0010
0000
1000
0000
0001
0000
0000
0010
0000
,
0100
0000
0010
0000
1000
0000
0100
0000
0100
0000
0010
0000
0100
0002
0000
0000
,
0013
0100
0000
0000
0010
0000
1000
0001
0000
0001
1000
0000
0000
0000
0020
0000
,
0100
0130
1001
0000
0000
0000
0000
0000
;

//---------------dance-single - ----------------
#NOTES:
     dance-single:
     :
     Medium:
     7:
     0.351,0.328,0.051,0.153,0.000:
0000
0000
1000
0000
0100
0010
2000
0000
,
3100
0000
0010
0010
0100
0100
0002
0000
,
0013
0000
0100
0100
0001
0001
0020
0000
,
0130
0000
0001
0010
0001
0000
0100
1000
,
0100
1000
0000
0010
0000
0100
0010
0000
,
1000
0000
0010
0100
0010
0100
0001
0000
,
1000
0000
0001
1000
0001
1000
0010
0000
,
0100
0000
1000
0100
0000
0100
0010
0000
,
0001
1000
0110
0000
0010
0100
0010
0000
,
0010
0000
1000
1000
0100
0100
0010
0000
,
0001
0000
0200
0000
0310
0001
0010
0000
,
0100
0010
0000
0001
0000
0010
0000
1000
,
0000
0010
0100
0000
0100
0010
0001
0000
,
0010
0000
0001
0001
0010
0010
0200
0000
,
1300
0000
0010
0000
0100
1000
0001
0000
,
0010
0100
0000
0010
0100
0000
0010
0000
,
1000
0000
0010
0100
0010
0001
0010
0000
,
0010
0000
0100
1000
0100
0010
0100
0000
,
0100
0020
0000
0130
,
0001
0010
1000
0010
,
0100
1000
0010
0100
0001
0010
0001
0000
,
0001
0000
0010
0100
0010
1000
0010
0000
,
0010
0000
1000
0001
0000
1001
0000
1000
,
0010
0100
0001
0000
0010
0100
0010
0000
,
1000
0000
0220
0000
0000
0330
0010
0000
,
0001
0000
0010
0100
0010
0000
1000
0100
,
0010
0000
2000
0000
0000
3000
0100
0000
,
0010
0000
0100
0010
0001
0000
0010
0100
,
1000
0020
0230
0302
,
1003
0000
0010
0100
0010
0000
1000
0000
,
0001
0000
0010
0100
1000
0100
0010
0000
,
0100
0110
0000
0010
,
0100
0010
0001
0001
0010
0100
0010
0000
,
0100
1000
0100
0100
0010
1000
0010
0000
,
0100
0010
1000
0100
0001
0100
0010
0000
,
1000
0000
0010
0100
0001
0200
0300
0000
,
0010
0000
0100
0010
1000
0001
0020
0000
,
0130
0001
0010
1000
0010
0100
2000
0000
,
3100
0010
0100
0010
1000
0100
0001
0000
,
0001
0010
0100
0010
1000
0010
0000
0100
,
0000
0010
1001
0000
0000
0000
0000
0000
;

//---------------dance-single - ----------------
#NOTES:
     dance-single:
     :
     Easy:
     4:
     0.239,0.246,0.031,0.143,0.000: // measure 1
0000
1000
0100
0020
,  // measure 2
0030
0100
0001
0020
,  // measure 3
0030
0001
1000
0200
,  // measure 4
0300
0010
1000
0100
,  // measure 5
0001
0100
0010
2000
,  // measure 6
3000
0100
0010
2000
,  // measure 7
3000
0100
0001
0020
,  // measure 8
0030
0100
0001
1000
,  // measure 9
0010
0100
0100
0010
,  // measure 10
0010
0001
1000
0001
,  // measure 11
1000
0010
0010
0100
,  // measure 12
0100
0010
1000
0010
,  // measure 13
0001
1000
1000
0010
,  // measure 14
0010
0100
0001
0010
,  // measure 15
1000
0001
0001
0010
,  // measure 16
0010
0100
0010
1000
,  // measure 17
0100
0001
1000
0010
,  // measure 18
0100
0010
0001
0010
,  // measure 19
0100
0020
0000
0030
,  // measure 20
0000
1000
0100
0001
,  // measure 21
0100
1000
1000
0100
,  // measure 22
0100
0010
0010
0001
,  // measure 23
1000
0020
0030
0100
,  // measure 24
0100
0010
1000
0001
,  // measure 25
0100
0220
0000
0330
,  // measure 26
0010
0100
0001
1000
,  // measure 27
0010
0200
0000
0310
,  // measure 28
0001
1000
0010
0001
,  // measure 29
0100
1000
1000
0100
,  // measure 30
0100
0010
0100
0001
,  // measure 31
1000
0020
0230
0302
,  // measure 32
0013
0110
0000
0010
,  // measure 33
0100
0001
0010
0010
,  // measure 34
0100
1000
0010
0010
,  // measure 35
0100
1000
0100
0100
,  // measure 36
0001
1000
0010
0100
,  // measure 37
0010
0000
0001
0000
0010
0010
0000
0000
,  // measure 38
0100
0000
0010
0000
1000
1000
0000
0000
,  // measure 39
0100
0010
1000
0100
,  // measure 40
0100
0001
0010
0100
,  // measure 41
1000
1001
0000
0000
;
