#TITLE:TAIL;
#SUBTITLE:;
#ARTIST:SUNMI;
#TITLETRANSLIT:;
#SUBTITLETRANSLIT:;
#ARTISTTRANSLIT:;
#CREDIT:;
#BANNER:TAIL banner.png;
#BACKGROUND:TAIL bg.png;
#LYRICSPATH:;
#CDTITLE:;
#MUSIC:TAIL.mp3;
#OFFSET:-8.040;
#SAMPLESTART:48.360;
#SAMPLELENGTH:15.000;
#SELECTABLE:YES;
#BPMS:0.000=125.000;
#STOPS:;
#BGCHANGES:;

//---------------dance-single - ----------------
#NOTES:
     dance-single:
     :
     Hard:
     9:
     0.503,0.476,0.258,0.180,0.740:
1001
0000
0000
0010
0000
0200
0000
0000
0000
0310
0000
0002
,
0000
0000
0000
0013
0000
2000
0000
0000
0000
3100
0000
0020
,
0000
0000
0000
0130
0000
0002
0000
0000
0000
0000
0000
0003
,
2002
0000
0000
0000
0000
0000
0000
0000
0000
0000
3003
0000
,
2000
0000
0000
0100
0000
0000
0010
0000
0000
3100
0000
0001
,
0010
0000
0010
0100
0000
0010
0000
0000
1000
0000
0000
0001
,
0010
0000
0000
0100
0000
0000
0010
0000
0100
1000
0000
0100
,
0000
0000
0100
0010
0000
1000
0001
0000
0001
0000
0000
0000
,
0002
0000
0000
0010
0000
0000
0100
0000
0000
0013
0000
0100
,
0010
0000
0001
0010
0000
0100
0000
0000
0010
0000
0000
1000
,
0100
0000
0000
0000
0010
0000
0100
0000
0010
0000
0001
0010
0000
0010
0100
0000
,
0010
1000
0100
0010
0001
0010
0100
1000
,
1001
0000
0010
0100
0000
0110
0000
0000
0000
0001
0010
0100
,
1000
0000
0100
0010
0000
1001
0000
0000
0000
0010
0100
0010
,
0100
0001
0010
0100
0000
1000
0010
0001
0010
0100
0010
1000
,
0100
0000
0000
0011
0000
0000
0110
0000
0000
0001
0010
0001
,
0010
0000
0100
0000
0000
0110
0000
0001
1000
0100
0010
0100
,
0010
0000
0100
0000
0000
0110
0000
0000
0000
1000
0100
0000
,
0110
0000
0000
0001
0010
0000
0110
0000
0000
0001
0000
0010
,
0100
0010
2000
3100
,
1000
0100
0020
0031
,
0110
0000
0000
1001
0000
0010
0100
0000
0010
1000
0000
0020
,
0000
0000
0000
0130
0000
0000
0010
0000
0000
0001
0000
0010
,
0000
0000
0100
1000
0000
0100
0010
0000
0001
0010
0000
0100
,
0000
0000
0010
0100
0000
0010
0100
0000
0000
0011
0000
0000
,
1001
0000
0000
0010
0000
0100
0000
0000
0010
0000
0000
0100
,
1000
0000
0100
0010
0000
1100
0000
0000
0110
0000
0000
0011
,
0000
0000
1001
0000
0000
0000
0100
0000
0010
1000
0000
0010
,
0000
0000
0100
0000
0000
0001
1000
0100
0010
0001
0010
0100
,
1000
0000
0001
0010
0000
0010
0100
0000
1000
0010
0000
0100
,
1000
0000
1000
0100
0000
0010
0100
0000
0001
0100
0000
0010
,
0001
0000
0001
0010
0000
0010
0100
0000
0100
0010
0000
0001
,
0100
0000
0020
0130
0000
0020
0130
0000
0020
0130
0000
0000
,
1000
0000
0100
0010
0000
0010
0100
0000
0001
1000
0000
0010
,
0100
0000
0001
0010
0000
0100
0010
0000
0100
0010
0000
1000
,
0100
0000
0010
1000
0000
1000
0100
0000
0010
0001
0000
0010
,
2000
0000
0000
3100
,
1010
0000
0100
0010
0000
0010
0100
0000
0010
0001
0000
0100
,
0101
0000
0010
0100
0000
0010
1000
0000
0100
0010
0000
0000
,
1000
0000
0100
0010
0000
0001
0010
0000
0010
0100
0000
0100
,
1000
0000
1000
0100
0000
0010
0200
0000
0000
0000
0000
0300
,
0001
1000
0001
0000
0100
0000
0001
0000
0000
0000
0010
0000
0100
0000
0000
0000
0000
0000
0010
0000
0000
0000
0100
0000
,
1000
0001
1000
0000
0010
0000
0100
0000
0000
0000
0010
0000
0001
0000
0000
0000
0010
0000
1000
0000
0000
0000
0000
0000
,
0110
0000
0001
0010
0000
0010
0100
0000
0100
0010
0000
1000
,
0010
0000
0100
0010
0000
0020
0000
0000
0000
0000
0030
0000
,
1001
0000
0000
0100
0000
0010
1000
0000
0100
0001
0000
0010
,
0100
0000
0000
0010
0000
0001
0010
0000
0000
0100
0000
0100
,
0000
0000
0010
1000
0000
0100
1000
0000
0100
0010
0000
1000
,
0000
0000
1000
0100
0000
0100
0010
0000
0000
1001
0000
0000
,
0010
0000
0000
0001
0000
0010
0100
0000
0010
0000
0000
0100
,
0010
0000
0100
0010
0000
1001
0000
0000
0011
0000
0000
0110
,
0000
0000
1000
0100
0000
1000
0010
0000
1000
0001
0000
1001
,
0000
0000
0110
0000
0000
1001
0010
0100
1000
0100
0010
0001
,
0010
0000
0010
0100
0000
0100
0010
0000
0001
0010
0000
1000
,
0010
0000
0100
1000
0000
0100
0010
0000
0001
1001
0000
0010
,
0001
0000
0010
0100
0000
0010
1000
0000
0100
1000
0000
1000
,
0100
0000
0020
0130
0000
0020
0130
0000
0020
0130
0000
0000
,
1001
0000
0010
0100
0000
0010
0001
0000
0010
0100
0000
0010
,
0001
0000
0010
0100
0000
0010
1000
0000
0010
0100
0000
0010
,
1000
0000
0100
1000
0000
0100
0010
0000
1000
0001
0000
0010
,
0100
0000
0020
0130
0000
0020
0130
0000
0000
1001
0000
0000
;

//---------------dance-single - ----------------
#NOTES:
     dance-single:
     :
     Medium:
     6:
     0.322,0.285,0.125,0.086,0.204:
1000
1000
1000
1000
,
0100
0100
0100
0100
,
0010
0010
0010
0010
,
0002
0000
0000
0003
,
0020
0100
0001
0130
,
0001
0010
0100
1000
,
0100
0000
0010
0100
,
0010
0010
0100
0100
,
2000
0100
0010
3100
,
0010
1000
0100
0001
,
0100
0000
0001
0001
,
0010
0100
0010
0000
0001
0010
0100
0000
,
0110
0000
0000
1000
0000
1000
0000
0000
0000
0100
0000
0000
,
0011
0000
0000
0001
0000
0001
0000
0000
0000
0010
0000
0000
,
0100
0000
0010
0100
0000
0000
0010
0000
1000
0001
0000
0000
,
0001
0010
0100
1000
,
1010
0000
0000
1000
0000
0100
0000
0000
0000
0010
0000
0000
,
0101
0000
0000
0010
0000
0100
0000
0000
0000
0010
0000
0000
,
0110
0100
0110
0010
,
0001
1000
0002
0003
,
1000
0001
2000
3010
,
1001
0000
0000
0010
0000
0000
0100
0000
0000
0001
0000
0010
,
0000
0000
0000
0010
0000
0000
0100
0000
0000
0010
0000
1000
,
0000
0000
1000
0100
0000
0000
0010
0000
0000
0100
0000
0000
,
0010
0010
0100
0100
,
0011
0000
0000
0010
0000
0100
0000
0000
0100
0000
0000
0010
,
0100
0000
0000
0010
0000
1000
0000
0000
0100
0000
0000
0010
,
0000
0000
0001
0000
0000
0000
0010
0000
0000
0100
0000
0001
,
0000
0000
0010
0000
0000
0001
0000
0000
0000
0010
0000
0000
,
0110
1000
0100
0010
,
0100
0010
0001
0100
,
0010
1000
0100
0001
,
0200
0310
0200
0310
,
0110
0001
0010
0100
,
0010
0100
1000
0100
,
0010
0100
0010
0001
,
1000
0000
0000
1001
,
0100
0200
0310
0001
,
0010
0002
0013
0100
,
0001
0000
0010
0001
0000
0000
0010
0000
0100
0010
0000
0000
,
1000
0000
0100
1000
0000
0010
0100
0000
0000
0010
0000
0000
,
0200
0000
0310
0010
,
0002
0000
0013
0010
,
0100
0000
0010
0100
0000
0000
0010
0000
0001
0010
0000
0000
,
0100
0000
0010
1000
0000
1000
0000
0000
0000
1000
0000
0000
,
1001
0000
0000
0100
0000
0000
0010
0000
0000
0001
0000
0010
,
0000
0010
0110
0100
,
0100
0000
0000
0010
0000
0000
1000
0000
0000
0001
0000
0100
,
0000
0000
0100
0010
0000
0000
1000
0000
0000
0001
0000
0000
,
1001
0000
0000
0010
0000
0100
0000
0000
1000
0000
0000
0100
,
0010
0000
0000
1000
0000
0100
0000
0000
0010
0000
0000
0001
,
0000
0000
0010
0000
0000
0000
0100
0000
0010
0100
0000
0001
,
0000
0000
0010
0000
0000
0100
0010
0000
1000
0001
0000
0000
,
0110
0000
0000
0001
0000
0000
0010
0000
0000
0100
0000
0010
,
1000
0000
0000
0100
0000
0000
1000
0000
0000
0100
0000
0010
,
1000
0100
0001
0100
,
0010
0000
0100
0010
0000
0100
0010
0000
0010
0000
0000
0000
,
0100
0000
0000
0001
0000
0000
0010
0000
0100
0010
0000
0000
,
0100
0000
0000
0010
0000
0000
1000
0000
0001
0010
0000
0000
,
0100
0000
0000
0001
0000
0000
0100
0000
1000
0010
0000
0000
,
0100
0000
0010
0100
0000
0010
0100
0000
0000
1001
0000
0000
;

//---------------dance-single - ----------------
#NOTES:
     dance-single:
     :
     Easy:
     3:
     0.268,0.262,0.055,0.086,0.000: // measure 1
0010
0010
0010
0010
,  // measure 2
0100
0100
0100
0100
,  // measure 3
0001
0010
0100
1000
,  // measure 4
0200
0000
0000
0300
,  // measure 5
0020
0000
0000
0030
,  // measure 6
0100
0010
0001
0010
,  // measure 7
0100
0000
0010
1000
,  // measure 8
0100
0010
0001
0001
,  // measure 9
2000
0000
0000
3000
,  // measure 10
0100
0010
0100
0010
,  // measure 11
0001
0000
0010
0010
,  // measure 12
0100
0010
0001
0010
,  // measure 13
1000
0100
0010
0001
,  // measure 14
1000
0100
0010
0001
,  // measure 15
0100
0010
0100
0001
,  // measure 16
0110
1000
1000
0010
,  // measure 17
0100
0001
0010
1000
,  // measure 18
0010
0001
0100
1000
,  // measure 19
0010
0100
0110
0001
,  // measure 20
1000
1000
2000
3000
,  // measure 21
0001
0001
0002
0013
,  // measure 22
0110
0010
0001
0010
,  // measure 23
0100
0000
0010
0100
,  // measure 24
0010
0010
0001
0001
,  // measure 25
0010
0100
1000
0100
,  // measure 26
0110
0000
1000
1000
,  // measure 27
0100
0010
0100
0010
,  // measure 28
0001
0001
0010
0100
,  // measure 29
0010
1000
0001
0010
,  // measure 30
0010
0100
0010
0001
,  // measure 31
0001
0010
0100
1000
,  // measure 32
1000
0100
0010
1000
,  // measure 33
0010
0010
0010
0000
,  // measure 34
1000
0100
0010
0100
,  // measure 35
0010
0001
0010
0001
,  // measure 36
0100
0010
1000
0100
,  // measure 37
0000
0000
0000
1001
,  // measure 38
0010
0100
0020
0130
,  // measure 39
0001
1000
0002
1003
,  // measure 40
0100
0100
0010
0010
,  // measure 41
1000
0100
0002
0000
,  // measure 42
0103
0100
0010
1000
,  // measure 43
0100
0100
0001
1000
,  // measure 44
0010
0010
0001
0100
,  // measure 45
0010
2000
0000
3000
,  // measure 46
1001
0100
0010
1000
,  // measure 47
0100
0001
0100
1000
,  // measure 48
0010
0001
0100
0010
,  // measure 49
1000
0100
0001
0100
,  // measure 50
1000
0010
0100
0010
,  // measure 51
0001
0001
0010
0100
,  // measure 52
0010
1000
0100
0010
,  // measure 53
0100
0100
0010
0010
,  // measure 54
0100
0001
1000
0010
,  // measure 55
0100
0001
1000
0010
,  // measure 56
0001
0001
0010
0010
,  // measure 57
0200
0000
0320
1000
,  // measure 58
1030
0100
0010
0001
,  // measure 59
0001
0010
0100
1000
,  // measure 60
0100
0010
1000
0001
,  // measure 61
0100
0100
0100
0110
;
