#TITLE:Starseed ~Kakusei~;
#SUBTITLE:;
#ARTIST:LOONA;
#TITLETRANSLIT:;
#SUBTITLETRANSLIT:;
#ARTISTTRANSLIT:;
#CREDIT:;
#BANNER:Starseed Kakusei banner.png;
#BACKGROUND:Starseed Kakusei bg.png;
#LYRICSPATH:;
#CDTITLE:;
#MUSIC:Starseed ~Kakusei~.mp3;
#OFFSET:-9.300;
#SAMPLESTART:49.640;
#SAMPLELENGTH:15.000;
#SELECTABLE:YES;
#BPMS:0.000=130.000;
#STOPS:;
#BGCHANGES:;

//---------------dance-single - ----------------
#NOTES:
     dance-single:
     :
     Hard:
     8:
     0.619,0.609,0.234,0.032,0.410:
1000
0000
0010
0000
0100
0010
0001
0010
0100
0000
0010
0000
0001
0000
0010
0000
,
0100
0000
0010
0000
0110
0000
0000
0000
1000
0100
0010
0001
1000
0100
0010
0001
,
0010
0100
0010
0000
1000
0100
1000
0000
0010
0100
0010
0000
0001
0010
0001
0000
,
0100
0010
0100
0000
0001
0010
0001
0000
1000
0010
1000
0000
0010
0000
0100
0000
,
0110
0000
0000
0000
1000
0000
0100
0010
0100
0000
0010
0000
0001
0010
0000
0010
,
0000
0000
0100
0000
0010
1000
0000
1000
0000
0000
0100
0000
0010
0000
0001
0000
,
0110
0000
0000
0000
1000
0000
0100
0010
0001
0000
0010
0000
0100
0010
0000
1000
,
0000
0000
0100
0000
0010
0000
1000
0001
1000
0000
0010
0000
0100
0001
0100
0000
,
0010
0000
0000
1000
0000
0000
0100
0000
0010
0000
0000
0001
0000
0000
0010
0000
,
0110
0000
0000
0100
0000
0000
0010
0000
1000
0000
0100
0000
0001
0000
0100
0000
,
1000
0010
0000
0100
0010
1000
0001
0010
,
0001
0000
1000
0100
1000
0000
0100
0010
0100
0000
0001
0000
0001
0000
0010
0000
,
0110
0000
1000
0000
0001
0010
0000
0100
0000
0000
0010
0000
1000
0000
0010
0000
,
0100
0000
0000
0000
1000
0100
0000
0010
0000
0000
0100
0000
0010
0000
0001
0000
,
0010
0000
0100
0000
0010
1000
0000
0001
0000
0000
0010
0000
0100
0000
0010
0000
,
0110
0000
1000
0000
0001
0000
1000
0000
0010
0000
0100
0010
0100
0000
0001
1000
,
0001
0000
0010
0000
0100
0010
0000
0001
0000
0000
0010
0000
0100
0000
1000
0000
,
0100
0000
0010
0000
1000
0100
0000
0010
0000
0000
0100
0000
1000
0000
0010
0000
,
0100
0000
0010
0001
0011
0010
0100
1000
,
0110
1000
0100
0001
0001
0010
1000
0010
,
0002
0013
0020
0130
0200
1300
0100
0010
,
0100
1001
1001
0110
1001
1000
0001
0010
,
0110
0000
0000
1000
0000
0000
0100
0000
0001
0000
0100
0000
0010
0000
1000
0000
,
0000
0100
0010
0100
0010
0001
0001
0010
,
0100
0000
0000
0010
0000
0000
0100
0000
0000
0000
1000
0000
0100
0000
0001
0000
,
0100
0000
0010
0000
0001
0000
0010
0000
0100
0000
0010
0100
0010
0000
1000
0000
,
0001
0000
0000
0010
0000
0000
0100
0000
0000
0000
0010
0000
0100
0000
0010
0000
,
1000
0000
0100
0000
0010
0000
0010
0000
0100
0000
0000
0000
0010
0000
0001
0010
,
0001
0000
0010
0000
0100
1000
0000
0100
0000
0000
0010
0000
0010
0000
0100
0000
,
0011
0110
1100
0010
0010
0100
0001
0100
,
1001
0000
0000
0010
0000
0000
0100
0000
0010
0000
1000
0000
0100
0000
0001
0000
,
0100
0010
1000
0010
0100
0000
0010
1000
,
1100
0000
0000
0001
0000
0000
0010
0000
0100
0000
0010
0000
0001
0000
1000
0000
,
0010
0000
0100
0000
0001
0010
0001
0000
0000
0000
0010
0000
0001
0000
1000
0000
,
0100
0000
0000
1000
0000
0000
0100
0000
0010
0000
0100
0000
0010
0000
1000
0000
,
0001
0000
1000
0000
0001
0000
0010
0000
0100
0000
0010
0000
1000
0000
0100
0010
,
0100
0000
1000
0000
0001
0010
0000
0100
0000
0000
0010
0000
1000
0000
0010
0000
,
0110
0000
0000
0000
1000
0000
0001
0000
0100
0010
0000
0000
0001
0010
0000
0000
,
0110
0000
1000
0000
0001
0010
0001
0000
0010
0000
0100
0010
0000
0010
0100
0000
,
1000
0100
1000
0000
0010
0000
0100
0001
0100
0000
0010
1000
0010
0000
0001
0000
,
0100
0000
0010
0000
1000
0100
1000
0000
0010
0000
0100
0010
0000
0010
0001
0000
,
0010
0000
0000
0100
0000
0000
0010
0000
0000
0000
0000
0000
1000
0000
0000
0000
0000
0000
0100
0000
0000
0000
0000
0000
0001
0000
0000
0000
0010
0000
0000
0000
0100
0000
0000
0000
1000
0000
0000
0000
0100
0000
0000
0000
0010
0000
0000
0000
,
0000
0000
0000
0000
1000
0001
0100
0000
0010
0000
0100
0010
0000
0010
0100
0000
,
0001
0010
0001
0000
0010
0000
0100
0010
0100
0000
1000
0100
1000
0000
0010
0000
,
0110
0000
1000
0000
0100
0000
0010
0001
0000
0000
0001
0000
0010
0000
0100
0000
,
1000
1000
0010
0010
0100
0000
1001
0000
;

//---------------dance-single - ----------------
#NOTES:
     dance-single:
     :
     Medium:
     6:
     0.388,0.365,0.160,0.011,0.000:
1000
0100
0010
0100
0010
0000
0010
0000
,
0001
0010
0100
0010
0100
0000
0100
0000
,
0010
0010
0010
0010
,
1000
0000
1000
0000
1000
0010
0010
0000
,
1001
0000
0000
0000
0010
0000
0100
0010
,
0001
0000
0001
0010
0100
0000
1000
0000
,
0110
0000
0000
0000
1000
0000
0100
0010
,
0100
0000
0010
0100
0010
0000
0001
0000
,
0010
0000
0100
1000
0100
0000
0010
0000
,
1000
0000
1000
0000
0100
0100
0010
0000
,
0100
0010
0000
0001
0000
0010
0000
0100
,
1000
0000
0100
0000
0010
0100
0100
0000
,
1001
0000
0010
0100
0010
0000
0001
0010
,
0001
0000
0100
0010
0100
0000
1000
0010
,
1000
0000
0100
0100
0100
0000
0010
1000
,
0001
0000
0001
1000
0000
0000
0110
0000
,
0010
0000
0001
0000
0010
0000
0100
1000
,
0100
0000
0010
0000
1000
0000
0001
0100
,
0001
0000
0000
0010
0011
0000
0000
0100
,
1100
0000
0010
0100
0000
0000
0100
0010
,
0100
1000
0001
0100
,
0000
0010
0010
0010
0100
0010
0000
1000
,
1001
0000
0010
0000
0001
0000
0100
0010
,
0000
1000
0100
0010
0000
0001
0010
0100
,
1000
0000
0010
0000
0100
0000
0010
1000
,
0000
0001
0010
0001
0000
0100
0010
0000
,
1001
0000
0010
0000
0001
0010
0100
0000
,
0010
1000
0010
0100
0001
0000
0010
0000
,
0100
0100
0100
0000
1000
0000
0010
0100
,
0000
0001
0001
0001
0001
0010
0000
0100
,
0110
0000
0010
0000
1000
0010
0100
0010
,
0000
0001
0010
0001
0000
0010
0100
0000
,
0110
0000
1000
0001
1000
0001
0010
0100
,
0000
0100
0010
0100
0000
0010
1000
0000
,
1100
0100
0010
0001
,
0011
0010
0100
1000
,
0010
0100
0010
0100
0000
0001
1000
0002
,
0000
0000
0010
0013
,
1001
0000
0010
0010
0100
0010
1000
0000
,
0100
0000
0010
0010
0001
0000
0010
0000
,
0100
0000
0010
1000
0010
0100
0010
0001
,
0010
0000
0100
0000
0010
0000
1000
1000
,
0000
0000
0110
0000
0100
1000
0010
0100
,
0010
0000
0001
1000
0001
0000
0010
0000
,
0100
0010
1000
0001
0100
0000
0100
0000
,
0010
1000
0010
0100
0001
0000
1001
0000
;

//---------------dance-single - ----------------
#NOTES:
     dance-single:
     :
     Easy:
     3:
     0.274,0.268,0.117,0.107,0.000: // measure 1
1000
0100
0010
0001
,  // measure 2
0010
0100
0010
1000
,  // measure 3
0020
0000
0030
0000
,  // measure 4
0200
0000
0300
0010
,  // measure 5
0110
0000
1000
0100
,  // measure 6
0010
0100
0010
0000
,  // measure 7
1001
0000
0001
0010
,  // measure 8
0100
0010
1000
0000
,  // measure 9
0100
1000
0100
0010
,  // measure 10
0100
0000
0100
0010
,  // measure 11
0010
0000
0100
0100
,  // measure 12
0002
0003
0010
0100
,  // measure 13
0010
1000
0001
0100
,  // measure 14
0110
0010
1000
0100
,  // measure 15
0010
1000
0100
0001
,  // measure 16
1000
1000
1000
0000
,  // measure 17
0100
0010
1000
0010
,  // measure 18
1001
0010
0100
0010
,  // measure 19
0002
0003
0020
0030
,  // measure 20
0200
0300
0010
0010
,  // measure 21
1000
0100
0010
0001
,  // measure 22
0000
0100
0100
0010
,  // measure 23
1001
0010
0100
0010
,  // measure 24
1000
0100
0020
0030
,  // measure 25
0100
0010
0001
0010
,  // measure 26
0100
0020
0030
0100
,  // measure 27
1000
0100
0001
0100
,  // measure 28
1000
0010
0010
0100
,  // measure 29
0110
0010
0001
1000
,  // measure 30
0000
0010
0010
0100
,  // measure 31
0110
1000
0010
0100
,  // measure 32
0010
0001
2000
3000
,  // measure 33
0110
1000
0100
0010
,  // measure 34
0100
0010
0000
0010
,  // measure 35
0100
0010
0001
0010
,  // measure 36
0100
0010
1000
0000
,  // measure 37
0010
0100
0010
1000
,  // measure 38
0200
0000
0301
1000
,  // measure 39
1001
0100
0100
0100
,  // measure 40
0010
1000
1000
0100
,  // measure 41
0010
0001
0001
0001
,  // measure 42
0010
0100
0010
1000
,  // measure 43
0000
1001
0010
0100
,  // measure 44
0010
1000
0100
0010
,  // measure 45
0100
0100
0010
0010
,  // measure 46
0100
1000
0001
1001
;
